  0
SECTION
  2
HEADER
  9
$ACADVER
  1
AC1015
  9
$ACADMAINTVER
 70
    20
  9
$DWGCODEPAGE
  3
ANSI_936
  9
$INSBASE
 10
0.0
 20
0.0
 30
0.0
  9
$EXTMIN
 10
4.223813283981421
 20
14.3081762575374
 30
-0.0000000349181948
  9
$EXTMAX
 10
17.32508904019443
 20
19.058858345231
 30
0.0000000814935746
  9
$LIMMIN
 10
0.0
 20
0.0
  9
$LIMMAX
 10
0.0
 20
0.0
  9
$ORTHOMODE
 70
     0
  9
$REGENMODE
 70
     1
  9
$FILLMODE
 70
     1
  9
$QTEXTMODE
 70
     0
  9
$MIRRTEXT
 70
     1
  9
$LTSCALE
 40
1.0
  9
$ATTMODE
 70
     1
  9
$TEXTSIZE
 40
0.0
  9
$TRACEWID
 40
0.05
  9
$TEXTSTYLE
  7
STANDARD
  9
$CLAYER
  8
0
  9
$CELTYPE
  6
CONTINUOUS
  9
$CECOLOR
 62
   256
  9
$CELTSCALE
 40
1.0
  9
$DISPSILH
 70
     0
  9
$DIMSCALE
 40
1.0
  9
$DIMASZ
 40
0.18
  9
$DIMEXO
 40
0.0625
  9
$DIMDLI
 40
0.38
  9
$DIMRND
 40
0.0
  9
$DIMDLE
 40
0.0
  9
$DIMEXE
 40
0.18
  9
$DIMTP
 40
0.0
  9
$DIMTM
 40
0.0
  9
$DIMTXT
 40
0.18
  9
$DIMCEN
 40
0.09
  9
$DIMTSZ
 40
0.0
  9
$DIMTOL
 70
     0
  9
$DIMLIM
 70
     0
  9
$DIMTIH
 70
     1
  9
$DIMTOH
 70
     1
  9
$DIMSE1
 70
     0
  9
$DIMSE2
 70
     0
  9
$DIMTAD
 70
     0
  9
$DIMZIN
 70
     0
  9
$DIMBLK
  1

  9
$DIMASO
 70
     1
  9
$DIMSHO
 70
     1
  9
$DIMPOST
  1

  9
$DIMAPOST
  1

  9
$DIMALT
 70
     0
  9
$DIMALTD
 70
     2
  9
$DIMALTF
 40
25.4
  9
$DIMLFAC
 40
1.0
  9
$DIMTOFL
 70
     0
  9
$DIMTVP
 40
0.0
  9
$DIMTIX
 70
     0
  9
$DIMSOXD
 70
     0
  9
$DIMSAH
 70
     0
  9
$DIMBLK1
  1

  9
$DIMBLK2
  1

  9
$DIMSTYLE
  2
STANDARD
  9
$DIMCLRD
 70
     0
  9
$DIMCLRE
 70
     0
  9
$DIMCLRT
 70
     0
  9
$DIMTFAC
 40
1.0
  9
$DIMGAP
 40
0.09
  9
$DIMJUST
 70
     0
  9
$DIMSD1
 70
     0
  9
$DIMSD2
 70
     0
  9
$DIMTOLJ
 70
     1
  9
$DIMTZIN
 70
     0
  9
$DIMALTZ
 70
     0
  9
$DIMALTTZ
 70
     0
  9
$DIMUPT
 70
     0
  9
$DIMDEC
 70
     4
  9
$DIMTDEC
 70
     4
  9
$DIMALTU
 70
     2
  9
$DIMALTTD
 70
     2
  9
$DIMTXSTY
  7
STANDARD
  9
$DIMAUNIT
 70
     0
  9
$DIMADEC
 70
     0
  9
$DIMALTRND
 40
0.0
  9
$DIMAZIN
 70
     0
  9
$DIMDSEP
 70
    46
  9
$DIMATFIT
 70
     3
  9
$DIMFRAC
 70
     0
  9
$DIMLDRBLK
  1

  9
$DIMLUNIT
 70
     2
  9
$DIMLWD
 70
    -2
  9
$DIMLWE
 70
    -2
  9
$DIMTMOVE
 70
     0
  9
$LUNITS
 70
     2
  9
$LUPREC
 70
     4
  9
$SKETCHINC
 40
0.1
  9
$FILLETRAD
 40
0.0
  9
$AUNITS
 70
     0
  9
$AUPREC
 70
     0
  9
$MENU
  1
acad
  9
$ELEVATION
 40
0.0
  9
$PELEVATION
 40
0.0
  9
$THICKNESS
 40
0.0
  9
$LIMCHECK
 70
     0
  9
$CHAMFERA
 40
0.0
  9
$CHAMFERB
 40
0.0
  9
$CHAMFERC
 40
0.0
  9
$CHAMFERD
 40
0.0
  9
$SKPOLY
 70
     0
  9
$TDCREATE
 40
2444971.750000000
  9
$TDUCREATE
 40
2444971.958333334
  9
$TDUPDATE
 40
2455237.676816702
  9
$TDUUPDATE
 40
2455237.885150035
  9
$TDINDWG
 40
0.0153083449
  9
$TDUSRTIMER
 40
0.0153083449
  9
$USRTIMER
 70
     1
  9
$ANGBASE
 50
0.0
  9
$ANGDIR
 70
     0
  9
$PDMODE
 70
     0
  9
$PDSIZE
 40
0.0
  9
$PLINEWID
 40
0.0
  9
$SPLFRAME
 70
     0
  9
$SPLINETYPE
 70
     6
  9
$SPLINESEGS
 70
     8
  9
$HANDSEED
  5
56B
  9
$SURFTAB1
 70
     6
  9
$SURFTAB2
 70
     6
  9
$SURFTYPE
 70
     6
  9
$SURFU
 70
     6
  9
$SURFV
 70
     6
  9
$UCSBASE
  2

  9
$UCSNAME
  2

  9
$UCSORG
 10
0.0
 20
0.0
 30
0.0
  9
$UCSXDIR
 10
1.0
 20
0.0
 30
0.0
  9
$UCSYDIR
 10
0.0
 20
1.0
 30
0.0
  9
$UCSORTHOREF
  2

  9
$UCSORTHOVIEW
 70
     0
  9
$UCSORGTOP
 10
0.0
 20
0.0
 30
0.0
  9
$UCSORGBOTTOM
 10
0.0
 20
0.0
 30
0.0
  9
$UCSORGLEFT
 10
0.0
 20
0.0
 30
0.0
  9
$UCSORGRIGHT
 10
0.0
 20
0.0
 30
0.0
  9
$UCSORGFRONT
 10
0.0
 20
0.0
 30
0.0
  9
$UCSORGBACK
 10
0.0
 20
0.0
 30
0.0
  9
$PUCSBASE
  2

  9
$PUCSNAME
  2

  9
$PUCSORG
 10
0.0
 20
0.0
 30
0.0
  9
$PUCSXDIR
 10
1.0
 20
0.0
 30
0.0
  9
$PUCSYDIR
 10
0.0
 20
1.0
 30
0.0
  9
$PUCSORTHOREF
  2

  9
$PUCSORTHOVIEW
 70
     0
  9
$PUCSORGTOP
 10
0.0
 20
0.0
 30
0.0
  9
$PUCSORGBOTTOM
 10
0.0
 20
0.0
 30
0.0
  9
$PUCSORGLEFT
 10
0.0
 20
0.0
 30
0.0
  9
$PUCSORGRIGHT
 10
0.0
 20
0.0
 30
0.0
  9
$PUCSORGFRONT
 10
0.0
 20
0.0
 30
0.0
  9
$PUCSORGBACK
 10
0.0
 20
0.0
 30
0.0
  9
$USERI1
 70
     0
  9
$USERI2
 70
     0
  9
$USERI3
 70
     0
  9
$USERI4
 70
     0
  9
$USERI5
 70
     0
  9
$USERR1
 40
0.0
  9
$USERR2
 40
0.0
  9
$USERR3
 40
0.0
  9
$USERR4
 40
0.0
  9
$USERR5
 40
0.0
  9
$WORLDVIEW
 70
     1
  9
$SHADEDGE
 70
     3
  9
$SHADEDIF
 70
    70
  9
$TILEMODE
 70
     1
  9
$MAXACTVP
 70
    16
  9
$PINSBASE
 10
0.0
 20
0.0
 30
0.0
  9
$PLIMCHECK
 70
     0
  9
$PEXTMIN
 10
1.000000000000000E+20
 20
1.000000000000000E+20
 30
1.000000000000000E+20
  9
$PEXTMAX
 10
-1.000000000000000E+20
 20
-1.000000000000000E+20
 30
-1.000000000000000E+20
  9
$PLIMMIN
 10
0.0
 20
0.0
  9
$PLIMMAX
 10
12.0
 20
9.0
  9
$UNITMODE
 70
     0
  9
$VISRETAIN
 70
     0
  9
$PLINEGEN
 70
     0
  9
$PSLTSCALE
 70
     0
  9
$TREEDEPTH
 70
  3020
  9
$CMLSTYLE
  2
STANDARD
  9
$CMLJUST
 70
     0
  9
$CMLSCALE
 40
1.0
  9
$PROXYGRAPHICS
 70
     1
  9
$MEASUREMENT
 70
     0
  9
$CELWEIGHT
370
    -1
  9
$ENDCAPS
280
     0
  9
$JOINSTYLE
280
     0
  9
$LWDISPLAY
290
     0
  9
$INSUNITS
 70
     0
  9
$HYPERLINKBASE
  1

  9
$STYLESHEET
  1

  9
$XEDIT
290
     1
  9
$CEPSNTYPE
380
     0
  9
$PSTYLEMODE
290
     1
  9
$FINGERPRINTGUID
  2
{2E9B72B1-D669-41C2-A277-510BE2585C68}
  9
$VERSIONGUID
  2
{AEC39953-6752-40E5-9D32-5BF2E012CAD1}
  9
$EXTNAMES
290
     1
  9
$PSVPSCALE
 40
0.0
  9
$OLESTARTUP
290
     0
  0
ENDSEC
  0
SECTION
  2
CLASSES
  0
CLASS
  1
IMAGE
  2
AcDbRasterImage
  3
ISM
 90
    34943
280
     0
281
     1
  0
CLASS
  1
DICTIONARYVAR
  2
AcDbDictionaryVar
  3
ObjectDBX Classes
 90
        0
280
     0
281
     0
  0
CLASS
  1
RASTERVARIABLES
  2
AcDbRasterVariables
  3
ISM
 90
    32768
280
     0
281
     0
  0
CLASS
  1
IMAGEDEF
  2
AcDbRasterImageDef
  3
ISM
 90
    32768
280
     0
281
     0
  0
CLASS
  1
IMAGEDEF_REACTOR
  2
AcDbRasterImageDefReactor
  3
ISM
 90
    32769
280
     0
281
     0
  0
CLASS
  1
IDBUFFER
  2
AcDbIdBuffer
  3
ObjectDBX Classes
 90
    32768
280
     0
281
     0
  0
CLASS
  1
SPATIAL_FILTER
  2
AcDbSpatialFilter
  3
ObjectDBX Classes
 90
    32768
280
     0
281
     0
  0
CLASS
  1
SORTENTSTABLE
  2
AcDbSortentsTable
  3
ObjectDBX Classes
 90
    32768
280
     0
281
     0
  0
CLASS
  1
LAYER_INDEX
  2
AcDbLayerIndex
  3
ObjectDBX Classes
 90
    32768
280
     0
281
     0
  0
CLASS
  1
SPATIAL_INDEX
  2
AcDbSpatialIndex
  3
ObjectDBX Classes
 90
    32768
280
     0
281
     0
  0
CLASS
  1
OBJECT_PTR
  2
CAseDLPNTableRecord
  3
ASE-LPNTableRecord
 90
    32769
280
     0
281
     0
  0
CLASS
  1
ACDBDICTIONARYWDFLT
  2
AcDbDictionaryWithDefault
  3
ObjectDBX Classes
 90
        0
280
     0
281
     0
  0
CLASS
  1
ACDBPLACEHOLDER
  2
AcDbPlaceHolder
  3
ObjectDBX Classes
 90
        0
280
     0
281
     0
  0
CLASS
  1
LAYOUT
  2
AcDbLayout
  3
ObjectDBX Classes
 90
        0
280
     0
281
     0
  0
CLASS
  1
MATERIAL
  2
AcDbMaterial
  3
ObjectDBX Classes
 90
     1024
280
     0
281
     0
  0
CLASS
  1
VISUALSTYLE
  2
AcDbVisualStyle
  3
ObjectDBX Classes
 90
     4095
280
     0
281
     0
  0
CLASS
  1
TABLESTYLE
  2
AcDbTableStyle
  3
ObjectDBX Classes
 90
     4095
280
     0
281
     0
  0
ENDSEC
  0
SECTION
  2
TABLES
  0
TABLE
  2
VPORT
  5
7
102
{ACAD_XDICTIONARY
360
450
102
}
330
0
100
AcDbSymbolTable
 70
     2
  0
VPORT
  5
2E
330
7
100
AcDbSymbolTableRecord
100
AcDbViewportTableRecord
  2
DCADVPORT
 70
     0
 10
6.88868277949511
 20
15.31959659875498
 11
15.07172086240148
 21
19.00802227029315
 12
6.209999999999999
 22
9.019999999999999
 13
0.0
 23
0.0
 14
1.0
 24
1.0
 15
0.0
 25
0.0
 16
0.0
 26
0.0
 36
1.0
 17
0.0
 27
0.0
 37
0.0
 40
18.04
 41
0.688564
 42
50.0
 43
1.0
 44
1.0
 50
0.0
 51
0.0
 71
     0
 72
   100
 73
     1
 74
     1
 75
     0
 76
     0
 77
     0
 78
     0
281
     0
 65
     1
110
0.0
120
0.0
130
0.0
111
1.0
121
0.0
131
0.0
112
0.0
122
1.0
132
0.0
 79
     0
146
0.0
  0
VPORT
  5
3C2
330
7
100
AcDbSymbolTableRecord
100
AcDbViewportTableRecord
  2
*Active
 70
     0
 10
0.0
 20
0.0
 11
1.0
 21
1.0
 12
10.77445116208792
 22
16.6835173013842
 13
0.0
 23
0.0
 14
1.0
 24
1.0
 15
0.0
 25
0.0
 16
0.0
 26
0.0
 36
1.0
 17
0.0
 27
0.0
 37
0.0
 40
5.424191183813032
 41
2.426443202979515
 42
50.0
 43
0.0
 44
0.0
 50
0.0
 51
0.0
 71
     0
 72
   100
 73
     1
 74
     1
 75
     0
 76
     0
 77
     0
 78
     0
281
     0
 65
     1
110
0.0
120
0.0
130
0.0
111
1.0
121
0.0
131
0.0
112
0.0
122
1.0
132
0.0
 79
     0
146
0.0
  0
ENDTAB
  0
TABLE
  2
LTYPE
  5
4
330
0
100
AcDbSymbolTable
 70
     2
  0
LTYPE
  5
11
330
4
100
AcDbSymbolTableRecord
100
AcDbLinetypeTableRecord
  2
BYBLOCK
 70
     0
  3

 72
    65
 73
     0
 40
0.0
  0
LTYPE
  5
12
330
4
100
AcDbSymbolTableRecord
100
AcDbLinetypeTableRecord
  2
BYLAYER
 70
     0
  3

 72
    65
 73
     0
 40
0.0
  0
LTYPE
  5
13
330
4
100
AcDbSymbolTableRecord
100
AcDbLinetypeTableRecord
  2
CONTINUOUS
 70
     0
  3
Solid line
 72
    65
 73
     0
 40
0.0
  0
LTYPE
  5
1E
330
4
100
AcDbSymbolTableRecord
100
AcDbLinetypeTableRecord
  2
CONTINUOUS
 70
     0
  3
Solid line
 72
    65
 73
     0
 40
0.0
  0
ENDTAB
  0
TABLE
  2
LAYER
  5
2
330
0
100
AcDbSymbolTable
 70
     5
  0
LAYER
  5
14
330
2
100
AcDbSymbolTableRecord
100
AcDbLayerTableRecord
  2
0
 70
     0
 62
     7
  6
CONTINUOUS
370
    -3
390
284
  0
LAYER
  5
2A
330
2
100
AcDbSymbolTableRecord
100
AcDbLayerTableRecord
  2
DEFPOINTS
 70
     0
 62
   250
  6
CONTINUOUS
290
     0
370
    -3
390
284
  0
LAYER
  5
2B
330
2
100
AcDbSymbolTableRecord
100
AcDbLayerTableRecord
  2
ADP2DETAIL
 70
     0
 62
   250
  6
CONTINUOUS
370
    -3
390
284
  0
LAYER
  5
2C
330
2
100
AcDbSymbolTableRecord
100
AcDbLayerTableRecord
  2
ADPDIM
 70
     0
 62
     3
  6
CONTINUOUS
370
    -3
390
284
  0
LAYER
  5
2D
330
2
100
AcDbSymbolTableRecord
100
AcDbLayerTableRecord
  2
ADP1DETAIL
 70
     0
 62
   250
  6
CONTINUOUS
370
    -3
390
284
  0
ENDTAB
  0
TABLE
  2
STYLE
  5
3
330
0
100
AcDbSymbolTable
 70
     2
  0
STYLE
  5
17
330
3
100
AcDbSymbolTableRecord
100
AcDbTextStyleTableRecord
  2
STANDARD
 70
     0
 40
0.0
 41
1.0
 50
0.0
 71
     0
 42
0.0
  3
txt
  4

  0
STYLE
  5
28C
330
3
100
AcDbSymbolTableRecord
100
AcDbTextStyleTableRecord
  2
ARIAL_WIDE
 70
     0
 40
0.0
 41
1.25
 50
0.0
 71
     0
 42
0.2
  3
arial.ttf
  4

1001
ACAD
1000
Arial
1071
       34
  0
ENDTAB
  0
TABLE
  2
VIEW
  5
5
330
0
100
AcDbSymbolTable
 70
     0
  0
ENDTAB
  0
TABLE
  2
UCS
  5
6
330
0
100
AcDbSymbolTable
 70
     0
  0
ENDTAB
  0
TABLE
  2
APPID
  5
8
330
0
100
AcDbSymbolTable
 70
     3
  0
APPID
  5
16
330
8
100
AcDbSymbolTableRecord
100
AcDbRegAppTableRecord
  2
ACAD
 70
     0
  0
APPID
  5
43A
330
8
100
AcDbSymbolTableRecord
100
AcDbRegAppTableRecord
  2
ACAD_EXEMPT_FROM_CAD_STANDARDS
 70
     0
  0
APPID
  5
44D
330
8
100
AcDbSymbolTableRecord
100
AcDbRegAppTableRecord
  2
DCO15
 70
     0
  0
ENDTAB
  0
TABLE
  2
DIMSTYLE
  5
9
330
0
100
AcDbSymbolTable
 70
     1
100
AcDbDimStyleTable
 71
     1
340
18
  0
DIMSTYLE
105
18
102
{ACAD_REACTORS
330
40D
330
4EE
102
}
330
9
100
AcDbSymbolTableRecord
100
AcDbDimStyleTableRecord
  2
STANDARD
 70
     0
289
     0
340
17
  0
ENDTAB
  0
TABLE
  2
BLOCK_RECORD
  5
1
330
0
100
AcDbSymbolTable
 70
     3
  0
BLOCK_RECORD
  5
A
102
{ACAD_XDICTIONARY
360
2E7
102
}
330
1
100
AcDbSymbolTableRecord
100
AcDbBlockTableRecord
  2
*MODEL_SPACE
340
287
  0
BLOCK_RECORD
  5
B
102
{ACAD_XDICTIONARY
360
2E9
102
}
330
1
100
AcDbSymbolTableRecord
100
AcDbBlockTableRecord
  2
*PAPER_SPACE
340
288
  0
BLOCK_RECORD
  5
40E
330
1
100
AcDbSymbolTableRecord
100
AcDbBlockTableRecord
  2
*D0
340
0
  0
BLOCK_RECORD
  5
4EF
330
1
100
AcDbSymbolTableRecord
100
AcDbBlockTableRecord
  2
*D1
340
0
  0
BLOCK_RECORD
  5
4FC
330
1
100
AcDbSymbolTableRecord
100
AcDbBlockTableRecord
  2
_Oblique
340
0
102
{BLKREFS
331
540
331
541
102
}
  0
ENDTAB
  0
ENDSEC
  0
SECTION
  2
BLOCKS
  0
BLOCK
  5
D
330
A
100
AcDbEntity
  8
0
100
AcDbBlockBegin
  2
*MODEL_SPACE
 70
     0
 10
0.0
 20
0.0
 30
0.0
  3
*MODEL_SPACE
  1

  0
ENDBLK
  5
E
330
A
100
AcDbEntity
  8
0
100
AcDbBlockEnd
  0
BLOCK
  5
F
330
B
100
AcDbEntity
 67
     1
  8
0
100
AcDbBlockBegin
  2
*PAPER_SPACE
 70
     0
 10
0.0
 20
0.0
 30
0.0
  3
*PAPER_SPACE
  1

  0
ENDBLK
  5
10
330
B
100
AcDbEntity
 67
     1
  8
0
100
AcDbBlockEnd
  0
BLOCK
  5
419
330
40E
100
AcDbEntity
  8
0
 62
     3
100
AcDbBlockBegin
  2
*D0
 70
     1
 10
0.0
 20
0.0
 30
0.0
  3
*D0
  1

  0
LINE
  5
440
330
40E
100
AcDbEntity
  8
ADPDIM
  6
Continuous
 62
     0
370
    -2
100
AcDbLine
 10
9.513257423244747
 20
18.12549031577345
 30
0.0
 11
9.513257423244747
 21
19.05827460935142
 31
0.0
  0
LINE
  5
441
330
40E
100
AcDbEntity
  8
ADPDIM
  6
Continuous
 62
     0
370
    -2
100
AcDbLine
 10
7.263257423244747
 20
18.46784558005367
 30
0.0
 11
7.263257423244747
 21
19.05827460935142
 31
0.0
  0
LINE
  5
442
330
40E
100
AcDbEntity
  8
ADPDIM
  6
Continuous
 62
     0
370
    -2
100
AcDbLine
 10
9.333257423244747
 20
18.87827460935142
 30
0.0
 11
8.74909075657808
 21
18.87827460935142
 31
0.0
  0
LINE
  5
443
330
40E
100
AcDbEntity
  8
ADPDIM
  6
Continuous
 62
     0
370
    -2
100
AcDbLine
 10
7.443257423244746
 20
18.87827460935142
 30
0.0
 11
8.027424089911413
 21
18.87827460935142
 31
0.0
  0
SOLID
  5
444
330
40E
100
AcDbEntity
  8
ADPDIM
  6
Continuous
 62
     0
100
AcDbTrace
 10
9.333257423244747
 20
18.90827460935142
 30
0.0
 11
9.333257423244747
 21
18.84827460935142
 31
0.0
 12
9.513257423244747
 22
18.87827460935142
 32
0.0
 13
9.513257423244747
 23
18.87827460935142
 33
0.0
  0
SOLID
  5
445
330
40E
100
AcDbEntity
  8
ADPDIM
  6
Continuous
 62
     0
100
AcDbTrace
 10
7.443257423244746
 20
18.90827460935142
 30
0.0
 11
7.443257423244746
 21
18.84827460935142
 31
0.0
 12
7.263257423244747
 22
18.87827460935142
 32
0.0
 13
7.263257423244747
 23
18.87827460935142
 33
0.0
  0
MTEXT
  5
446
330
40E
100
AcDbEntity
  8
ADPDIM
  6
Continuous
 62
     0
100
AcDbMText
 10
8.388257423244747
 20
18.87827460935142
 30
0.0
 40
0.125
 41
0.0
 71
     5
 72
     1
  1
\A1;2 1/4
 73
     1
 44
1.0
1001
ACAD
1000
MTEXTBEGIN
1070
    73
1070
     1
1070
    44
1040
1.0
1070
    74
1070
     0
1000
MTEXTEND
  0
POINT
  5
447
330
40E
100
AcDbEntity
  8
DEFPOINTS
  6
Continuous
 62
     0
100
AcDbPoint
 10
9.513257423244747
 20
18.06299031577345
 30
0.0
  0
POINT
  5
448
330
40E
100
AcDbEntity
  8
DEFPOINTS
  6
Continuous
 62
     0
100
AcDbPoint
 10
7.263257423244747
 20
18.40534558005367
 30
0.0
  0
POINT
  5
449
330
40E
100
AcDbEntity
  8
DEFPOINTS
  6
Continuous
 62
     0
100
AcDbPoint
 10
7.263257423244747
 20
18.87827460935142
 30
0.0
  0
ENDBLK
  5
41A
330
40E
100
AcDbEntity
  8
0
 62
     3
100
AcDbBlockEnd
  0
BLOCK
  5
4FA
330
4EF
100
AcDbEntity
  8
0
100
AcDbBlockBegin
  2
*D1
 70
     1
 10
0.0
 20
0.0
 30
0.0
  3
*D1
  1

  0
LINE
  5
53C
330
4EF
100
AcDbEntity
  8
ADPDIM
  6
Continuous
 62
     0
370
    -2
100
AcDbLine
 10
14.38881396125024
 20
17.96739247902919
 30
0.0
 11
14.38881396125024
 21
18.66929253068264
 31
0.0
  0
LINE
  5
53D
330
4EF
100
AcDbEntity
  8
ADPDIM
  6
Continuous
 62
     0
370
    -2
100
AcDbLine
 10
12.76382442871415
 20
17.96155988542561
 30
0.0
 11
12.76382442871415
 21
18.66929253068264
 31
0.0
  0
LINE
  5
53E
330
4EF
100
AcDbEntity
  8
ADPDIM
  6
Continuous
 62
     0
370
    -2
100
AcDbLine
 10
14.38881396125024
 20
18.48929253068264
 30
0.0
 11
13.93715252831553
 21
18.48929253068264
 31
0.0
  0
LINE
  5
53F
330
4EF
100
AcDbEntity
  8
ADPDIM
  6
Continuous
 62
     0
370
    -2
100
AcDbLine
 10
12.76382442871415
 20
18.48929253068264
 30
0.0
 11
13.21548586164887
 21
18.48929253068264
 31
0.0
  0
INSERT
  5
540
330
4EF
100
AcDbEntity
  8
ADPDIM
  6
Continuous
 62
     0
370
    -2
100
AcDbBlockReference
  2
_Oblique
 10
14.38881396125024
 20
18.48929253068264
 30
0.0
 41
0.18
 42
0.18
 43
0.18
  0
INSERT
  5
541
330
4EF
100
AcDbEntity
  8
ADPDIM
  6
Continuous
 62
     0
370
    -2
100
AcDbBlockReference
  2
_Oblique
 10
12.76382442871415
 20
18.48929253068264
 30
0.0
 41
0.18
 42
0.18
 43
0.18
 50
180.0
  0
MTEXT
  5
542
330
4EF
100
AcDbEntity
  8
ADPDIM
  6
Continuous
 62
     0
100
AcDbMText
 10
13.5763191949822
 20
18.48929253068264
 30
0.0
 40
0.125
 41
0.0
 71
     5
 72
     1
  1
\A1;1 5/8
 73
     1
 44
1.0
1001
ACAD
1000
MTEXTBEGIN
1070
    73
1070
     1
1070
    44
1040
1.0
1070
    74
1070
     0
1000
MTEXTEND
  0
POINT
  5
543
330
4EF
100
AcDbEntity
  8
DEFPOINTS
  6
Continuous
 62
     0
100
AcDbPoint
 10
14.38881396125024
 20
17.90489247902919
 30
0.0
  0
POINT
  5
544
330
4EF
100
AcDbEntity
  8
DEFPOINTS
  6
Continuous
 62
     0
100
AcDbPoint
 10
12.76382442871415
 20
17.89905988542561
 30
0.0
  0
POINT
  5
545
330
4EF
100
AcDbEntity
  8
DEFPOINTS
  6
Continuous
 62
     0
100
AcDbPoint
 10
12.76382442871415
 20
18.48929253068264
 30
0.0
  0
ENDBLK
  5
4FB
330
4EF
100
AcDbEntity
  8
0
100
AcDbBlockEnd
  0
BLOCK
  5
4FE
330
4FC
100
AcDbEntity
  8
0
100
AcDbBlockBegin
  2
_Oblique
 70
     0
 10
0.0
 20
0.0
 30
0.0
  3
_Oblique
  1

  0
LINE
  5
4FD
330
4FC
100
AcDbEntity
  8
0
  6
ByBlock
 62
     0
370
    -2
100
AcDbLine
 10
-0.5
 20
-0.5
 30
0.0
 11
0.5
 21
0.5
 31
0.0
  0
ENDBLK
  5
4FF
330
4FC
100
AcDbEntity
  8
0
100
AcDbBlockEnd
  0
ENDSEC
  0
SECTION
  2
ENTITIES
  0
ARC
  5
2F
330
A
100
AcDbEntity
  8
ADP2DETAIL
  6
Continuous
 62
     5
100
AcDbCircle
 10
-10.6977178814225
 20
16.8464561923999
 30
0.0
 40
0.7499999999999993
210
0.0
220
0.0
230
-1.0
100
AcDbArc
 50
0.0
 51
21.7802251253253
  0
LWPOLYLINE
  5
30
330
A
100
AcDbEntity
  8
ADP1DETAIL
  6
Continuous
 62
     7
100
AcDbPolyline
 90
        2
 70
   128
 43
0.0
 10
9.126257423244746
 20
18.06299031577345
 10
9.126257423244746
 20
16.4709561923999
  0
LWPOLYLINE
  5
34
330
A
100
AcDbEntity
  8
ADP1DETAIL
  6
Continuous
 62
     7
100
AcDbPolyline
 90
        2
 70
   128
 43
0.0
 10
9.876257423244746
 20
16.4709561923999
 10
9.876257423244746
 20
18.06299031577345
  0
LWPOLYLINE
  5
38
330
A
100
AcDbEntity
  8
ADP1DETAIL
  6
Continuous
 62
     7
100
AcDbPolyline
 90
        2
 70
   128
 43
0.0
 10
7.274145909209878
 20
15.35168485692333
 10
7.274145909209878
 20
18.32606932879524
  0
LWPOLYLINE
  5
3C
330
A
100
AcDbEntity
  8
ADP1DETAIL
  6
Continuous
 62
     7
100
AcDbPolyline
 90
        2
 70
   128
 43
0.0
 10
7.524145909209878
 20
18.2279689556622
 10
7.524145909209878
 20
16.13772213188298
  0
LWPOLYLINE
  5
40
330
A
100
AcDbEntity
  8
ADP1DETAIL
  6
Continuous
 62
     7
100
AcDbPolyline
 90
        2
 70
   128
 43
0.0
 10
8.024145909209877
 20
17.33106932879524
 10
8.024145909209877
 20
16.34668485692332
  0
LWPOLYLINE
  5
44
330
A
100
AcDbEntity
  8
ADP1DETAIL
  6
Continuous
 62
     7
100
AcDbPolyline
 90
        2
 70
   128
 43
0.0
 10
8.024145909209877
 20
16.83887709285928
 10
8.024145909209877
 20
17.27637709285928
  0
ARC
  5
48
330
A
100
AcDbEntity
  8
ADP1DETAIL
  6
Continuous
 62
     7
100
AcDbCircle
 10
-13.57572832524804
 20
16.81558913590843
 30
0.0
 40
1.415949078414777
210
0.0
220
0.0
230
-1.0
100
AcDbArc
 50
141.6952650067844
 51
38.30473499321563
  0
ARC
  5
49
330
A
100
AcDbEntity
  8
ADP1DETAIL
  6
Continuous
 62
     7
100
AcDbCircle
 10
-13.57572832524804
 20
16.81558913590843
 30
0.0
 40
1.499999999999999
210
0.0
220
0.0
230
-1.0
100
AcDbArc
 50
144.1891266479681
 51
35.81087335203186
  0
ARC
  5
4A
330
A
100
AcDbEntity
  8
ADP1DETAIL
  6
Continuous
 62
     7
100
AcDbCircle
 10
-13.57572832524804
 20
16.81558913590843
 30
0.0
 40
0.5000000000000013
210
0.0
220
0.0
230
-1.0
100
AcDbArc
 50
138.5038289027596
 51
41.32292462379911
  0
ARC
  5
4B
330
A
100
AcDbEntity
  8
ADP1DETAIL
  6
Continuous
 62
     7
100
AcDbCircle
 10
-13.57572832524804
 20
16.81558913590843
 30
0.0
 40
0.6249999999999992
210
0.0
220
0.0
230
-1.0
100
AcDbArc
 50
126.8126233266155
 51
53.07278506303045
  0
LWPOLYLINE
  5
4C
330
A
100
AcDbEntity
  8
ADP1DETAIL
  6
Continuous
 62
     7
100
AcDbPolyline
 90
        2
 70
   128
 43
0.0
 10
13.95022832524804
 20
17.56825651300746
 10
13.95022832524804
 20
16.81875651300746
  0
LWPOLYLINE
  5
50
330
A
100
AcDbEntity
  8
ADP1DETAIL
  6
Continuous
 62
     7
100
AcDbPolyline
 90
        2
 70
   128
 43
0.0
 10
13.20022832524804
 20
16.81875651300746
 10
13.20022832524804
 20
17.56825651300746
  0
CIRCLE
  5
54
330
A
100
AcDbEntity
  8
ADP1DETAIL
  6
Continuous
 62
     7
100
AcDbCircle
 10
-13.57572832524804
 20
16.81558913590843
 30
0.0
 40
0.2859512779740925
210
0.0
220
0.0
230
-1.0
  0
CIRCLE
  5
55
330
A
100
AcDbEntity
  8
ADP1DETAIL
  6
Continuous
 62
     7
100
AcDbCircle
 10
-13.57572832524804
 20
16.81558913590843
 30
0.0
 40
0.3125
210
0.0
220
0.0
230
-1.0
  0
LWPOLYLINE
  5
56
330
A
100
AcDbEntity
  8
ADP1DETAIL
  6
Continuous
 62
     7
100
AcDbPolyline
 90
        2
 70
   128
 43
0.0
 10
8.149046315256509
 20
17.24237463564685
 10
8.149145909209877
 20
16.83887709285928
  0
LWPOLYLINE
  5
5E
330
A
100
AcDbEntity
  8
ADP1DETAIL
  6
Continuous
 62
     7
100
AcDbPolyline
 90
        2
 70
   128
 43
0.0
 10
9.126257423244746
 20
16.6589561923999
 10
9.126257423244746
 20
17.0339561923999
  0
LWPOLYLINE
  5
62
330
A
100
AcDbEntity
  8
ADP1DETAIL
  6
Continuous
 62
     7
100
AcDbPolyline
 90
        2
 70
   128
 43
0.0
 10
9.126257423244746
 20
17.1589561923999
 10
9.126257423244746
 20
16.5339561923999
  0
LWPOLYLINE
  5
66
330
A
100
AcDbEntity
  8
ADP1DETAIL
  6
Continuous
 62
     7
100
AcDbPolyline
 90
        2
 70
   128
 43
0.0
 10
9.126257423244746
 20
17.1589561923999
 10
9.126257423244746
 20
16.5339561923999
  0
LWPOLYLINE
  5
6A
330
A
100
AcDbEntity
  8
ADP1DETAIL
  6
Continuous
 62
     7
100
AcDbPolyline
 90
        2
 70
   128
 43
0.0
 10
9.126257423244746
 20
16.6589561923999
 10
9.126257423244746
 20
17.0339561923999
  0
LWPOLYLINE
  5
6E
330
A
100
AcDbEntity
  8
ADP1DETAIL
  6
Continuous
 62
     7
100
AcDbPolyline
 90
        2
 70
   128
 43
0.0
 10
9.876257423244746
 20
17.0339561923999
 10
9.876257423244746
 20
16.6589561923999
  0
LWPOLYLINE
  5
72
330
A
100
AcDbEntity
  8
ADP1DETAIL
  6
Continuous
 62
     7
100
AcDbPolyline
 90
        2
 70
   128
 43
0.0
 10
9.876257423244746
 20
17.0339561923999
 10
9.876257423244746
 20
16.6589561923999
  0
LWPOLYLINE
  5
76
330
A
100
AcDbEntity
  8
ADP1DETAIL
  6
Continuous
 62
     7
100
AcDbPolyline
 90
        2
 70
   128
 43
0.0
 10
10.00125742324474
 20
17.12474171159706
 10
10.00125742324474
 20
16.8464561923999
  0
LWPOLYLINE
  5
7A
330
A
100
AcDbEntity
  8
ADP1DETAIL
  6
Continuous
 62
     7
100
AcDbPolyline
 90
        2
 70
   128
 43
0.0
 10
10.00125742324474
 20
17.12474171159706
 10
10.00125742324474
 20
16.8464561923999
  0
ARC
  5
7E
330
A
100
AcDbEntity
  8
ADP2DETAIL
  6
Continuous
 62
     5
100
AcDbCircle
 10
-10.6977178814225
 20
16.8464561923999
 30
0.0
 40
0.7499999999999993
210
0.0
220
0.0
230
-1.0
100
AcDbArc
 50
0.0
 51
21.7802251253253
  0
LWPOLYLINE
  5
7F
330
A
100
AcDbEntity
  8
ADP1DETAIL
  6
Continuous
 62
     7
100
AcDbPolyline
 90
        2
 70
   128
 43
0.0
 10
9.876257423244746
 20
16.4709561923999
 10
9.126257423244746
 20
16.4709561923999
  0
LWPOLYLINE
  5
83
330
A
100
AcDbEntity
  8
ADP1DETAIL
  6
Continuous
 62
     7
100
AcDbPolyline
 90
        2
 70
   128
 43
0.0
 10
9.126257423244746
 20
16.59728900896137
 10
8.149061998340709
 20
16.49891840684405
  0
ARC
  5
87
330
A
100
AcDbEntity
  8
ADP1DETAIL
  6
Continuous
 62
     7
100
AcDbCircle
 10
-7.462145909209877
 20
15.44978523005635
 30
0.0
 40
0.0620000000000005
210
0.0
220
0.0
230
-1.0
100
AcDbArc
 50
180.0
 51
255.9637565320747
  0
LWPOLYLINE
  5
88
330
A
100
AcDbEntity
  8
ADP1DETAIL
  6
Continuous
 62
     7
100
AcDbPolyline
 90
        2
 70
   128
 43
0.0
 10
7.477183117962131
 20
15.38963639504735
 10
7.286571265460243
 20
15.34198343192187
  0
ARC
  5
8C
330
A
100
AcDbEntity
  8
ADP1DETAIL
  6
Continuous
 62
     7
100
AcDbCircle
 10
-7.28414590920988
 20
15.35168485692333
 30
0.0
 40
0.0099999999999998
210
0.0
220
0.0
230
-1.0
100
AcDbArc
 50
255.9637565320768
 51
0.0000000000008002
  0
LWPOLYLINE
  5
8D
330
A
100
AcDbEntity
  8
ADP1DETAIL
  6
Continuous
 62
     7
100
AcDbPolyline
 90
        2
 70
   128
 43
0.0
 10
8.016571265460243
 20
16.33698343192187
 10
7.571108700457625
 20
16.22561779067122
  0
LWPOLYLINE
  5
91
330
A
100
AcDbEntity
  8
ADP1DETAIL
  6
Continuous
 62
     7
100
AcDbPolyline
 90
        2
 70
   128
 43
0.0
 10
7.524145909209878
 20
16.16546895566221
 10
7.524145909209878
 20
15.44978523005635
  0
ARC
  5
95
330
A
100
AcDbEntity
  8
ADP1DETAIL
  6
Continuous
 62
     7
100
AcDbCircle
 10
-7.586145909209879
 20
16.16546895566221
 30
0.0
 40
0.0619999999999988
210
0.0
220
0.0
230
-1.0
100
AcDbArc
 50
0.0
 51
75.96375653207353
  0
LWPOLYLINE
  5
96
330
A
100
AcDbEntity
  8
ADP1DETAIL
  6
Continuous
 62
     7
100
AcDbPolyline
 90
        2
 70
   128
 43
0.0
 10
8.024145909209877
 20
16.40137709285928
 10
8.149046315256509
 20
16.43537955007171
  0
LWPOLYLINE
  5
9A
330
A
100
AcDbEntity
  8
ADP1DETAIL
  6
Continuous
 62
     7
100
AcDbPolyline
 90
        2
 70
   128
 43
0.0
 10
8.024145909209877
 20
16.83887709285928
 10
8.024145909209877
 20
16.40137709285928
  0
ARC
  5
9E
330
A
100
AcDbEntity
  8
ADP1DETAIL
  6
Continuous
 62
     7
100
AcDbCircle
 10
-8.014145909209879
 20
16.34668485692332
 30
0.0
 40
0.0099999999999991
210
0.0
220
0.0
230
-1.0
100
AcDbArc
 50
180.0
 51
255.9637565320743
  0
LWPOLYLINE
  5
9F
330
A
100
AcDbEntity
  8
ADP1DETAIL
  6
Continuous
 62
     7
100
AcDbPolyline
 90
        2
 70
   128
 43
0.0
 10
8.149046315256509
 20
16.43537955007171
 10
8.149145909209877
 20
16.83887709285928
  0
LWPOLYLINE
  5
A7
330
A
100
AcDbEntity
  8
ADP1DETAIL
  6
Continuous
 62
     7
100
AcDbPolyline
 90
        2
 70
   128
 43
0.0
 10
9.876257423244746
 20
16.5339561923999
 10
9.996998151530879
 20
16.56630857303772
  0
LWPOLYLINE
  5
AB
330
A
100
AcDbEntity
  8
ADP1DETAIL
  6
Continuous
 62
     7
100
AcDbPolyline
 90
        2
 70
   128
 43
0.0
 10
9.876257423244746
 20
16.5339561923999
 10
9.996998151530879
 20
16.56630857303772
  0
LWPOLYLINE
  5
AF
330
A
100
AcDbEntity
  8
ADP1DETAIL
  6
Continuous
 62
     7
100
AcDbPolyline
 90
        2
 70
   128
 43
0.0
 10
9.876257423244746
 20
16.6589561923999
 10
9.876257423244746
 20
16.5339561923999
  0
LWPOLYLINE
  5
B3
330
A
100
AcDbEntity
  8
ADP1DETAIL
  6
Continuous
 62
     7
100
AcDbPolyline
 90
        2
 70
   128
 43
0.0
 10
9.876257423244746
 20
16.6589561923999
 10
9.876257423244746
 20
16.5339561923999
  0
ARC
  5
B7
330
A
100
AcDbEntity
  8
ADP2DETAIL
  6
Continuous
 62
     5
100
AcDbCircle
 10
-10.6977178814225
 20
16.8464561923999
 30
0.0
 40
0.75
210
0.0
220
0.0
230
-1.0
100
AcDbArc
 50
338.2197748746756
 51
360.0000000000008
  0
LWPOLYLINE
  5
B8
330
A
100
AcDbEntity
  8
ADP1DETAIL
  6
Continuous
 62
     7
100
AcDbPolyline
 90
        2
 70
   128
 43
0.0
 10
10.00125742324474
 20
16.56817067320275
 10
10.00125742324474
 20
16.8464561923999
  0
ARC
  5
BC
330
A
100
AcDbEntity
  8
ADP2DETAIL
  6
Continuous
 62
     5
100
AcDbCircle
 10
-10.6977178814225
 20
16.8464561923999
 30
0.0
 40
0.75
210
0.0
220
0.0
230
-1.0
100
AcDbArc
 50
338.2197748746756
 51
360.0000000000008
  0
LWPOLYLINE
  5
BD
330
A
100
AcDbEntity
  8
ADP1DETAIL
  6
Continuous
 62
     7
100
AcDbPolyline
 90
        2
 70
   128
 43
0.0
 10
10.00125742324474
 20
16.56817067320275
 10
10.00125742324474
 20
16.8464561923999
  0
LWPOLYLINE
  5
C1
330
A
100
AcDbEntity
  8
ADP1DETAIL
  6
Continuous
 62
     7
100
AcDbPolyline
 90
        2
 70
   128
 43
0.0
 10
9.996998151530879
 20
16.56630857303772
 10
9.996998151530879
 20
16.56630857303772
  0
LWPOLYLINE
  5
C5
330
A
100
AcDbEntity
  8
ADP1DETAIL
  6
Continuous
 62
     7
100
AcDbPolyline
 90
        2
 70
   128
 43
0.0
 10
9.996998151530879
 20
16.56630857303772
 10
9.996998151530879
 20
16.56630857303772
  0
ARC
  5
C9
330
A
100
AcDbEntity
  8
ADP1DETAIL
  6
Continuous
 62
     7
100
AcDbCircle
 10
-13.57572832524804
 20
16.81875651300746
 30
0.0
 40
0.3745000000000012
210
0.0
220
0.0
230
-1.0
100
AcDbArc
 50
180.0
 51
270.0000000000008
  0
ARC
  5
CA
330
A
100
AcDbEntity
  8
ADP1DETAIL
  6
Continuous
 62
     7
100
AcDbCircle
 10
-13.57472832524804
 20
16.81875651300746
 30
0.0
 40
0.3744999999999994
210
0.0
220
0.0
230
-1.0
100
AcDbArc
 50
270.0000000000008
 51
360.0000000000008
  0
LWPOLYLINE
  5
CB
330
A
100
AcDbEntity
  8
ADP1DETAIL
  6
Continuous
 62
     7
100
AcDbPolyline
 90
        2
 70
   128
 43
0.0
 10
13.57572832524804
 20
16.44425651300745
 10
13.57472832524804
 20
16.44425651300745
  0
LWPOLYLINE
  5
CF
330
A
100
AcDbEntity
  8
ADP2DETAIL
  6
Continuous
 62
     5
100
AcDbPolyline
 90
        2
 70
   128
 43
0.0
 10
12.32522832524804
 20
17.88125651300745
 10
13.32634396882711
 20
17.88125651300745
  0
LWPOLYLINE
  5
D3
330
A
100
AcDbEntity
  8
ADP1DETAIL
  6
Continuous
 62
     7
100
AcDbPolyline
 90
        2
 70
   128
 43
0.0
 10
12.32522832524804
 20
18.00030191463557
 10
13.07522832524804
 20
18.00030191463557
  0
LWPOLYLINE
  5
D7
330
A
100
AcDbEntity
  8
ADP1DETAIL
  6
Continuous
 62
     7
100
AcDbPolyline
 90
        2
 70
   128
 43
0.0
 10
13.07522832524804
 20
17.69325651300746
 10
12.32522832524804
 20
17.69325651300746
  0
LWPOLYLINE
  5
DB
330
A
100
AcDbEntity
  8
ADP1DETAIL
  6
Continuous
 62
     7
100
AcDbPolyline
 90
        2
 70
   128
 43
0.0
 10
9.126257423244746
 20
17.7839561923999
 10
9.876257423244746
 20
17.7839561923999
  0
ARC
  5
DF
330
A
100
AcDbEntity
  8
ADP1DETAIL
  6
Continuous
 62
     7
100
AcDbCircle
 10
-9.501257423244746
 20
18.7809561923999
 30
0.0
 40
0.8099999999999988
210
0.0
220
0.0
230
-1.0
100
AcDbArc
 50
242.4215320218777
 51
297.578467978124
  0
LWPOLYLINE
  5
E0
330
A
100
AcDbEntity
  8
ADP1DETAIL
  6
Continuous
 62
     7
100
AcDbPolyline
 90
        2
 70
   128
 43
0.0
 10
8.149058211937045
 20
17.19417611353067
 10
9.126257423244746
 20
17.1589561923999
  0
LWPOLYLINE
  5
E4
330
A
100
AcDbEntity
  8
ADP1DETAIL
  6
Continuous
 62
     7
100
AcDbPolyline
 90
        2
 70
   128
 43
0.0
 10
7.571108700457625
 20
17.45213639504734
 10
8.016571265460243
 20
17.34077075379669
  0
ARC
  5
E8
330
A
100
AcDbEntity
  8
ADP1DETAIL
  6
Continuous
 62
     7
100
AcDbCircle
 10
-7.586145909209879
 20
17.51228523005635
 30
0.0
 40
0.0620000000000003
210
0.0
220
0.0
230
-1.0
100
AcDbArc
 50
284.0362434679273
 51
0.0000000000008002
  0
LWPOLYLINE
  5
E9
330
A
100
AcDbEntity
  8
ADP1DETAIL
  6
Continuous
 62
     7
100
AcDbPolyline
 90
        2
 70
   128
 43
0.0
 10
7.286571265460243
 20
18.33577075379669
 10
7.477183117962131
 20
18.28811779067122
  0
ARC
  5
ED
330
A
100
AcDbEntity
  8
ADP1DETAIL
  6
Continuous
 62
     7
100
AcDbCircle
 10
-7.28414590920988
 20
18.32606932879524
 30
0.0
 40
0.0099999999999991
210
0.0
220
0.0
230
-1.0
100
AcDbArc
 50
0.0
 51
104.0362434679264
  0
ARC
  5
EE
330
A
100
AcDbEntity
  8
ADP1DETAIL
  6
Continuous
 62
     7
100
AcDbCircle
 10
-7.462145909209877
 20
18.2279689556622
 30
0.0
 40
0.0620000000000003
210
0.0
220
0.0
230
-1.0
100
AcDbArc
 50
104.0362434679264
 51
180.0
  0
LWPOLYLINE
  5
EF
330
A
100
AcDbEntity
  8
ADP1DETAIL
  6
Continuous
 62
     7
100
AcDbPolyline
 90
        2
 70
   128
 43
0.0
 10
8.024145909209877
 20
17.27637709285928
 10
8.149046315256509
 20
17.24237463564685
  0
ARC
  5
F3
330
A
100
AcDbEntity
  8
ADP1DETAIL
  6
Continuous
 62
     7
100
AcDbCircle
 10
-8.014145909209879
 20
17.33106932879524
 30
0.0
 40
0.0099999999999998
210
0.0
220
0.0
230
-1.0
100
AcDbArc
 50
104.0362434679264
 51
180.0
  0
LWPOLYLINE
  5
F8
330
A
100
AcDbEntity
  8
ADP2DETAIL
  6
Continuous
 62
     5
100
AcDbPolyline
 90
        2
 70
   128
 43
0.0
 10
9.407257423244745
 20
17.8459561923999
 10
9.345257423244746
 20
17.7839561923999
  0
LWPOLYLINE
  5
FC
330
A
100
AcDbEntity
  8
ADP2DETAIL
  6
Continuous
 62
     5
100
AcDbPolyline
 90
        2
 70
   128
 43
0.0
 10
9.407257423244745
 20
17.9709561923999
 10
9.407257423244745
 20
17.8459561923999
  0
LWPOLYLINE
  5
100
330
A
100
AcDbEntity
  8
ADP1DETAIL
  6
Continuous
 62
     7
100
AcDbPolyline
 90
        2
 70
   128
 43
0.0
 10
9.876257423244746
 20
17.1589561923999
 10
9.996998151530879
 20
17.12660381176209
  0
LWPOLYLINE
  5
104
330
A
100
AcDbEntity
  8
ADP1DETAIL
  6
Continuous
 62
     7
100
AcDbPolyline
 90
        2
 70
   128
 43
0.0
 10
9.876257423244746
 20
17.1589561923999
 10
9.996998151530879
 20
17.12660381176209
  0
LWPOLYLINE
  5
108
330
A
100
AcDbEntity
  8
ADP1DETAIL
  6
Continuous
 62
     7
100
AcDbPolyline
 90
        2
 70
   128
 43
0.0
 10
9.876257423244746
 20
17.0339561923999
 10
9.876257423244746
 20
17.1589561923999
  0
LWPOLYLINE
  5
10C
330
A
100
AcDbEntity
  8
ADP1DETAIL
  6
Continuous
 62
     7
100
AcDbPolyline
 90
        2
 70
   128
 43
0.0
 10
9.876257423244746
 20
17.0339561923999
 10
9.876257423244746
 20
17.1589561923999
  0
LWPOLYLINE
  5
110
330
A
100
AcDbEntity
  8
ADP1DETAIL
  6
Continuous
 62
     7
100
AcDbPolyline
 90
        2
 70
   128
 43
0.0
 10
9.996998151530879
 20
17.12660381176209
 10
9.996998151530879
 20
17.12660381176209
  0
LWPOLYLINE
  5
114
330
A
100
AcDbEntity
  8
ADP1DETAIL
  6
Continuous
 62
     7
100
AcDbPolyline
 90
        2
 70
   128
 43
0.0
 10
9.996998151530879
 20
17.12660381176209
 10
9.996998151530879
 20
17.12660381176209
  0
LWPOLYLINE
  5
118
330
A
100
AcDbEntity
  8
ADP2DETAIL
  6
Continuous
 62
     5
100
AcDbPolyline
 90
        2
 70
   128
 43
0.0
 10
9.595257423244746
 20
17.8459561923999
 10
9.657257423244747
 20
17.7839561923999
  0
LWPOLYLINE
  5
11C
330
A
100
AcDbEntity
  8
ADP2DETAIL
  6
Continuous
 62
     5
100
AcDbPolyline
 90
        2
 70
   128
 43
0.0
 10
9.595257423244746
 20
17.9709561923999
 10
9.595257423244746
 20
17.8459561923999
  0
LWPOLYLINE
  5
120
330
A
100
AcDbEntity
  8
ADP1DETAIL
  6
Continuous
 62
     7
100
AcDbPolyline
 90
        2
 70
   128
 43
0.0
 10
12.32522832524804
 20
17.69325651300746
 10
12.32522832524804
 20
18.00030191463557
  0
ARC
  5
124
330
A
100
AcDbEntity
  8
ADP1DETAIL
  6
Continuous
 62
     7
100
AcDbCircle
 10
-14.07522832524804
 20
17.68888893346353
 30
0.0
 40
0.3124999999999995
210
0.0
220
0.0
230
-1.0
100
AcDbArc
 50
0.0
 51
90.08306715293981
  0
ARC
  5
125
330
A
100
AcDbEntity
  8
ADP1DETAIL
  6
Continuous
 62
     7
100
AcDbCircle
 10
-13.57572832524804
 20
16.81558913590843
 30
0.0
 40
1.415949078414779
210
0.0
220
0.0
230
-1.0
100
AcDbArc
 50
56.79239802097721
 51
123.1566787040792
  0
ARC
  5
126
330
A
100
AcDbEntity
  8
ADP1DETAIL
  6
Continuous
 62
     7
100
AcDbCircle
 10
-13.57572832524804
 20
16.81558913590843
 30
0.0
 40
1.499999999999999
210
0.0
220
0.0
230
-1.0
100
AcDbArc
 50
52.16762091227259
 51
127.8025664359293
  0
ARC
  5
127
330
A
100
AcDbEntity
  8
ADP1DETAIL
  6
Continuous
 62
     7
100
AcDbCircle
 10
-13.07522832524804
 20
17.68780191463557
 30
0.0
 40
0.3125
210
0.0
220
0.0
230
-1.0
100
AcDbArc
 50
90.0
 51
180.0
  0
ARC
  5
128
330
A
100
AcDbEntity
  8
ADP1DETAIL
  6
Continuous
 62
     7
100
AcDbCircle
 10
-13.07522832524804
 20
17.56825651300746
 30
0.0
 40
0.125
210
0.0
220
0.0
230
-1.0
100
AcDbArc
 50
90.0
 51
180.0
  0
LWPOLYLINE
  5
129
330
A
100
AcDbEntity
  8
ADP2DETAIL
  6
Continuous
 62
     5
100
AcDbPolyline
 90
        2
 70
   128
 43
0.0
 10
12.6629171082374
 20
17.75196069272333
 10
12.6009171082374
 20
17.68996069272333
  0
LWPOLYLINE
  5
12D
330
A
100
AcDbEntity
  8
ADP2DETAIL
  6
Continuous
 62
     5
100
AcDbPolyline
 90
        2
 70
   128
 43
0.0
 10
12.6629171082374
 20
17.87696069272333
 10
12.6629171082374
 20
17.75196069272333
  0
LWPOLYLINE
  5
131
330
A
100
AcDbEntity
  8
ADP2DETAIL
  6
Continuous
 62
     5
100
AcDbPolyline
 90
        2
 70
   128
 43
0.0
 10
12.8509171082374
 20
17.75196069272333
 10
12.9129171082374
 20
17.68996069272333
  0
LWPOLYLINE
  5
135
330
A
100
AcDbEntity
  8
ADP2DETAIL
  6
Continuous
 62
     5
100
AcDbPolyline
 90
        2
 70
   128
 43
0.0
 10
12.8509171082374
 20
17.87696069272333
 10
12.8509171082374
 20
17.75196069272333
  0
LWPOLYLINE
  5
139
330
A
100
AcDbEntity
  8
ADP1DETAIL
  6
Continuous
 62
     7
100
AcDbPolyline
 90
        2
 70
   128
 43
0.0
 10
13.38772832524804
 20
17.06521335348357
 10
13.38772832524804
 20
18.01976085226711
  0
LWPOLYLINE
  5
13D
330
A
100
AcDbEntity
  8
ADP1DETAIL
  6
Continuous
 62
     7
100
AcDbPolyline
 90
        2
 70
   128
 43
0.0
 10
13.76158305809379
 20
17.06521335348357
 10
13.76158305809379
 20
18.01976085226711
  0
LWPOLYLINE
  5
141
330
A
100
AcDbEntity
  8
ADP2DETAIL
  6
Continuous
 62
     5
100
AcDbPolyline
 90
        2
 70
   128
 43
0.0
 10
13.38658305809379
 20
17.90023838387127
 10
13.76158305809379
 20
17.90023838387127
  0
LWPOLYLINE
  5
145
330
A
100
AcDbEntity
  8
ADP1DETAIL
  6
Continuous
 62
     7
100
AcDbPolyline
 90
        2
 70
   128
 43
0.0
 10
13.3948405261934
 20
18.01928378549938
 10
13.76158305809379
 20
18.01928378549938
  0
LWPOLYLINE
  5
149
330
A
100
AcDbEntity
  8
ADP2DETAIL
  6
Continuous
 62
     5
100
AcDbPolyline
 90
        2
 70
   128
 43
0.0
 10
14.47944915994581
 20
17.74969157209212
 10
14.54144915994581
 20
17.68769157209213
  0
LWPOLYLINE
  5
14D
330
A
100
AcDbEntity
  8
ADP1DETAIL
  6
Continuous
 62
     7
100
AcDbPolyline
 90
        2
 70
   128
 43
0.0
 10
14.82522832524804
 20
18.00030191463557
 10
14.07568138612653
 20
18.0013886050407
  0
LWPOLYLINE
  5
151
330
A
100
AcDbEntity
  8
ADP2DETAIL
  6
Continuous
 62
     5
100
AcDbPolyline
 90
        2
 70
   128
 43
0.0
 10
14.82522832524804
 20
17.88125651300745
 10
13.85041048575178
 20
17.88234320341258
  0
LWPOLYLINE
  5
155
330
A
100
AcDbEntity
  8
ADP1DETAIL
  6
Continuous
 62
     7
100
AcDbPolyline
 90
        2
 70
   128
 43
0.0
 10
14.82522832524804
 20
17.69325651300746
 10
14.07522832524804
 20
17.69325651300746
  0
ARC
  5
159
330
A
100
AcDbEntity
  8
ADP1DETAIL
  6
Continuous
 62
     7
100
AcDbCircle
 10
-14.07522832524804
 20
17.56825651300746
 30
0.0
 40
0.125
210
0.0
220
0.0
230
-1.0
100
AcDbArc
 50
0.0
 51
90.0
  0
LWPOLYLINE
  5
15A
330
A
100
AcDbEntity
  8
ADP2DETAIL
  6
Continuous
 62
     5
100
AcDbPolyline
 90
        2
 70
   128
 43
0.0
 10
14.47944915994581
 20
17.87469157209212
 10
14.47944915994581
 20
17.74969157209212
  0
LWPOLYLINE
  5
15E
330
A
100
AcDbEntity
  8
ADP2DETAIL
  6
Continuous
 62
     5
100
AcDbPolyline
 90
        2
 70
   128
 43
0.0
 10
14.29144915994581
 20
17.74969157209212
 10
14.22944915994581
 20
17.68769157209213
  0
LWPOLYLINE
  5
162
330
A
100
AcDbEntity
  8
ADP2DETAIL
  6
Continuous
 62
     5
100
AcDbPolyline
 90
        2
 70
   128
 43
0.0
 10
14.29144915994581
 20
17.87469157209212
 10
14.29144915994581
 20
17.74969157209212
  0
LWPOLYLINE
  5
166
330
A
100
AcDbEntity
  8
ADP1DETAIL
  6
Continuous
 62
     7
100
AcDbPolyline
 90
        2
 70
   128
 43
0.0
 10
14.82961825687848
 20
17.69510126166168
 10
14.82961825687848
 20
18.00214666328979
  0
LWPOLYLINE
  5
16A
330
A
100
AcDbEntity
  8
ADPDIM
  6
Continuous
 62
     3
 48
0.125
100
AcDbPolyline
 90
        2
 70
   128
 43
0.0
 10
12.26272832524804
 20
17.88125651300745
 10
11.3374970793627
 20
17.88125651300745
  0
LWPOLYLINE
  5
16E
330
A
100
AcDbEntity
  8
ADPDIM
  6
Continuous
 62
     3
 48
0.125
100
AcDbPolyline
 90
        2
 70
   128
 43
0.0
 10
13.42322832524804
 20
16.81558913590842
 10
11.3374970793627
 20
16.81558913590842
  0
LWPOLYLINE
  5
172
330
A
100
AcDbEntity
  8
ADPDIM
  6
Continuous
 62
     3
 48
0.125
100
AcDbPolyline
 90
        2
 70
   128
 43
0.0
 10
11.5174970793627
 20
17.88125651300745
 10
11.5174970793627
 20
18.13125651300746
  0
LWPOLYLINE
  5
176
330
A
100
AcDbEntity
  8
ADPDIM
  6
Continuous
 62
     3
 48
0.125
100
AcDbPolyline
 90
        2
 70
   128
 43
0.0
 10
11.5174970793627
 20
16.81558913590842
 10
11.5174970793627
 20
16.56558913590842
  0
LWPOLYLINE
  5
17A
330
A
100
AcDbEntity
  8
ADPDIM
  6
Continuous
 62
     3
 48
0.125
100
AcDbPolyline
 90
        2
 70
   128
 43
0.0
 10
11.6424970793627
 20
17.75625651300746
 10
11.3924970793627
 20
18.00625651300746
  0
LWPOLYLINE
  5
17E
330
A
100
AcDbEntity
  8
ADPDIM
  6
Continuous
 62
     3
 48
0.125
100
AcDbPolyline
 90
        2
 70
   128
 43
0.0
 10
11.6424970793627
 20
16.69058913590842
 10
11.3924970793627
 20
16.94058913590842
  0
TEXT
  5
182
330
A
100
AcDbEntity
  8
ADPDIM
 62
     3
 48
0.0
100
AcDbText
 10
11.5799970793627
 20
15.85725580257509
 30
0.0
 40
0.125
  1
1 1/16
 50
90.0
 72
     5
 11
11.5799970793627
 21
16.44058913590842
 31
0.0
100
AcDbText
  0
LWPOLYLINE
  5
183
330
A
100
AcDbEntity
  8
ADPDIM
  6
Continuous
 62
     3
 48
0.125
100
AcDbPolyline
 90
        2
 70
   128
 43
0.0
 10
12.34407119610619
 20
15.95942284584904
 10
12.01859935030008
 20
15.7331764204849
  0
LWPOLYLINE
  5
187
330
A
100
AcDbEntity
  8
ADPDIM
  6
Continuous
 62
     3
 48
0.125
100
AcDbPolyline
 90
        2
 70
   128
 43
0.0
 10
12.31278029284932
 20
15.7854375609156
 10
12.37536209936306
 20
16.13340813078248
  0
LWPOLYLINE
  5
18B
330
A
100
AcDbEntity
  8
ADPDIM
  6
Continuous
 62
     3
 48
0.125
100
AcDbPolyline
 90
        2
 70
   128
 43
0.0
 10
13.38822832524804
 20
16.81558913590843
 10
13.76322832524804
 20
16.81558913590843
  0
LWPOLYLINE
  5
18F
330
A
100
AcDbEntity
  8
ADPDIM
  6
Continuous
 62
     3
 48
0.125
100
AcDbPolyline
 90
        2
 70
   128
 43
0.0
 10
13.57572832524804
 20
16.62808913590843
 10
13.57572832524804
 20
17.00308913590843
  0
TEXT
  5
193
330
A
100
AcDbEntity
  8
ADPDIM
 62
     3
 48
0.0
100
AcDbText
 10
11.78057136146547
 20
15.49159819786857
 30
0.0
 40
0.1250000000000001
  1
%%c3
 50
34.80446286883247
 72
     5
 11
11.95163485162407
 21
15.61051018259904
 31
0.0
100
AcDbText
  0
LWPOLYLINE
  5
194
330
A
100
AcDbEntity
  8
ADPDIM
  6
Continuous
 62
     3
 48
0.125
100
AcDbPolyline
 90
        2
 70
   128
 43
0.0
 10
12.32522832524804
 20
18.06280191463557
 10
12.32522832524804
 20
19.00802227029315
  0
LWPOLYLINE
  5
198
330
A
100
AcDbEntity
  8
ADPDIM
  6
Continuous
 62
     3
 48
0.125
100
AcDbPolyline
 90
        2
 70
   128
 43
0.0
 10
14.82522832524804
 20
18.00625651300746
 10
14.82522832524804
 20
19.00802227029315
  0
LWPOLYLINE
  5
19C
330
A
100
AcDbEntity
  8
ADPDIM
  6
Continuous
 62
     3
 48
0.125
100
AcDbPolyline
 90
        2
 70
   128
 43
0.0
 10
12.32522832524804
 20
18.82802227029315
 10
13.17939499191471
 20
18.82802227029315
  0
LWPOLYLINE
  5
1A0
330
A
100
AcDbEntity
  8
ADPDIM
  6
Continuous
 62
     3
 48
0.125
100
AcDbPolyline
 90
        2
 70
   128
 43
0.0
 10
14.82522832524804
 20
18.82802227029315
 10
13.97106165858138
 20
18.82802227029315
  0
LWPOLYLINE
  5
1A4
330
A
100
AcDbEntity
  8
ADPDIM
  6
Continuous
 62
     3
 48
0.125
100
AcDbPolyline
 90
        2
 70
   128
 43
0.0
 10
12.20022832524804
 20
18.70302227029315
 10
12.45022832524804
 20
18.95302227029315
  0
LWPOLYLINE
  5
1A8
330
A
100
AcDbEntity
  8
ADPDIM
  6
Continuous
 62
     3
 48
0.125
100
AcDbPolyline
 90
        2
 70
   128
 43
0.0
 10
14.70022832524804
 20
18.70302227029315
 10
14.95022832524804
 20
18.95302227029315
  0
TEXT
  5
1AC
330
A
100
AcDbEntity
  8
ADPDIM
 62
     3
 48
0.0
100
AcDbText
 10
13.30439499191471
 20
18.76552227029315
 30
0.0
 40
0.125
  1
2 1/2
 72
     5
 11
13.84606165858138
 21
18.76552227029315
 31
0.0
100
AcDbText
  0
LWPOLYLINE
  5
1AD
330
A
100
AcDbEntity
  8
ADPDIM
  6
Continuous
 62
     3
 48
0.125
100
AcDbPolyline
 90
        2
 70
   128
 43
0.0
 10
9.513257423244747
 20
18.12549031577345
 10
9.513257423244747
 20
18.66391809637546
  0
LWPOLYLINE
  5
1C6
330
A
100
AcDbEntity
  8
ADPDIM
  6
Continuous
 62
     3
 48
0.125
100
AcDbPolyline
 90
        2
 70
   128
 43
0.0
 10
9.126257423244746
 20
18.12549031577345
 10
9.126257423244746
 20
18.38408803774497
  0
LWPOLYLINE
  5
1CA
330
A
100
AcDbEntity
  8
ADPDIM
  6
Continuous
 62
     3
 48
0.125
100
AcDbPolyline
 90
        2
 70
   128
 43
0.0
 10
9.876257423244746
 20
18.12549031577345
 10
9.876257423244746
 20
18.38408803774497
  0
LWPOLYLINE
  5
1CE
330
A
100
AcDbEntity
  8
ADPDIM
  6
Continuous
 62
     3
 48
0.125
100
AcDbPolyline
 90
        2
 70
   128
 43
0.0
 10
9.126257423244746
 20
18.20408803774497
 10
8.876257423244746
 20
18.20408803774497
  0
LWPOLYLINE
  5
1D2
330
A
100
AcDbEntity
  8
ADPDIM
  6
Continuous
 62
     3
 48
0.125
100
AcDbPolyline
 90
        2
 70
   128
 43
0.0
 10
9.876257423244746
 20
18.20408803774497
 10
10.12625742324474
 20
18.20408803774497
  0
LWPOLYLINE
  5
1D6
330
A
100
AcDbEntity
  8
ADPDIM
  6
Continuous
 62
     3
 48
0.125
100
AcDbPolyline
 90
        2
 70
   128
 43
0.0
 10
9.001257423244746
 20
18.07908803774497
 10
9.251257423244746
 20
18.32908803774497
  0
LWPOLYLINE
  5
1DA
330
A
100
AcDbEntity
  8
ADPDIM
  6
Continuous
 62
     3
 48
0.125
100
AcDbPolyline
 90
        2
 70
   128
 43
0.0
 10
9.751257423244746
 20
18.07908803774497
 10
10.00125742324474
 20
18.32908803774497
  0
TEXT
  5
1DE
330
A
100
AcDbEntity
  8
ADPDIM
 62
     3
 48
0.0
100
AcDbText
 10
10.25125742324474
 20
18.14158803774496
 30
0.0
 40
0.125
  1
3/4
 72
     5
 11
10.58459075657808
 21
18.14158803774496
 31
0.0
100
AcDbText
  0
LWPOLYLINE
  5
1F8
330
A
100
AcDbEntity
  8
DEFPOINTS
  6
Continuous
 62
     3
 48
0.125
100
AcDbPolyline
 90
        2
 70
   128
 43
0.0
 10
12.32522832524804
 20
17.88125651300745
 10
12.32522832524804
 20
17.88125651300745
  0
LWPOLYLINE
  5
1FC
330
A
100
AcDbEntity
  8
DEFPOINTS
  6
Continuous
 62
     3
 48
0.125
100
AcDbPolyline
 90
        2
 70
   128
 43
0.0
 10
12.32522832524804
 20
17.88125651300745
 10
12.32522832524804
 20
17.88125651300745
  0
LWPOLYLINE
  5
200
330
A
100
AcDbEntity
  8
DEFPOINTS
  6
Continuous
 62
     3
 48
0.125
100
AcDbPolyline
 90
        2
 70
   128
 43
0.0
 10
13.48572832524804
 20
16.81558913590843
 10
13.48572832524804
 20
16.81558913590843
  0
LWPOLYLINE
  5
204
330
A
100
AcDbEntity
  8
DEFPOINTS
  6
Continuous
 62
     3
 48
0.125
100
AcDbPolyline
 90
        2
 70
   128
 43
0.0
 10
13.48572832524804
 20
16.81558913590843
 10
13.48572832524804
 20
16.81558913590843
  0
LWPOLYLINE
  5
208
330
A
100
AcDbEntity
  8
DEFPOINTS
  6
Continuous
 62
     3
 48
0.125
100
AcDbPolyline
 90
        2
 70
   128
 43
0.0
 10
11.5174970793627
 20
16.81558913590843
 10
11.5174970793627
 20
16.81558913590843
  0
LWPOLYLINE
  5
20C
330
A
100
AcDbEntity
  8
DEFPOINTS
  6
Continuous
 62
     3
 48
0.125
100
AcDbPolyline
 90
        2
 70
   128
 43
0.0
 10
11.5174970793627
 20
16.81558913590843
 10
11.5174970793627
 20
16.81558913590843
  0
LWPOLYLINE
  5
210
330
A
100
AcDbEntity
  8
DEFPOINTS
  6
Continuous
 62
     3
 48
0.125
100
AcDbPolyline
 90
        2
 70
   128
 43
0.0
 10
12.34407119610619
 20
15.95942284584904
 10
12.34407119610619
 20
15.95942284584904
  0
LWPOLYLINE
  5
214
330
A
100
AcDbEntity
  8
DEFPOINTS
  6
Continuous
 62
     3
 48
0.125
100
AcDbPolyline
 90
        2
 70
   128
 43
0.0
 10
12.34407119610619
 20
15.95942284584904
 10
12.34407119610619
 20
15.95942284584904
  0
LWPOLYLINE
  5
218
330
A
100
AcDbEntity
  8
DEFPOINTS
  6
Continuous
 62
     3
 48
0.125
100
AcDbPolyline
 90
        2
 70
   128
 43
0.0
 10
14.80738545438989
 20
17.67175542596782
 10
14.80738545438989
 20
17.67175542596782
  0
LWPOLYLINE
  5
21C
330
A
100
AcDbEntity
  8
DEFPOINTS
  6
Continuous
 62
     3
 48
0.125
100
AcDbPolyline
 90
        2
 70
   128
 43
0.0
 10
14.80738545438989
 20
17.67175542596782
 10
14.80738545438989
 20
17.67175542596782
  0
LWPOLYLINE
  5
220
330
A
100
AcDbEntity
  8
DEFPOINTS
  6
Continuous
 62
     3
 48
0.125
100
AcDbPolyline
 90
        2
 70
   128
 43
0.0
 10
12.32522832524804
 20
18.00030191463558
 10
12.32522832524804
 20
18.00030191463558
  0
LWPOLYLINE
  5
224
330
A
100
AcDbEntity
  8
DEFPOINTS
  6
Continuous
 62
     3
 48
0.125
100
AcDbPolyline
 90
        2
 70
   128
 43
0.0
 10
12.32522832524804
 20
18.00030191463558
 10
12.32522832524804
 20
18.00030191463558
  0
LWPOLYLINE
  5
228
330
A
100
AcDbEntity
  8
DEFPOINTS
  6
Continuous
 62
     3
 48
0.125
100
AcDbPolyline
 90
        2
 70
   128
 43
0.0
 10
14.82522832524804
 20
17.94375651300746
 10
14.82522832524804
 20
17.94375651300746
  0
LWPOLYLINE
  5
22C
330
A
100
AcDbEntity
  8
DEFPOINTS
  6
Continuous
 62
     3
 48
0.125
100
AcDbPolyline
 90
        2
 70
   128
 43
0.0
 10
14.82522832524804
 20
17.94375651300746
 10
14.82522832524804
 20
17.94375651300746
  0
LWPOLYLINE
  5
230
330
A
100
AcDbEntity
  8
DEFPOINTS
  6
Continuous
 62
     3
 48
0.125
100
AcDbPolyline
 90
        2
 70
   128
 43
0.0
 10
14.82522832524804
 20
18.82802227029315
 10
14.82522832524804
 20
18.82802227029315
  0
LWPOLYLINE
  5
234
330
A
100
AcDbEntity
  8
DEFPOINTS
  6
Continuous
 62
     3
 48
0.125
100
AcDbPolyline
 90
        2
 70
   128
 43
0.0
 10
14.82522832524804
 20
18.82802227029315
 10
14.82522832524804
 20
18.82802227029315
  0
LWPOLYLINE
  5
250
330
A
100
AcDbEntity
  8
DEFPOINTS
  6
Continuous
 62
     3
 48
0.125
100
AcDbPolyline
 90
        2
 70
   128
 43
0.0
 10
9.126257423244746
 20
18.06299031577345
 10
9.126257423244746
 20
18.06299031577345
  0
LWPOLYLINE
  5
254
330
A
100
AcDbEntity
  8
DEFPOINTS
  6
Continuous
 62
     3
 48
0.125
100
AcDbPolyline
 90
        2
 70
   128
 43
0.0
 10
9.126257423244746
 20
18.06299031577345
 10
9.126257423244746
 20
18.06299031577345
  0
LWPOLYLINE
  5
258
330
A
100
AcDbEntity
  8
DEFPOINTS
  6
Continuous
 62
     3
 48
0.125
100
AcDbPolyline
 90
        2
 70
   128
 43
0.0
 10
9.876257423244746
 20
18.06299031577345
 10
9.876257423244746
 20
18.06299031577345
  0
LWPOLYLINE
  5
25C
330
A
100
AcDbEntity
  8
DEFPOINTS
  6
Continuous
 62
     3
 48
0.125
100
AcDbPolyline
 90
        2
 70
   128
 43
0.0
 10
9.876257423244746
 20
18.06299031577345
 10
9.876257423244746
 20
18.06299031577345
  0
LWPOLYLINE
  5
260
330
A
100
AcDbEntity
  8
DEFPOINTS
  6
Continuous
 62
     3
 48
0.125
100
AcDbPolyline
 90
        2
 70
   128
 43
0.0
 10
9.876257423244746
 20
18.20408803774497
 10
9.876257423244746
 20
18.20408803774497
  0
LWPOLYLINE
  5
264
330
A
100
AcDbEntity
  8
DEFPOINTS
  6
Continuous
 62
     3
 48
0.125
100
AcDbPolyline
 90
        2
 70
   128
 43
0.0
 10
9.876257423244746
 20
18.20408803774497
 10
9.876257423244746
 20
18.20408803774497
  0
TEXT
  5
32C
330
A
100
AcDbEntity
  8
ADPDIM
100
AcDbText
 10
4.224488277938798
 20
14.34572591108176
 30
0.0
 40
0.125
  1
J U L I U S  B L U M  &  C O . ,  I N C .      ( 8 0 0 )  5 2 6 - 6 2 9 3        W W W . J U L I U S B L U M . C O M        P A R T  N O .  1 3 4 2
 41
1.25
  7
ARIAL_WIDE
 72
     1
 11
10.77441153851178
 21
14.47072591108176
 31
0.0
100
AcDbText
 73
     3
  0
DIMENSION
  5
40D
330
A
100
AcDbEntity
  8
ADPDIM
  6
Continuous
 62
     3
100
AcDbDimension
  2
*D0
 10
7.263257423244747
 20
18.87827460935142
 30
0.0
 11
8.388257423244747
 21
18.87827460935142
 31
0.0
 70
    32
 71
     5
 42
2.25
  3
STANDARD
100
AcDbAlignedDimension
 13
9.513257423244747
 23
18.06299031577345
 33
0.0
 14
7.263257423244747
 24
18.40534558005367
 34
0.0
100
AcDbRotatedDimension
1001
ACAD
1000
DSTYLE
1002
{
1070
   276
1070
     2
1070
   140
1040
0.125
1070
   277
1070
     5
1070
   289
1070
     3
1002
}
  0
DIMENSION
  5
4EE
330
A
100
AcDbEntity
  8
ADPDIM
  6
Continuous
100
AcDbDimension
  2
*D1
 10
12.76382442871415
 20
18.48929253068264
 30
0.0
 11
13.5763191949822
 21
18.48929253068264
 31
0.0
 70
    32
 71
     5
 42
1.624989532536089
  3
STANDARD
100
AcDbAlignedDimension
 13
14.38881396125024
 23
17.90489247902919
 33
0.0
 14
12.76382442871415
 24
17.89905988542561
 34
0.0
100
AcDbRotatedDimension
1001
ACAD
1000
DSTYLE
1002
{
1070
   276
1070
     2
1070
   277
1070
     5
1070
   140
1040
0.125
1070
   343
1005
4FC
1070
   173
1070
     1
1070
   344
1005
4FC
1070
   289
1070
     3
1002
}
  0
ENDSEC
  0
SECTION
  2
OBJECTS
  0
DICTIONARY
  5
19
330
0
100
AcDbDictionary
281
     1
  3
ACAD_COLOR
350
407
  3
ACAD_GROUP
350
1A
  3
ACAD_LAYOUT
350
285
  3
ACAD_MATERIAL
350
3F2
  3
ACAD_MLINESTYLE
350
1B
  3
ACAD_PLOTSETTINGS
350
286
  3
ACAD_PLOTSTYLENAME
350
283
  3
ACAD_TABLESTYLE
350
408
  3
ACAD_VISUALSTYLE
350
3F6
  3
AcDbVariableDictionary
350
2F3
  3
ASE_INDEX_DICTIONARY
350
44C
  3
DWGPROPS
350
55E
  0
DICTIONARY
  5
450
330
7
100
AcDbDictionary
280
     1
281
     1
  0
DICTIONARY
  5
2E7
330
A
100
AcDbDictionary
280
     1
281
     1
  3
ACAD_LAYOUTSELFREF
360
3E5
  0
DICTIONARY
  5
2E9
330
B
100
AcDbDictionary
280
     1
281
     1
  3
ACAD_LAYOUTSELFREF
360
3E6
  0
DICTIONARY
  5
407
102
{ACAD_REACTORS
330
19
102
}
330
19
100
AcDbDictionary
281
     1
  0
DICTIONARY
  5
1A
102
{ACAD_REACTORS
330
19
102
}
330
19
100
AcDbDictionary
281
     1
  0
DICTIONARY
  5
285
102
{ACAD_REACTORS
330
19
102
}
330
19
100
AcDbDictionary
281
     1
  3
Layout1
350
288
  3
Model
350
287
  0
DICTIONARY
  5
3F2
102
{ACAD_REACTORS
330
19
102
}
330
19
100
AcDbDictionary
281
     1
  3
ByBlock
350
3F4
  3
ByLayer
350
3F3
  3
Global
350
3F5
  0
DICTIONARY
  5
1B
102
{ACAD_REACTORS
330
19
102
}
330
19
100
AcDbDictionary
281
     1
  3
STANDARD
350
1C
  0
DICTIONARY
  5
286
102
{ACAD_REACTORS
330
19
102
}
330
19
100
AcDbDictionary
281
     1
  0
ACDBDICTIONARYWDFLT
  5
283
102
{ACAD_REACTORS
330
19
102
}
330
19
100
AcDbDictionary
281
     1
  3
Normal
350
284
100
AcDbDictionaryWithDefault
340
284
  0
DICTIONARY
  5
408
102
{ACAD_REACTORS
330
19
102
}
330
19
100
AcDbDictionary
281
     1
  3
Standard
350
409
  0
DICTIONARY
  5
3F6
102
{ACAD_REACTORS
330
19
102
}
330
19
100
AcDbDictionary
281
     1
  3
2dWireframe
350
3FC
  3
3D Hidden
350
3FE
  3
3dWireframe
350
3FD
  3
Basic
350
3FB
  3
Brighten
350
402
  3
ColorChange
350
406
  3
Conceptual
350
3FF
  3
Dim
350
401
  3
Facepattern
350
405
  3
Flat
350
3F7
  3
FlatWithEdges
350
3F8
  3
Gouraud
350
3F9
  3
GouraudWithEdges
350
3FA
  3
Linepattern
350
404
  3
Realistic
350
400
  3
Thicken
350
403
  0
DICTIONARY
  5
2F3
102
{ACAD_REACTORS
330
19
102
}
330
19
100
AcDbDictionary
281
     1
  3
CTABLESTYLE
350
468
  3
DIMASSOC
350
2F4
  3
INDEXCTL
350
46A
  3
SORTENTS
350
469
  0
DICTIONARY
  5
44C
102
{ACAD_REACTORS
330
19
102
}
330
19
100
AcDbDictionary
281
     1
  3
ASEBlockHierarchyIndexRecord
350
44E
1001
DCO15
1040
1567884089.968
  0
XRECORD
  5
55E
102
{ACAD_REACTORS
330
19
102
}
330
19
100
AcDbXrecord
280
     1
  1
DWGPROPS COOKIE
  2

  3

  4

  6

  7

  8
John
  9

300
=
301
=
302
=
303
=
304
=
305
=
306
=
307
=
308
=
309
=
 40
0.0153082986111111
 41
2444971.75
 42
2455237.676816702
  1

 90
        0
  0
XRECORD
  5
3E5
102
{ACAD_REACTORS
330
2E7
102
}
330
2E7
100
AcDbXrecord
280
     1
340
A
  0
XRECORD
  5
3E6
102
{ACAD_REACTORS
330
2E9
102
}
330
2E9
100
AcDbXrecord
280
     1
340
B
  0
LAYOUT
  5
288
102
{ACAD_XDICTIONARY
360
561
102
}
102
{ACAD_REACTORS
330
285
102
}
330
285
100
AcDbPlotSettings
  1

  2
Fax
  4

  6

 40
0.0
 41
0.0
 42
0.0
 43
0.0
 44
0.0
 45
0.0
 46
0.0
 47
0.0
 48
0.0
 49
0.0
140
0.0
141
0.0
142
1.0
143
1.0
 70
   688
 72
     0
 73
     0
 74
     5
  7
Default R14 pen assignments.ctb
 75
    16
147
1.0
148
0.0
149
0.0
100
AcDbLayout
  1
Layout1
 70
     0
 71
     1
 10
0.0
 20
0.0
 11
12.0
 21
9.0
 12
0.0
 22
0.0
 32
0.0
 14
1.000000000000000E+20
 24
1.000000000000000E+20
 34
1.000000000000000E+20
 15
-1.000000000000000E+20
 25
-1.000000000000000E+20
 35
-1.000000000000000E+20
146
0.0
 13
0.0
 23
0.0
 33
0.0
 16
1.0
 26
0.0
 36
0.0
 17
0.0
 27
1.0
 37
0.0
 76
     0
330
B
  0
LAYOUT
  5
287
102
{ACAD_XDICTIONARY
360
55F
102
}
102
{ACAD_REACTORS
330
285
102
}
330
285
100
AcDbPlotSettings
  1

  2
Fax
  4

  6

 40
0.0
 41
0.0
 42
0.0
 43
0.0
 44
0.0
 45
0.0
 46
0.0
 47
0.0
 48
0.0
 49
0.0
140
0.0
141
0.0
142
1.0
143
1.0
 70
  1712
 72
     0
 73
     0
 74
     0
  7
Default R14 pen assignments.ctb
 75
     0
147
1.0
148
0.0
149
0.0
100
AcDbLayout
  1
Model
 70
     1
 71
     0
 10
0.0
 20
0.0
 11
12.0
 21
9.0
 12
0.0
 22
0.0
 32
0.0
 14
0.0
 24
0.0
 34
0.0
 15
0.0
 25
0.0
 35
0.0
146
0.0
 13
0.0
 23
0.0
 33
0.0
 16
1.0
 26
0.0
 36
0.0
 17
0.0
 27
1.0
 37
0.0
 76
     0
330
A
331
3C2
  0
MATERIAL
  5
3F4
102
{ACAD_XDICTIONARY
360
565
102
}
102
{ACAD_REACTORS
330
3F2
102
}
330
3F2
100
AcDbMaterial
  1
ByBlock
  0
MATERIAL
  5
3F3
102
{ACAD_XDICTIONARY
360
563
102
}
102
{ACAD_REACTORS
330
3F2
102
}
330
3F2
100
AcDbMaterial
  1
ByLayer
  0
MATERIAL
  5
3F5
102
{ACAD_XDICTIONARY
360
567
102
}
102
{ACAD_REACTORS
330
3F2
102
}
330
3F2
100
AcDbMaterial
  1
Global
  0
MLINESTYLE
  5
1C
102
{ACAD_REACTORS
330
1B
102
}
330
1B
100
AcDbMlineStyle
  2
STANDARD
 70
     0
  3

 62
     0
 51
90.00000000000019
 52
90.00000000000019
 71
     2
 49
0.5
 62
   256
  6
BYLAYER
 49
-0.5
 62
   256
  6
BYLAYER
  0
ACDBPLACEHOLDER
  5
284
102
{ACAD_REACTORS
330
283
102
}
330
283
  0
TABLESTYLE
  5
409
102
{ACAD_XDICTIONARY
360
569
102
}
102
{ACAD_REACTORS
330
408
102
}
330
408
100
AcDbTableStyle
  3
Standard
 70
     0
 71
     0
 40
0.06
 41
0.06
280
     0
281
     0
  7
STANDARD
140
0.18
170
     2
 62
     0
 63
     7
283
     0
274
    -2
284
     1
 64
     0
275
    -2
285
     1
 65
     0
276
    -2
286
     1
 66
     0
277
    -2
287
     1
 67
     0
278
    -2
288
     1
 68
     0
279
    -2
289
     1
 69
     0
  7
STANDARD
140
0.25
170
     5
 62
     0
 63
     7
283
     0
274
    -2
284
     1
 64
     0
275
    -2
285
     1
 65
     0
276
    -2
286
     1
 66
     0
277
    -2
287
     1
 67
     0
278
    -2
288
     1
 68
     0
279
    -2
289
     1
 69
     0
  7
STANDARD
140
0.18
170
     5
 62
     0
 63
     7
283
     0
274
    -2
284
     1
 64
     0
275
    -2
285
     1
 65
     0
276
    -2
286
     1
 66
     0
277
    -2
287
     1
 67
     0
278
    -2
288
     1
 68
     0
279
    -2
289
     1
 69
     0
  0
VISUALSTYLE
  5
3FC
102
{ACAD_REACTORS
330
3F6
102
}
330
3F6
100
AcDbVisualStyle
  2
2dWireframe
 70
     4
 71
     0
 72
     2
 73
     0
 90
        0
 40
-0.6
 41
-30.0
 62
     5
 63
     7
 74
     1
 91
        4
 64
     7
 65
   257
 75
     1
175
     1
 42
1.0
 92
        0
 66
   257
 43
1.0
 76
     1
 77
     6
 78
     2
 67
     7
 79
     5
170
     0
171
     0
290
     0
174
     0
 93
        1
 44
0.0
173
     0
291
     0
 45
0.0
1001
ACAD
1000
AcDbSavedByObjectVersion
1070
     0
  0
VISUALSTYLE
  5
3FE
102
{ACAD_REACTORS
330
3F6
102
}
330
3F6
100
AcDbVisualStyle
  2
3D Hidden
 70
     6
 71
     1
 72
     2
 73
     2
 90
        0
 40
-0.6
 41
-30.0
 62
     5
 63
     7
 74
     2
 91
        2
 64
     7
 65
   257
 75
     2
175
     1
 42
40.0
 92
        0
 66
   257
 43
1.0
 76
     1
 77
     6
 78
     2
 67
     7
 79
     3
170
     0
171
     0
290
     0
174
     0
 93
        1
 44
0.0
173
     0
291
     0
 45
0.0
1001
ACAD
1000
AcDbSavedByObjectVersion
1070
     0
  0
VISUALSTYLE
  5
3FD
102
{ACAD_REACTORS
330
3F6
102
}
330
3F6
100
AcDbVisualStyle
  2
3dWireframe
 70
     5
 71
     0
 72
     2
 73
     0
 90
        0
 40
-0.6
 41
-30.0
 62
     5
 63
     7
 74
     1
 91
        4
 64
     7
 65
   257
 75
     1
175
     1
 42
1.0
 92
        0
 66
   257
 43
1.0
 76
     1
 77
     6
 78
     2
 67
     7
 79
     5
170
     0
171
     0
290
     0
174
     0
 93
        1
 44
0.0
173
     0
291
     0
 45
0.0
1001
ACAD
1000
AcDbSavedByObjectVersion
1070
     0
  0
VISUALSTYLE
  5
3FB
102
{ACAD_REACTORS
330
3F6
102
}
330
3F6
100
AcDbVisualStyle
  2
Basic
 70
     7
 71
     1
 72
     0
 73
     1
 90
        0
 40
-0.6
 41
-30.0
 62
     5
 63
     7
 74
     0
 91
        4
 64
     7
 65
   257
 75
     1
175
     1
 42
1.0
 92
        8
 66
     7
 43
1.0
 76
     1
 77
     6
 78
     2
 67
     7
 79
     5
170
     0
171
     0
290
     0
174
     0
 93
        1
 44
0.0
173
     0
291
     1
 45
0.0
1001
ACAD
1000
AcDbSavedByObjectVersion
1070
     0
  0
VISUALSTYLE
  5
402
102
{ACAD_REACTORS
330
3F6
102
}
330
3F6
100
AcDbVisualStyle
  2
Brighten
 70
    12
 71
     2
 72
     2
 73
     0
 90
        0
 40
-0.6
 41
-30.0
 62
     5
 63
     7
 74
     1
 91
        4
 64
     7
 65
   257
 75
     1
175
     1
 42
1.0
 92
        8
 66
     7
 43
1.0
 76
     1
 77
     6
 78
     2
 67
     7
 79
     5
170
     0
171
     0
290
     0
174
     0
 93
        1
 44
50.0
173
     0
291
     1
 45
0.0
1001
ACAD
1000
AcDbSavedByObjectVersion
1070
     0
  0
VISUALSTYLE
  5
406
102
{ACAD_REACTORS
330
3F6
102
}
330
3F6
100
AcDbVisualStyle
  2
ColorChange
 70
    16
 71
     2
 72
     2
 73
     3
 90
        0
 40
-0.6
 41
-30.0
 62
     5
 63
     8
 74
     1
 91
        4
 64
     7
 65
   257
 75
     1
175
     1
 42
1.0
 92
        8
 66
     8
 43
1.0
 76
     1
 77
     6
 78
     2
 67
     7
 79
     5
170
     0
171
     0
290
     0
174
     0
 93
        1
 44
0.0
173
     0
291
     1
 45
0.0
1001
ACAD
1000
AcDbSavedByObjectVersion
1070
     0
  0
VISUALSTYLE
  5
3FF
102
{ACAD_REACTORS
330
3F6
102
}
330
3F6
100
AcDbVisualStyle
  2
Conceptual
 70
     9
 71
     3
 72
     2
 73
     0
 90
        0
 40
-0.6
 41
-30.0
 62
     5
 63
     7
 74
     2
 91
        2
 64
     7
 65
   257
 75
     1
175
     1
 42
40.0
 92
        8
 66
     7
 43
1.0
 76
     1
 77
     6
 78
     2
 67
     7
 79
     3
170
     0
171
     0
290
     0
174
     0
 93
        1
 44
0.0
173
     0
291
     0
 45
0.0
1001
ACAD
1000
AcDbSavedByObjectVersion
1070
     0
  0
VISUALSTYLE
  5
401
102
{ACAD_REACTORS
330
3F6
102
}
330
3F6
100
AcDbVisualStyle
  2
Dim
 70
    11
 71
     2
 72
     2
 73
     0
 90
        0
 40
-0.6
 41
-30.0
 62
     5
 63
     7
 74
     1
 91
        4
 64
     7
 65
   257
 75
     1
175
     1
 42
1.0
 92
        8
 66
     7
 43
1.0
 76
     1
 77
     6
 78
     2
 67
     7
 79
     5
170
     0
171
     0
290
     0
174
     0
 93
        1
 44
-50.0
173
     0
291
     1
 45
0.0
1001
ACAD
1000
AcDbSavedByObjectVersion
1070
     0
  0
VISUALSTYLE
  5
405
102
{ACAD_REACTORS
330
3F6
102
}
330
3F6
100
AcDbVisualStyle
  2
Facepattern
 70
    15
 71
     2
 72
     2
 73
     0
 90
        0
 40
-0.6
 41
-30.0
 62
     5
 63
     7
 74
     1
 91
        4
 64
     7
 65
   257
 75
     1
175
     1
 42
1.0
 92
        8
 66
     7
 43
1.0
 76
     1
 77
     6
 78
     2
 67
     7
 79
     5
170
     0
171
     0
290
     0
174
     0
 93
        1
 44
0.0
173
     0
291
     1
 45
0.0
1001
ACAD
1000
AcDbSavedByObjectVersion
1070
     0
  0
VISUALSTYLE
  5
3F7
102
{ACAD_REACTORS
330
3F6
102
}
330
3F6
100
AcDbVisualStyle
  2
Flat
 70
     0
 71
     2
 72
     1
 73
     1
 90
        2
 40
-0.6
 41
30.0
 62
     5
 63
     7
 74
     0
 91
        4
 64
     7
 65
   257
 75
     1
175
     1
 42
1.0
 92
        8
 66
     7
 43
1.0
 76
     1
 77
     6
 78
     2
 67
     7
 79
     5
170
     0
171
     0
290
     0
174
     0
 93
       13
 44
0.0
173
     0
291
     1
 45
0.0
1001
ACAD
1000
AcDbSavedByObjectVersion
1070
     0
  0
VISUALSTYLE
  5
3F8
102
{ACAD_REACTORS
330
3F6
102
}
330
3F6
100
AcDbVisualStyle
  2
FlatWithEdges
 70
     1
 71
     2
 72
     1
 73
     1
 90
        2
 40
-0.6
 41
30.0
 62
     5
 63
     7
 74
     1
 91
        4
 64
     7
 65
   257
 75
     1
175
     1
 42
1.0
 92
        0
 66
   257
 43
1.0
 76
     1
 77
     6
 78
     2
 67
     7
 79
     5
170
     0
171
     0
290
     0
174
     0
 93
       13
 44
0.0
173
     0
291
     1
 45
0.0
1001
ACAD
1000
AcDbSavedByObjectVersion
1070
     0
  0
VISUALSTYLE
  5
3F9
102
{ACAD_REACTORS
330
3F6
102
}
330
3F6
100
AcDbVisualStyle
  2
Gouraud
 70
     2
 71
     2
 72
     2
 73
     1
 90
        2
 40
-0.6
 41
30.0
 62
     5
 63
     7
 74
     0
 91
        4
 64
     7
 65
   257
 75
     1
175
     1
 42
1.0
 92
        0
 66
     7
 43
1.0
 76
     1
 77
     6
 78
     2
 67
     7
 79
     5
170
     0
171
     0
290
     0
174
     0
 93
       13
 44
0.0
173
     0
291
     1
 45
0.0
1001
ACAD
1000
AcDbSavedByObjectVersion
1070
     0
  0
VISUALSTYLE
  5
3FA
102
{ACAD_REACTORS
330
3F6
102
}
330
3F6
100
AcDbVisualStyle
  2
GouraudWithEdges
 70
     3
 71
     2
 72
     2
 73
     1
 90
        2
 40
-0.6
 41
30.0
 62
     5
 63
     7
 74
     1
 91
        4
 64
     7
 65
   257
 75
     1
175
     1
 42
1.0
 92
        0
 66
   257
 43
1.0
 76
     1
 77
     6
 78
     2
 67
     7
 79
     5
170
     0
171
     0
290
     0
174
     0
 93
       13
 44
0.0
173
     0
291
     1
 45
0.0
1001
ACAD
1000
AcDbSavedByObjectVersion
1070
     0
  0
VISUALSTYLE
  5
404
102
{ACAD_REACTORS
330
3F6
102
}
330
3F6
100
AcDbVisualStyle
  2
Linepattern
 70
    14
 71
     2
 72
     2
 73
     0
 90
        0
 40
-0.6
 41
-30.0
 62
     5
 63
     7
 74
     1
 91
        4
 64
     7
 65
   257
 75
     7
175
     7
 42
1.0
 92
        8
 66
     7
 43
1.0
 76
     1
 77
     6
 78
     2
 67
     7
 79
     5
170
     0
171
     0
290
     0
174
     0
 93
        1
 44
0.0
173
     0
291
     1
 45
0.0
1001
ACAD
1000
AcDbSavedByObjectVersion
1070
     0
  0
VISUALSTYLE
  5
400
102
{ACAD_REACTORS
330
3F6
102
}
330
3F6
100
AcDbVisualStyle
  2
Realistic
 70
     8
 71
     2
 72
     2
 73
     0
 90
        0
 40
-0.6
 41
-30.0
 62
     5
 63
     7
 74
     1
 91
        0
 64
     7
 65
   257
 75
     1
175
     1
 42
1.0
 92
        8
 66
     8
 43
1.0
 76
     1
 77
     6
 78
     2
 67
     7
 79
     5
170
     0
171
     0
290
     0
174
     0
 93
       13
 44
0.0
173
     0
291
     0
 45
0.0
1001
ACAD
1000
AcDbSavedByObjectVersion
1070
     0
  0
VISUALSTYLE
  5
403
102
{ACAD_REACTORS
330
3F6
102
}
330
3F6
100
AcDbVisualStyle
  2
Thicken
 70
    13
 71
     2
 72
     2
 73
     0
 90
        0
 40
-0.6
 41
-30.0
 62
     5
 63
     7
 74
     1
 91
        4
 64
     7
 65
   257
 75
     1
175
     1
 42
1.0
 92
       12
 66
     7
 43
1.0
 76
     1
 77
     6
 78
     2
 67
     7
 79
     5
170
     0
171
     0
290
     0
174
     0
 93
        1
 44
0.0
173
     0
291
     1
 45
0.0
1001
ACAD
1000
AcDbSavedByObjectVersion
1070
     0
  0
DICTIONARYVAR
  5
468
102
{ACAD_REACTORS
330
2F3
102
}
330
2F3
100
DictionaryVariables
280
     0
  1
STANDARD
  0
DICTIONARYVAR
  5
2F4
102
{ACAD_REACTORS
330
2F3
102
}
330
2F3
100
DictionaryVariables
280
     0
  1
1
  0
DICTIONARYVAR
  5
46A
102
{ACAD_REACTORS
330
2F3
102
}
330
2F3
100
DictionaryVariables
280
     0
  1
0
  0
DICTIONARYVAR
  5
469
102
{ACAD_REACTORS
330
2F3
102
}
330
2F3
100
DictionaryVariables
280
     0
  1
127
  0
XRECORD
  5
44E
102
{ACAD_REACTORS
330
44C
102
}
330
44C
100
AcDbXrecord
280
     1
  0
DICTIONARY
  5
561
330
288
100
AcDbDictionary
280
     1
281
     1
  3
ACAD_XREC_ROUNDTRIP
360
562
  0
DICTIONARY
  5
55F
330
287
100
AcDbDictionary
280
     1
281
     1
  3
ACAD_XREC_ROUNDTRIP
360
560
  0
DICTIONARY
  5
565
330
3F4
100
AcDbDictionary
280
     1
281
     1
  3
ACAD_XREC_ROUNDTRIP
360
566
  0
DICTIONARY
  5
563
330
3F3
100
AcDbDictionary
280
     1
281
     1
  3
ACAD_XREC_ROUNDTRIP
360
564
  0
DICTIONARY
  5
567
330
3F5
100
AcDbDictionary
280
     1
281
     1
  3
ACAD_XREC_ROUNDTRIP
360
568
  0
DICTIONARY
  5
569
330
409
100
AcDbDictionary
280
     1
281
     1
  3
ACAD_XREC_ROUNDTRIP
360
56A
  0
XRECORD
  5
562
102
{ACAD_REACTORS
330
561
102
}
330
561
100
AcDbXrecord
280
     1
102
SHADEPLOT
 70
     0
102
SHADEPLOTRESLEVEL
 70
     2
102
SHADEPLOTCUSTOMDPI
 70
   300
  0
XRECORD
  5
560
102
{ACAD_REACTORS
330
55F
102
}
330
55F
100
AcDbXrecord
280
     1
102
SHADEPLOT
 70
     0
102
SHADEPLOTRESLEVEL
 70
     2
102
SHADEPLOTCUSTOMDPI
 70
   300
  0
XRECORD
  5
566
102
{ACAD_REACTORS
330
565
102
}
330
565
100
AcDbXrecord
280
     1
102
MATERIAL
148
0.0
149
0.0
149
0.0
 93
        0
 94
       63
282
     0
 72
     1
 77
     1
171
     1
175
     1
179
     1
273
     0
  0
XRECORD
  5
564
102
{ACAD_REACTORS
330
563
102
}
330
563
100
AcDbXrecord
280
     1
102
MATERIAL
148
0.0
149
0.0
149
0.0
 93
        0
 94
       63
282
     0
 72
     1
 77
     1
171
     1
175
     1
179
     1
273
     0
  0
XRECORD
  5
568
102
{ACAD_REACTORS
330
567
102
}
330
567
100
AcDbXrecord
280
     1
102
MATERIAL
148
0.0
149
0.0
149
0.0
 93
        0
 94
       63
282
     0
 72
     1
 77
     1
171
     1
175
     1
179
     1
273
     0
  0
XRECORD
  5
56A
102
{ACAD_REACTORS
330
569
102
}
330
569
100
AcDbXrecord
280
     1
102
ACAD_ROUNDTRIP_PRE2007_TABLESTYLE
 90
      512
 91
        0
  1

 92
      512
 93
        0
  2

 94
      512
 95
        0
  3

  0
ENDSEC
  0
EOF
