  0
SECTION
  2
HEADER
  9
$ACADVER
  1
AC1014
  9
$ACADMAINTVER
 70
     9
  9
$DWGCODEPAGE
  3
ANSI_1252
  9
$INSBASE
 10
17.98494102447447
 20
-14.29882422677914
 30
0.0
  9
$EXTMIN
 10
14.84224767422614
 20
-15.33197860522445
 30
0.0
  9
$EXTMAX
 10
27.89370572333938
 20
-11.97485118324105
 30
0.0
  9
$LIMMIN
 10
0.0
 20
0.0
  9
$LIMMAX
 10
36.0
 20
36.0
  9
$ORTHOMODE
 70
     1
  9
$REGENMODE
 70
     1
  9
$FILLMODE
 70
     1
  9
$QTEXTMODE
 70
     0
  9
$MIRRTEXT
 70
     1
  9
$DRAGMODE
 70
     0
  9
$LTSCALE
 40
1.0
  9
$OSMODE
 70
    37
  9
$ATTMODE
 70
     1
  9
$TEXTSIZE
 40
0.2
  9
$TRACEWID
 40
0.05
  9
$TEXTSTYLE
  7
STANDARD
  9
$CLAYER
  8
0
  9
$CELTYPE
  6
BYLAYER
  9
$CECOLOR
 62
   256
  9
$CELTSCALE
 40
1.0
  9
$DELOBJ
 70
     1
  9
$DISPSILH
 70
     0
  9
$DIMSCALE
 40
1.0
  9
$DIMASZ
 40
0.125
  9
$DIMEXO
 40
0.0625
  9
$DIMDLI
 40
0.38
  9
$DIMRND
 40
0.0
  9
$DIMDLE
 40
0.0
  9
$DIMEXE
 40
0.18
  9
$DIMTP
 40
0.0
  9
$DIMTM
 40
0.0
  9
$DIMTXT
 40
0.125
  9
$DIMCEN
 40
0.1875
  9
$DIMTSZ
 40
0.125
  9
$DIMTOL
 70
     0
  9
$DIMLIM
 70
     0
  9
$DIMTIH
 70
     0
  9
$DIMTOH
 70
     0
  9
$DIMSE1
 70
     0
  9
$DIMSE2
 70
     0
  9
$DIMTAD
 70
     0
  9
$DIMZIN
 70
     2
  9
$DIMBLK
  1

  9
$DIMASO
 70
     1
  9
$DIMSHO
 70
     1
  9
$DIMPOST
  1

  9
$DIMAPOST
  1

  9
$DIMALT
 70
     0
  9
$DIMALTD
 70
     1
  9
$DIMALTF
 40
25.4
  9
$DIMLFAC
 40
1.0
  9
$DIMTOFL
 70
     0
  9
$DIMTVP
 40
0.0
  9
$DIMTIX
 70
     0
  9
$DIMSOXD
 70
     0
  9
$DIMSAH
 70
     0
  9
$DIMBLK1
  1

  9
$DIMBLK2
  1

  9
$DIMSTYLE
  2
STANDARD
  9
$DIMCLRD
 70
     0
  9
$DIMCLRE
 70
     0
  9
$DIMCLRT
 70
     0
  9
$DIMTFAC
 40
1.0
  9
$DIMGAP
 40
0.125
  9
$DIMJUST
 70
     0
  9
$DIMSD1
 70
     0
  9
$DIMSD2
 70
     0
  9
$DIMTOLJ
 70
     1
  9
$DIMTZIN
 70
     0
  9
$DIMALTZ
 70
     0
  9
$DIMALTTZ
 70
     0
  9
$DIMFIT
 70
     3
  9
$DIMUPT
 70
     0
  9
$DIMUNIT
 70
     7
  9
$DIMDEC
 70
     4
  9
$DIMTDEC
 70
     4
  9
$DIMALTU
 70
     2
  9
$DIMALTTD
 70
     2
  9
$DIMTXSTY
  7
STANDARD
  9
$DIMAUNIT
 70
     0
  9
$LUNITS
 70
     5
  9
$LUPREC
 70
     4
  9
$SKETCHINC
 40
0.1
  9
$FILLETRAD
 40
0.062
  9
$AUNITS
 70
     0
  9
$AUPREC
 70
     0
  9
$MENU
  1
acad
  9
$ELEVATION
 40
0.0
  9
$PELEVATION
 40
0.0
  9
$THICKNESS
 40
0.0
  9
$LIMCHECK
 70
     0
  9
$BLIPMODE
 70
     0
  9
$CHAMFERA
 40
0.0
  9
$CHAMFERB
 40
0.0
  9
$CHAMFERC
 40
0.0
  9
$CHAMFERD
 40
0.0
  9
$SKPOLY
 70
     0
  9
$TDCREATE
 40
2450386.504063460
  9
$TDUPDATE
 40
2452297.081208402
  9
$TDINDWG
 40
0.0415422569
  9
$TDUSRTIMER
 40
0.0415422569
  9
$USRTIMER
 70
     1
  9
$ANGBASE
 50
0.0
  9
$ANGDIR
 70
     0
  9
$PDMODE
 70
     0
  9
$PDSIZE
 40
0.0
  9
$PLINEWID
 40
0.0
  9
$COORDS
 70
     2
  9
$SPLFRAME
 70
     0
  9
$SPLINETYPE
 70
     6
  9
$SPLINESEGS
 70
     8
  9
$ATTDIA
 70
     0
  9
$ATTREQ
 70
     1
  9
$HANDLING
 70
 22529
  9
$HANDSEED
  5
461
  9
$SURFTAB1
 70
     6
  9
$SURFTAB2
 70
     6
  9
$SURFTYPE
 70
     6
  9
$SURFU
 70
     6
  9
$SURFV
 70
     6
  9
$UCSNAME
  2

  9
$UCSORG
 10
0.0
 20
0.0
 30
0.0
  9
$UCSXDIR
 10
1.0
 20
0.0
 30
0.0
  9
$UCSYDIR
 10
0.0
 20
1.0
 30
0.0
  9
$PUCSNAME
  2

  9
$PUCSORG
 10
0.0
 20
0.0
 30
0.0
  9
$PUCSXDIR
 10
1.0
 20
0.0
 30
0.0
  9
$PUCSYDIR
 10
0.0
 20
1.0
 30
0.0
  9
$USERI1
 70
     0
  9
$USERI2
 70
     0
  9
$USERI3
 70
     0
  9
$USERI4
 70
     0
  9
$USERI5
 70
     0
  9
$USERR1
 40
0.0
  9
$USERR2
 40
0.0
  9
$USERR3
 40
0.0
  9
$USERR4
 40
0.0
  9
$USERR5
 40
0.0
  9
$WORLDVIEW
 70
     1
  9
$SHADEDGE
 70
     3
  9
$SHADEDIF
 70
    70
  9
$TILEMODE
 70
     1
  9
$MAXACTVP
 70
    15
  9
$PINSBASE
 10
4.403525741743744E+99
 20
7.061986388769092E+99
 30
0.0
  9
$PLIMCHECK
 70
     0
  9
$PEXTMIN
 10
1.000000000000000E+20
 20
1.000000000000000E+20
 30
1.000000000000000E+20
  9
$PEXTMAX
 10
-1.000000000000000E+20
 20
-1.000000000000000E+20
 30
-1.000000000000000E+20
  9
$PLIMMIN
 10
0.0
 20
0.0
  9
$PLIMMAX
 10
12.0
 20
9.0
  9
$UNITMODE
 70
     0
  9
$VISRETAIN
 70
     0
  9
$PLINEGEN
 70
     0
  9
$PSLTSCALE
 70
     1
  9
$TREEDEPTH
 70
  3020
  9
$PICKSTYLE
 70
     1
  9
$CMLSTYLE
  2
STANDARD
  9
$CMLJUST
 70
     0
  9
$CMLSCALE
 40
1.0
  9
$PROXYGRAPHICS
 70
     1
  9
$MEASUREMENT
 70
     0
  0
ENDSEC
  0
SECTION
  2
CLASSES
  0
CLASS
  1
ACDBDICTIONARYWDFLT
  2
AcDbDictionaryWithDefault
  3
AutoCAD 2000
 90
        0
280
     0
281
     0
  0
CLASS
  1
ACDBPLACEHOLDER
  2
AcDbPlaceHolder
  3
AutoCAD 2000
 90
        0
280
     0
281
     0
  0
CLASS
  1
LAYOUT
  2
AcDbLayout
  3
AutoCAD 2000
 90
        0
280
     0
281
     0
  0
CLASS
  1
DICTIONARYVAR
  2
AcDbDictionaryVar
  3
AutoCAD 2000
 90
        0
280
     0
281
     0
  0
CLASS
  1
LONG_TRANSACTION
  2
AcDbLongTransaction
  3
AutoCAD 2000
 90
        0
280
     0
281
     0
  0
CLASS
  1
LWPOLYLINE
  2
AcDbPolyline
  3
AutoCAD 2000
 90
        0
280
     0
281
     1
  0
CLASS
  1
HATCH
  2
AcDbHatch
  3
AutoCAD 2000
 90
        0
280
     0
281
     1
  0
CLASS
  1
XRECORD
  2
AcDbXrecord
  3
AutoCAD 2000
 90
        0
280
     0
281
     0
  0
CLASS
  1
LONG_TRANSACTION
  2
AcDbLongTransaction
  3
AutoCAD 2000
 90
        0
280
     0
281
     0
  0
CLASS
  1
LWPOLYLINE
  2
AcDbPolyline
  3
AutoCAD 2000
 90
        0
280
     0
281
     1
  0
CLASS
  1
HATCH
  2
AcDbHatch
  3
AutoCAD 2000
 90
        0
280
     0
281
     1
  0
CLASS
  1
XRECORD
  2
AcDbXrecord
  3
AutoCAD 2000
 90
        0
280
     0
281
     0
  0
CLASS
  1
LONG_TRANSACTION
  2
AcDbLongTransaction
  3
AutoCAD 2000
 90
        0
280
     0
281
     0
  0
CLASS
  1
LWPOLYLINE
  2
AcDbPolyline
  3
AutoCAD 2000
 90
        0
280
     0
281
     1
  0
CLASS
  1
HATCH
  2
AcDbHatch
  3
AutoCAD 2000
 90
        0
280
     0
281
     1
  0
CLASS
  1
XRECORD
  2
AcDbXrecord
  3
AutoCAD 2000
 90
        0
280
     0
281
     0
  0
CLASS
  1
LONG_TRANSACTION
  2
AcDbLongTransaction
  3
AutoCAD 2000
 90
        0
280
     0
281
     0
  0
CLASS
  1
LWPOLYLINE
  2
AcDbPolyline
  3
AutoCAD 2000
 90
        0
280
     0
281
     1
  0
CLASS
  1
HATCH
  2
AcDbHatch
  3
AutoCAD 2000
 90
        0
280
     0
281
     1
  0
CLASS
  1
XRECORD
  2
AcDbXrecord
  3
AutoCAD 2000
 90
        0
280
     0
281
     0
  0
CLASS
  1
LONG_TRANSACTION
  2
AcDbLongTransaction
  3
AutoCAD 2000
 90
        0
280
     0
281
     0
  0
CLASS
  1
LWPOLYLINE
  2
AcDbPolyline
  3
AutoCAD 2000
 90
        0
280
     0
281
     1
  0
CLASS
  1
HATCH
  2
AcDbHatch
  3
AutoCAD 2000
 90
        0
280
     0
281
     1
  0
CLASS
  1
XRECORD
  2
AcDbXrecord
  3
AutoCAD 2000
 90
        0
280
     0
281
     0
  0
CLASS
  1
LONG_TRANSACTION
  2
AcDbLongTransaction
  3
AutoCAD 2000
 90
        0
280
     0
281
     0
  0
CLASS
  1
LWPOLYLINE
  2
AcDbPolyline
  3
AutoCAD 2000
 90
        0
280
     0
281
     1
  0
CLASS
  1
HATCH
  2
AcDbHatch
  3
AutoCAD 2000
 90
        0
280
     0
281
     1
  0
CLASS
  1
XRECORD
  2
AcDbXrecord
  3
AutoCAD 2000
 90
        0
280
     0
281
     0
  0
ENDSEC
  0
SECTION
  2
TABLES
  0
TABLE
  2
VPORT
  5
12
330
0
100
AcDbSymbolTable
 70
     2
  0
VPORT
  5
40B
330
12
100
AcDbSymbolTableRecord
100
AcDbViewportTableRecord
  2
*ACTIVE
 70
     0
 10
0.0
 20
0.0
 11
1.0
 21
1.0
 12
21.37921896393283
 22
-13.65313527066505
 13
0.0
 23
0.0
 14
0.5740882589684922
 24
0.5740882589684922
 15
0.5
 25
0.5
 16
0.0
 26
0.0
 36
1.0
 17
0.0
 27
0.0
 37
0.0
 40
8.365595802020571
 41
1.570528967254408
 42
50.0
 43
0.0
 44
0.0
 50
0.0
 51
0.0
 71
     0
 72
   100
 73
     1
 74
     0
 75
     0
 76
     0
 77
     0
 78
     0
  0
ENDTAB
  0
TABLE
  2
LTYPE
  5
E
330
0
100
AcDbSymbolTable
 70
     2
  0
LTYPE
  5
F
330
E
100
AcDbSymbolTableRecord
100
AcDbLinetypeTableRecord
  2
BYBLOCK
 70
     0
  3

 72
    65
 73
     0
 40
0.0
  0
LTYPE
  5
6
330
E
100
AcDbSymbolTableRecord
100
AcDbLinetypeTableRecord
  2
BYLAYER
 70
     0
  3

 72
    65
 73
     0
 40
0.0
  0
LTYPE
  5
5
330
E
100
AcDbSymbolTableRecord
100
AcDbLinetypeTableRecord
  2
CONTINUOUS
 70
     0
  3
Solid line
 72
    65
 73
     0
 40
0.0
  0
LTYPE
  5
1F
330
E
100
AcDbSymbolTableRecord
100
AcDbLinetypeTableRecord
  2
HIDDEN2
 70
     0
  3
_ _ _ _ _ _ _ _ _ _ _ _ _ _ _ _ _ _ _ _ _ _ _ _
 72
    65
 73
     2
 40
0.1875
 49
0.125
 74
     0
 49
-0.0625
 74
     0
  0
ENDTAB
  0
TABLE
  2
LAYER
  5
B
330
0
100
AcDbSymbolTable
 70
     5
  0
LAYER
  5
4
330
B
100
AcDbSymbolTableRecord
100
AcDbLayerTableRecord
  2
0
 70
     0
 62
     7
  6
CONTINUOUS
  0
LAYER
  5
21
330
B
100
AcDbSymbolTableRecord
100
AcDbLayerTableRecord
  2
ADP1DETAIL
 70
     0
 62
     7
  6
CONTINUOUS
  0
LAYER
  5
4C
330
B
100
AcDbSymbolTableRecord
100
AcDbLayerTableRecord
  2
DEFPOINTS
 70
     0
 62
     7
  6
CONTINUOUS
  0
LAYER
  5
42
330
B
100
AcDbSymbolTableRecord
100
AcDbLayerTableRecord
  2
ADPDIM
 70
     0
 62
     3
  6
CONTINUOUS
  0
LAYER
  5
1E
330
B
100
AcDbSymbolTableRecord
100
AcDbLayerTableRecord
  2
ADP2DETAIL
 70
     0
 62
     5
  6
CONTINUOUS
  0
ENDTAB
  0
TABLE
  2
STYLE
  5
C
330
0
100
AcDbSymbolTable
 70
     2
  0
STYLE
  5
D
330
C
100
AcDbSymbolTableRecord
100
AcDbTextStyleTableRecord
  2
STANDARD
 70
     0
 40
0.0
 41
1.0
 50
0.0
 71
     0
 42
0.2
  3
txt
  4

  0
STYLE
  5
E2
330
C
100
AcDbSymbolTableRecord
100
AcDbTextStyleTableRecord
  2
ARIAL_WIDE
 70
     0
 40
0.0
 41
1.25
 50
0.0
 71
     0
 42
0.2
  3
ARIAL.TTF
  4

1001
ACAD
1000
Arial
1071
       34
  0
ENDTAB
  0
TABLE
  2
VIEW
  5
10
330
0
100
AcDbSymbolTable
 70
     0
  0
ENDTAB
  0
TABLE
  2
UCS
  5
11
330
0
100
AcDbSymbolTable
 70
     0
  0
ENDTAB
  0
TABLE
  2
APPID
  5
14
330
0
100
AcDbSymbolTable
 70
     1
  0
APPID
  5
15
330
14
100
AcDbSymbolTableRecord
100
AcDbRegAppTableRecord
  2
ACAD
 70
     0
  0
ENDTAB
  0
TABLE
  2
DIMSTYLE
  5
16
330
0
100
AcDbSymbolTable
 70
     1
  0
DIMSTYLE
105
1C
102
{ACAD_REACTORS
330
41
330
51
330
64
330
7A
330
CB
102
}
330
16
100
AcDbSymbolTableRecord
100
AcDbDimStyleTableRecord
  2
STANDARD
 70
     0
  3

  4

  5

  6

  7

 40
1.0
 41
0.18
 42
0.0625
 43
0.38
 44
0.18
 45
0.0
 46
0.0
 47
0.0
 48
0.0
140
0.18
141
0.09
142
0.0
143
25.4
144
1.0
145
0.0
146
1.0
147
0.09
 71
     0
 72
     0
 73
     1
 74
     1
 75
     0
 76
     0
 77
     0
 78
     0
170
     0
171
     2
172
     0
173
     0
174
     0
175
     0
176
     0
177
     0
178
     0
270
     2
271
     4
272
     4
273
     2
274
     2
340
D
275
     0
280
     0
281
     0
282
     0
283
     1
284
     0
285
     0
286
     0
287
     3
288
     0
  0
ENDTAB
  0
TABLE
  2
BLOCK_RECORD
  5
1
330
0
100
AcDbSymbolTable
 70
     6
  0
BLOCK_RECORD
  5
2
102
{ACAD_XDICTIONARY
360
178
102
}
330
1
100
AcDbSymbolTableRecord
100
AcDbBlockTableRecord
  2
*MODEL_SPACE
  0
BLOCK_RECORD
  5
8
102
{ACAD_XDICTIONARY
360
17A
102
}
330
1
100
AcDbSymbolTableRecord
100
AcDbBlockTableRecord
  2
*PAPER_SPACE
  0
BLOCK_RECORD
  5
91
330
1
100
AcDbSymbolTableRecord
100
AcDbBlockTableRecord
  2
STUD
  0
BLOCK_RECORD
  5
17C
330
1
100
AcDbSymbolTableRecord
100
AcDbBlockTableRecord
  2
*D1
  0
BLOCK_RECORD
  5
18B
330
1
100
AcDbSymbolTableRecord
100
AcDbBlockTableRecord
  2
*D2
  0
BLOCK_RECORD
  5
198
330
1
100
AcDbSymbolTableRecord
100
AcDbBlockTableRecord
  2
*D3
  0
BLOCK_RECORD
  5
1A5
330
1
100
AcDbSymbolTableRecord
100
AcDbBlockTableRecord
  2
*D4
  0
BLOCK_RECORD
  5
1B2
330
1
100
AcDbSymbolTableRecord
100
AcDbBlockTableRecord
  2
*D5
  0
ENDTAB
  0
ENDSEC
  0
SECTION
  2
BLOCKS
  0
BLOCK
  5
3
330
2
100
AcDbEntity
  8
0
100
AcDbBlockBegin
  2
*MODEL_SPACE
 70
     0
 10
0.0
 20
0.0
 30
0.0
  3
*MODEL_SPACE
  1

  0
ENDBLK
  5
7
330
2
100
AcDbEntity
  8
0
100
AcDbBlockEnd
  0
BLOCK
  5
9
330
8
100
AcDbEntity
 67
     1
  8
0
100
AcDbBlockBegin
  2
*PAPER_SPACE
 70
     0
 10
0.0
 20
0.0
 30
0.0
  3
*PAPER_SPACE
  1

  0
ENDBLK
  5
A
330
8
100
AcDbEntity
 67
     1
  8
0
100
AcDbBlockEnd
  0
BLOCK
  5
C5
330
91
100
AcDbEntity
  8
0
100
AcDbBlockBegin
  2
STUD
 70
     0
 10
0.0
 20
0.0
 30
0.0
  3
STUD
  1

  0
LINE
  5
92
330
91
100
AcDbEntity
  8
0
100
AcDbLine
 10
-0.2106546533272015
 20
0.4345838899572075
 30
0.0
 11
-0.2416546533272015
 21
0.4965838899572073
 31
0.0
  0
LINE
  5
93
330
91
100
AcDbEntity
  8
0
100
AcDbLine
 10
-0.2128857855944517
 20
-0.0034161100427927
 30
0.0
 11
-0.2438857855944517
 21
0.0585838899572071
 31
0.0
  0
LINE
  5
94
330
91
100
AcDbEntity
  8
0
100
AcDbLine
 10
-0.6191843435445581
 20
0.4965838899572073
 30
0.0
 11
-0.6191843435445581
 21
0.0575739754449174
 31
0.0
  0
LINE
  5
95
330
91
100
AcDbEntity
  8
0
100
AcDbLine
 10
-0.274160893627193
 20
0.4345838899572075
 30
0.0
 11
-0.2438857855944517
 21
0.0585838899572071
 31
0.0
  0
LINE
  5
96
330
91
100
AcDbEntity
  8
0
100
AcDbLine
 10
-0.3376671339271846
 20
0.4345838899572075
 30
0.0
 11
-0.3073920258944432
 21
0.0585838899572071
 31
0.0
  0
LINE
  5
97
330
91
100
AcDbEntity
  8
0
100
AcDbLine
 10
-0.401173374227176
 20
0.4345838899572075
 30
0.0
 11
-0.3708982661944346
 21
0.0585838899572071
 31
0.0
  0
LINE
  5
98
330
91
100
AcDbEntity
  8
0
100
AcDbLine
 10
-0.4646796613424146
 20
0.4345838899572075
 30
0.0
 11
-0.4344045533096732
 21
0.0585838899572071
 31
0.0
  0
LINE
  5
99
330
91
100
AcDbEntity
  8
0
100
AcDbLine
 10
-0.5224125985578164
 20
0.4345838899572075
 30
0.0
 11
-0.492137490525075
 21
0.0585838899572071
 31
0.0
  0
LINE
  5
9A
330
91
100
AcDbEntity
  8
0
100
AcDbLine
 10
-0.585918838857808
 20
0.4345838899572075
 30
0.0
 11
-0.5556437308250666
 21
0.0585838899572071
 31
0.0
  0
LINE
  5
9B
330
91
100
AcDbEntity
  8
0
100
AcDbLine
 10
-0.4654045533096733
 20
-0.0034161100427927
 30
0.0
 11
-0.492137490525075
 21
0.0585838899572071
 31
0.0
  0
LINE
  5
9C
330
91
100
AcDbEntity
  8
0
100
AcDbLine
 10
-0.6191843435445581
 20
0.0575739754449174
 30
0.0
 11
-0.5866437308250667
 21
-0.0034161100427927
 31
0.0
  0
LINE
  5
9D
330
91
100
AcDbEntity
  8
0
100
AcDbLine
 10
-0.5246437308250666
 20
-0.0034161100427927
 30
0.0
 11
-0.5556437308250666
 21
0.0585838899572071
 31
0.0
  0
LINE
  5
9E
330
91
100
AcDbEntity
  8
0
100
AcDbLine
 10
-0.5556437308250666
 20
0.0585838899572071
 30
0.0
 11
-0.5866437308250667
 21
-0.0034161100427927
 31
0.0
  0
LINE
  5
9F
330
91
100
AcDbEntity
  8
0
100
AcDbLine
 10
-0.492137490525075
 20
0.0585838899572071
 30
0.0
 11
-0.5231374905250751
 21
-0.0034161100427927
 31
0.0
  0
LINE
  5
A0
330
91
100
AcDbEntity
  8
0
100
AcDbLine
 10
-0.3398982661944347
 20
-0.0034161100427927
 30
0.0
 11
-0.3708982661944346
 21
0.0585838899572071
 31
0.0
  0
LINE
  5
A1
330
91
100
AcDbEntity
  8
0
100
AcDbLine
 10
-0.4034045533096732
 20
-0.0034161100427927
 30
0.0
 11
-0.4344045533096732
 21
0.0585838899572071
 31
0.0
  0
LINE
  5
A2
330
91
100
AcDbEntity
  8
0
100
AcDbLine
 10
-0.4344045533096732
 20
0.0585838899572071
 30
0.0
 11
-0.4654045533096733
 21
-0.0034161100427927
 31
0.0
  0
LINE
  5
A3
330
91
100
AcDbEntity
  8
0
100
AcDbLine
 10
-0.3708982661944346
 20
0.0585838899572071
 30
0.0
 11
-0.4018982661944348
 21
-0.0034161100427927
 31
0.0
  0
LINE
  5
A4
330
91
100
AcDbEntity
  8
0
100
AcDbLine
 10
-0.2763920258944432
 20
-0.0034161100427927
 30
0.0
 11
-0.3073920258944432
 21
0.0585838899572071
 31
0.0
  0
LINE
  5
A5
330
91
100
AcDbEntity
  8
0
100
AcDbLine
 10
-0.3073920258944432
 20
0.0585838899572071
 30
0.0
 11
-0.3383920258944432
 21
-0.0034161100427927
 31
0.0
  0
LINE
  5
A6
330
91
100
AcDbEntity
  8
0
100
AcDbLine
 10
-0.2438857855944517
 20
0.0585838899572071
 30
0.0
 11
-0.2748857855944518
 21
-0.0034161100427927
 31
0.0
  0
LINE
  5
A7
330
91
100
AcDbEntity
  8
0
100
AcDbLine
 10
-0.4646796613424146
 20
0.4345838899572075
 30
0.0
 11
-0.4956796613424145
 21
0.4965838899572073
 31
0.0
  0
LINE
  5
A8
330
91
100
AcDbEntity
  8
0
100
AcDbLine
 10
-0.585918838857808
 20
0.4345838899572075
 30
0.0
 11
-0.616918838857808
 21
0.4965838899572073
 31
0.0
  0
LINE
  5
A9
330
91
100
AcDbEntity
  8
0
100
AcDbLine
 10
-0.5224125985578164
 20
0.4345838899572075
 30
0.0
 11
-0.5534125985578165
 21
0.4965838899572073
 31
0.0
  0
LINE
  5
AA
330
91
100
AcDbEntity
  8
0
100
AcDbLine
 10
-0.4956796613424145
 20
0.4965838899572073
 30
0.0
 11
-0.5224125985578164
 21
0.4345838899572075
 31
0.0
  0
LINE
  5
AB
330
91
100
AcDbEntity
  8
0
100
AcDbLine
 10
-0.5549188388578079
 20
0.4965838899572073
 30
0.0
 11
-0.585918838857808
 21
0.4345838899572075
 31
0.0
  0
LINE
  5
AC
330
91
100
AcDbEntity
  8
0
100
AcDbLine
 10
-0.3376671339271846
 20
0.4345838899572075
 30
0.0
 11
-0.3686671339271845
 21
0.4965838899572073
 31
0.0
  0
LINE
  5
AD
330
91
100
AcDbEntity
  8
0
100
AcDbLine
 10
-0.401173374227176
 20
0.4345838899572075
 30
0.0
 11
-0.432173374227176
 21
0.4965838899572073
 31
0.0
  0
LINE
  5
AE
330
91
100
AcDbEntity
  8
0
100
AcDbLine
 10
-0.3701733742271759
 20
0.4965838899572073
 30
0.0
 11
-0.401173374227176
 21
0.4345838899572075
 31
0.0
  0
LINE
  5
AF
330
91
100
AcDbEntity
  8
0
100
AcDbLine
 10
-0.4336796613424145
 20
0.4965838899572073
 30
0.0
 11
-0.4646796613424146
 21
0.4345838899572075
 31
0.0
  0
LINE
  5
B0
330
91
100
AcDbEntity
  8
0
100
AcDbLine
 10
-0.274160893627193
 20
0.4345838899572075
 30
0.0
 11
-0.305160893627193
 21
0.4965838899572073
 31
0.0
  0
LINE
  5
B1
330
91
100
AcDbEntity
  8
0
100
AcDbLine
 10
-0.243160893627193
 20
0.4965838899572073
 30
0.0
 11
-0.274160893627193
 21
0.4345838899572075
 31
0.0
  0
LINE
  5
B2
330
91
100
AcDbEntity
  8
0
100
AcDbLine
 10
-0.3066671339271845
 20
0.4965838899572073
 30
0.0
 11
-0.3376671339271846
 21
0.4345838899572075
 31
0.0
  0
LINE
  5
B3
330
91
100
AcDbEntity
  8
0
100
AcDbLine
 10
-0.0251843435445581
 20
0.4345838899572075
 30
0.0
 11
0.0050907644881833
 21
0.0585838899572071
 31
0.0
  0
LINE
  5
B4
330
91
100
AcDbEntity
  8
0
100
AcDbLine
 10
-0.0871843435445581
 20
0.4345838899572075
 30
0.0
 11
-0.0569092355118167
 21
0.0585838899572071
 31
0.0
  0
LINE
  5
B5
330
91
100
AcDbEntity
  8
0
100
AcDbLine
 10
-0.1491843435445581
 20
0.4345838899572075
 30
0.0
 11
-0.1189092355118167
 21
0.0585838899572071
 31
0.0
  0
LINE
  5
B6
330
91
100
AcDbEntity
  8
0
100
AcDbLine
 10
-0.2106546533272015
 20
0.4345838899572075
 30
0.0
 11
-0.1803795452944603
 21
0.0585838899572071
 31
0.0
  0
LINE
  5
B7
330
91
100
AcDbEntity
  8
0
100
AcDbLine
 10
-0.0879092355118168
 20
-0.0034161100427927
 30
0.0
 11
-0.1189092355118167
 21
0.0585838899572071
 31
0.0
  0
LINE
  5
B8
330
91
100
AcDbEntity
  8
0
100
AcDbLine
 10
-0.1493795452944602
 20
-0.0034161100427927
 30
0.0
 11
-0.1803795452944603
 21
0.0585838899572071
 31
0.0
  0
LINE
  5
B9
330
91
100
AcDbEntity
  8
0
100
AcDbLine
 10
-0.1803795452944603
 20
0.0585838899572071
 30
0.0
 11
-0.2113795452944602
 21
-0.0034161100427927
 31
0.0
  0
LINE
  5
BA
330
91
100
AcDbEntity
  8
0
100
AcDbLine
 10
-0.1189092355118167
 20
0.0585838899572071
 30
0.0
 11
-0.1499092355118167
 21
-0.0034161100427927
 31
0.0
  0
LINE
  5
BB
330
91
100
AcDbEntity
  8
0
100
AcDbLine
 10
-0.0569092355118167
 20
0.0585838899572071
 30
0.0
 11
-0.0879092355118168
 21
-0.0034161100427927
 31
0.0
  0
LINE
  5
BC
330
91
100
AcDbEntity
  8
0
100
AcDbLine
 10
-0.0259092355118167
 20
-0.0034161100427927
 30
0.0
 11
-0.0569092355118167
 21
0.0585838899572071
 31
0.0
  0
LINE
  5
BD
330
91
100
AcDbEntity
  8
0
100
AcDbLine
 10
0.0050907644881833
 20
0.0585838899572071
 30
0.0
 11
-0.0259092355118167
 21
-0.0034161100427927
 31
0.0
  0
LINE
  5
BE
330
91
100
AcDbEntity
  8
0
100
AcDbLine
 10
-0.0871843435445581
 20
0.4345838899572075
 30
0.0
 11
-0.118184343544558
 21
0.4965838899572073
 31
0.0
  0
LINE
  5
BF
330
91
100
AcDbEntity
  8
0
100
AcDbLine
 10
-0.1491843435445581
 20
0.4345838899572075
 30
0.0
 11
-0.180184343544558
 21
0.4965838899572073
 31
0.0
  0
LINE
  5
C0
330
91
100
AcDbEntity
  8
0
100
AcDbLine
 10
-0.118184343544558
 20
0.4965838899572073
 30
0.0
 11
-0.1491843435445581
 21
0.4345838899572075
 31
0.0
  0
LINE
  5
C1
330
91
100
AcDbEntity
  8
0
100
AcDbLine
 10
-0.1796546533272015
 20
0.4965838899572073
 30
0.0
 11
-0.2106546533272015
 21
0.4345838899572075
 31
0.0
  0
LINE
  5
C2
330
91
100
AcDbEntity
  8
0
100
AcDbLine
 10
0.005815656455442
 20
0.4965838899572073
 30
0.0
 11
-0.0251843435445581
 21
0.4345838899572075
 31
0.0
  0
LINE
  5
C3
330
91
100
AcDbEntity
  8
0
100
AcDbLine
 10
-0.0251843435445581
 20
0.4345838899572075
 30
0.0
 11
-0.0561843435445581
 21
0.4965838899572073
 31
0.0
  0
LINE
  5
C4
330
91
100
AcDbEntity
  8
0
100
AcDbLine
 10
-0.0561843435445581
 20
0.4965838899572073
 30
0.0
 11
-0.0871843435445581
 21
0.4345838899572075
 31
0.0
  0
ENDBLK
  5
C6
330
91
100
AcDbEntity
  8
0
100
AcDbBlockEnd
  0
BLOCK
  5
187
330
17C
100
AcDbEntity
  8
0
100
AcDbBlockBegin
  2
*D1
 70
     1
 10
0.0
 20
0.0
 30
0.0
  3
*D1
  1

  0
LINE
  5
42F
330
17C
100
AcDbEntity
  8
ADPDIM
 62
     0
100
AcDbLine
 10
22.40561803518591
 20
-12.71735118324105
 30
0.0
 11
22.40561803518591
 21
-11.97485118324105
 31
0.0
  0
LINE
  5
430
330
17C
100
AcDbEntity
  8
ADPDIM
 62
     0
100
AcDbLine
 10
24.90561803518591
 20
-12.71735118324105
 30
0.0
 11
24.90561803518591
 21
-11.97485118324105
 31
0.0
  0
LINE
  5
431
330
17C
100
AcDbEntity
  8
ADPDIM
 62
     0
100
AcDbLine
 10
22.40561803518591
 20
-12.15485118324105
 30
0.0
 11
23.25978470185258
 21
-12.15485118324105
 31
0.0
  0
LINE
  5
432
330
17C
100
AcDbEntity
  8
ADPDIM
 62
     0
100
AcDbLine
 10
24.90561803518591
 20
-12.15485118324105
 30
0.0
 11
24.05145136851924
 21
-12.15485118324105
 31
0.0
  0
LINE
  5
433
330
17C
100
AcDbEntity
  8
ADPDIM
 62
     0
100
AcDbLine
 10
24.78061803518591
 20
-12.27985118324105
 30
0.0
 11
25.03061803518591
 21
-12.02985118324106
 31
0.0
  0
LINE
  5
434
330
17C
100
AcDbEntity
  8
ADPDIM
 62
     0
100
AcDbLine
 10
22.28061803518591
 20
-12.27985118324105
 30
0.0
 11
22.53061803518591
 21
-12.02985118324106
 31
0.0
  0
MTEXT
  5
435
330
17C
100
AcDbEntity
  8
ADPDIM
 62
     0
100
AcDbMText
 10
23.65561803518591
 20
-12.15485118324105
 30
0.0
 40
0.125
 41
0.0
 71
     5
 72
     1
  1
\A1;2 1/2
  0
POINT
  5
436
330
17C
100
AcDbEntity
  8
DEFPOINTS
 62
     0
100
AcDbPoint
 10
22.40561803518591
 20
-12.77985118324105
 30
0.0
  0
POINT
  5
437
330
17C
100
AcDbEntity
  8
DEFPOINTS
 62
     0
100
AcDbPoint
 10
24.90561803518591
 20
-12.77985118324105
 30
0.0
  0
POINT
  5
438
330
17C
100
AcDbEntity
  8
DEFPOINTS
 62
     0
100
AcDbPoint
 10
24.90561803518591
 20
-12.15485118324105
 30
0.0
  0
ENDBLK
  5
188
330
17C
100
AcDbEntity
  8
0
100
AcDbBlockEnd
  0
BLOCK
  5
196
330
18B
100
AcDbEntity
  8
0
100
AcDbBlockBegin
  2
*D2
 70
     1
 10
0.0
 20
0.0
 30
0.0
  3
*D2
  1

  0
LINE
  5
439
330
18B
100
AcDbEntity
  8
ADPDIM
 62
     0
100
AcDbLine
 10
22.81161803518591
 20
-12.59235118324105
 30
0.0
 11
22.81161803518591
 21
-12.34985118324106
 31
0.0
  0
LINE
  5
43A
330
18B
100
AcDbEntity
  8
ADPDIM
 62
     0
100
AcDbLine
 10
24.43661803518591
 20
-12.59235118324105
 30
0.0
 11
24.43661803518591
 21
-12.34985118324106
 31
0.0
  0
LINE
  5
43B
330
18B
100
AcDbEntity
  8
ADPDIM
 62
     0
100
AcDbLine
 10
22.81161803518591
 20
-12.52985118324105
 30
0.0
 11
23.22828470185258
 21
-12.52985118324105
 31
0.0
  0
LINE
  5
43C
330
18B
100
AcDbEntity
  8
ADPDIM
 62
     0
100
AcDbLine
 10
24.43661803518591
 20
-12.52985118324105
 30
0.0
 11
24.01995136851924
 21
-12.52985118324105
 31
0.0
  0
LINE
  5
43D
330
18B
100
AcDbEntity
  8
ADPDIM
 62
     0
100
AcDbLine
 10
24.31161803518591
 20
-12.65485118324106
 30
0.0
 11
24.56161803518591
 21
-12.40485118324105
 31
0.0
  0
LINE
  5
43E
330
18B
100
AcDbEntity
  8
ADPDIM
 62
     0
100
AcDbLine
 10
22.68661803518591
 20
-12.65485118324106
 30
0.0
 11
22.93661803518591
 21
-12.40485118324105
 31
0.0
  0
MTEXT
  5
43F
330
18B
100
AcDbEntity
  8
ADPDIM
 62
     0
100
AcDbMText
 10
23.62411803518591
 20
-12.52985118324105
 30
0.0
 40
0.125
 41
0.0
 71
     5
 72
     1
  1
\A1;1 5/8
  0
POINT
  5
440
330
18B
100
AcDbEntity
  8
DEFPOINTS
 62
     0
100
AcDbPoint
 10
22.81161803518591
 20
-12.65485118324106
 30
0.0
  0
POINT
  5
441
330
18B
100
AcDbEntity
  8
DEFPOINTS
 62
     0
100
AcDbPoint
 10
24.43661803518591
 20
-12.65485118324106
 30
0.0
  0
POINT
  5
442
330
18B
100
AcDbEntity
  8
DEFPOINTS
 62
     0
100
AcDbPoint
 10
24.43661803518591
 20
-12.52985118324105
 30
0.0
  0
ENDBLK
  5
197
330
18B
100
AcDbEntity
  8
0
100
AcDbBlockEnd
  0
BLOCK
  5
1A3
330
198
100
AcDbEntity
  8
0
100
AcDbBlockBegin
  2
*D3
 70
     1
 10
0.0
 20
0.0
 30
0.0
  3
*D3
  1

  0
LINE
  5
443
330
198
100
AcDbEntity
  8
ADPDIM
 62
     0
100
AcDbLine
 10
19.85994102447447
 20
-14.33332103939073
 30
0.0
 11
19.85994102447447
 21
-14.69074454986162
 31
0.0
  0
LINE
  5
444
330
198
100
AcDbEntity
  8
ADPDIM
 62
     0
100
AcDbLine
 10
20.60994102447447
 20
-14.33332103939073
 30
0.0
 11
20.60994102447447
 21
-14.69074454986162
 31
0.0
  0
LINE
  5
445
330
198
100
AcDbEntity
  8
ADPDIM
 62
     0
100
AcDbLine
 10
19.85994102447447
 20
-14.51074454986162
 30
0.0
 11
19.60994102447447
 21
-14.51074454986162
 31
0.0
  0
LINE
  5
446
330
198
100
AcDbEntity
  8
ADPDIM
 62
     0
100
AcDbLine
 10
20.60994102447447
 20
-14.51074454986162
 30
0.0
 11
20.85994102447447
 21
-14.51074454986162
 31
0.0
  0
LINE
  5
447
330
198
100
AcDbEntity
  8
ADPDIM
 62
     0
100
AcDbLine
 10
20.48494102447447
 20
-14.63574454986162
 30
0.0
 11
20.73494102447447
 21
-14.38574454986162
 31
0.0
  0
LINE
  5
448
330
198
100
AcDbEntity
  8
ADPDIM
 62
     0
100
AcDbLine
 10
19.73494102447447
 20
-14.63574454986162
 30
0.0
 11
19.98494102447447
 21
-14.38574454986162
 31
0.0
  0
MTEXT
  5
449
330
198
100
AcDbEntity
  8
ADPDIM
 62
     0
100
AcDbMText
 10
20.23494102447447
 20
-14.51074454986162
 30
0.0
 40
0.125
 41
0.0
 71
     5
 72
     1
  1
\A1;3/4
  0
POINT
  5
44A
330
198
100
AcDbEntity
  8
DEFPOINTS
 62
     0
100
AcDbPoint
 10
19.85994102447447
 20
-14.27082103939073
 30
0.0
  0
POINT
  5
44B
330
198
100
AcDbEntity
  8
DEFPOINTS
 62
     0
100
AcDbPoint
 10
20.60994102447447
 20
-14.27082103939073
 30
0.0
  0
POINT
  5
44C
330
198
100
AcDbEntity
  8
DEFPOINTS
 62
     0
100
AcDbPoint
 10
20.60994102447447
 20
-14.51074454986162
 30
0.0
  0
ENDBLK
  5
1A4
330
198
100
AcDbEntity
  8
0
100
AcDbBlockEnd
  0
BLOCK
  5
1B0
330
1A5
100
AcDbEntity
  8
0
100
AcDbBlockBegin
  2
*D4
 70
     1
 10
0.0
 20
0.0
 30
0.0
  3
*D4
  1

  0
LINE
  5
44D
330
1A5
100
AcDbEntity
  8
ADPDIM
 62
     0
100
AcDbLine
 10
22.34311803518591
 20
-12.77985118324105
 30
0.0
 11
21.85061803518591
 21
-12.77985118324105
 31
0.0
  0
LINE
  5
44E
330
1A5
100
AcDbEntity
  8
ADPDIM
 62
     0
100
AcDbLine
 10
23.53358744937823
 20
-13.84235118324105
 30
0.0
 11
21.85061803518591
 21
-13.84235118324105
 31
0.0
  0
LINE
  5
44F
330
1A5
100
AcDbEntity
  8
ADPDIM
 62
     0
100
AcDbLine
 10
22.03061803518591
 20
-12.77985118324105
 30
0.0
 11
22.03061803518591
 21
-12.52985118324105
 31
0.0
  0
LINE
  5
450
330
1A5
100
AcDbEntity
  8
ADPDIM
 62
     0
100
AcDbLine
 10
22.03061803518591
 20
-13.84235118324105
 30
0.0
 11
22.03061803518591
 21
-14.09235118324105
 31
0.0
  0
LINE
  5
451
330
1A5
100
AcDbEntity
  8
ADPDIM
 62
     0
100
AcDbLine
 10
22.15561803518591
 20
-13.96735118324105
 30
0.0
 11
21.90561803518591
 21
-13.71735118324105
 31
0.0
  0
LINE
  5
452
330
1A5
100
AcDbEntity
  8
ADPDIM
 62
     0
100
AcDbLine
 10
22.15561803518591
 20
-12.90485118324105
 30
0.0
 11
21.90561803518591
 21
-12.65485118324106
 31
0.0
  0
MTEXT
  5
453
330
1A5
100
AcDbEntity
  8
ADPDIM
 62
     0
100
AcDbMText
 10
22.03061803518591
 20
-13.31110118324105
 30
0.0
 40
0.125
 41
0.0
 71
     5
 72
     1
  1
\A1;1 1/16
 11
0.0000000000000001
 21
1.0
 31
0.0
  0
POINT
  5
454
330
1A5
100
AcDbEntity
  8
DEFPOINTS
 62
     0
100
AcDbPoint
 10
22.40561803518591
 20
-12.77985118324105
 30
0.0
  0
POINT
  5
455
330
1A5
100
AcDbEntity
  8
DEFPOINTS
 62
     0
100
AcDbPoint
 10
23.59608744937824
 20
-13.84235118324105
 30
0.0
  0
POINT
  5
456
330
1A5
100
AcDbEntity
  8
DEFPOINTS
 62
     0
100
AcDbPoint
 10
22.03061803518591
 20
-13.84235118324105
 30
0.0
  0
ENDBLK
  5
1B1
330
1A5
100
AcDbEntity
  8
0
100
AcDbBlockEnd
  0
BLOCK
  5
1BD
330
1B2
100
AcDbEntity
  8
0
100
AcDbBlockBegin
  2
*D5
 70
     1
 10
0.0
 20
0.0
 30
0.0
  3
*D5
  1

  0
LINE
  5
457
330
1B2
100
AcDbEntity
  8
ADPDIM
 62
     0
100
AcDbLine
 10
17.98494102447447
 20
-13.36132422677914
 30
0.0
 11
17.98494102447447
 21
-12.26824454986162
 31
0.0
  0
LINE
  5
458
330
1B2
100
AcDbEntity
  8
ADPDIM
 62
     0
100
AcDbLine
 10
20.23494102447447
 20
-12.69824454986162
 30
0.0
 11
20.23494102447447
 21
-12.26824454986162
 31
0.0
  0
LINE
  5
459
330
1B2
100
AcDbEntity
  8
ADPDIM
 62
     0
100
AcDbLine
 10
17.98494102447447
 20
-12.44824454986162
 30
0.0
 11
18.71410769114114
 21
-12.44824454986162
 31
0.0
  0
LINE
  5
45A
330
1B2
100
AcDbEntity
  8
ADPDIM
 62
     0
100
AcDbLine
 10
20.23494102447447
 20
-12.44824454986162
 30
0.0
 11
19.50577435780781
 21
-12.44824454986162
 31
0.0
  0
LINE
  5
45B
330
1B2
100
AcDbEntity
  8
ADPDIM
 62
     0
100
AcDbLine
 10
20.10994102447447
 20
-12.57324454986162
 30
0.0
 11
20.35994102447447
 21
-12.32324454986162
 31
0.0
  0
LINE
  5
45C
330
1B2
100
AcDbEntity
  8
ADPDIM
 62
     0
100
AcDbLine
 10
17.85994102447447
 20
-12.57324454986162
 30
0.0
 11
18.10994102447447
 21
-12.32324454986162
 31
0.0
  0
MTEXT
  5
45D
330
1B2
100
AcDbEntity
  8
ADPDIM
 62
     0
100
AcDbMText
 10
19.10994102447447
 20
-12.44824454986162
 30
0.0
 40
0.125
 41
0.0
 71
     5
 72
     1
  1
\A1;2 1/4
  0
POINT
  5
45E
330
1B2
100
AcDbEntity
  8
DEFPOINTS
 62
     0
100
AcDbPoint
 10
17.98494102447447
 20
-13.42382422677914
 30
0.0
  0
POINT
  5
45F
330
1B2
100
AcDbEntity
  8
DEFPOINTS
 62
     0
100
AcDbPoint
 10
20.23494102447447
 20
-12.76074454986162
 30
0.0
  0
POINT
  5
460
330
1B2
100
AcDbEntity
  8
DEFPOINTS
 62
     0
100
AcDbPoint
 10
20.23494102447447
 20
-12.44824454986162
 30
0.0
  0
ENDBLK
  5
1BE
330
1B2
100
AcDbEntity
  8
0
100
AcDbBlockEnd
  0
ENDSEC
  0
SECTION
  2
ENTITIES
  0
LINE
  5
1D
330
2
100
AcDbEntity
  8
ADP2DETAIL
  6
HIDDEN2
100
AcDbLine
 10
24.55688802651984
 20
-12.89282422677914
 30
0.0
 11
24.61888802651984
 21
-12.95482422677915
 31
0.0
  0
LINE
  5
20
330
2
100
AcDbEntity
  8
ADP1DETAIL
100
AcDbLine
 10
24.03061803518591
 20
-13.09285118324105
 30
0.0
 11
24.03061803518591
 21
-13.84235118324105
 31
0.0
  0
ARC
  5
22
330
2
100
AcDbEntity
  8
ADP1DETAIL
100
AcDbCircle
 10
24.15561803518591
 20
-13.09285118324105
 30
0.0
 40
0.125
100
AcDbArc
 50
90.0
 51
180.0
  0
LINE
  5
23
330
2
100
AcDbEntity
  8
ADP2DETAIL
  6
HIDDEN2
100
AcDbLine
 10
24.36888802651983
 20
-12.89282422677914
 30
0.0
 11
24.30688802651983
 21
-12.95482422677915
 31
0.0
  0
LINE
  5
24
330
2
100
AcDbEntity
  8
ADP1DETAIL
100
AcDbLine
 10
24.90561803518591
 20
-12.96785118324105
 30
0.0
 11
24.15561803518591
 21
-12.96785118324105
 31
0.0
  0
LINE
  5
25
330
2
100
AcDbEntity
  8
ADP2DETAIL
  6
HIDDEN2
100
AcDbLine
 10
24.36888802651983
 20
-12.76782422677914
 30
0.0
 11
24.36888802651983
 21
-12.89282422677914
 31
0.0
  0
LINE
  5
26
330
2
100
AcDbEntity
  8
ADP1DETAIL
100
AcDbLine
 10
24.90561803518591
 20
-12.77985118324105
 30
0.0
 11
24.90561803518591
 21
-12.96785118324105
 31
0.0
  0
LINE
  5
27
330
2
100
AcDbEntity
  8
ADP2DETAIL
  6
HIDDEN2
100
AcDbLine
 10
24.55688802651984
 20
-12.76782422677914
 30
0.0
 11
24.55688802651984
 21
-12.89282422677914
 31
0.0
  0
LINE
  5
28
330
2
100
AcDbEntity
  8
ADP1DETAIL
100
AcDbLine
 10
23.46697276803165
 20
-12.76086931237724
 30
0.0
 11
23.84197276803165
 21
-12.76086931237724
 31
0.0
  0
LINE
  5
29
330
2
100
AcDbEntity
  8
ADP1DETAIL
100
AcDbLine
 10
23.28061803518591
 20
-13.84235118324105
 30
0.0
 11
23.28061803518591
 21
-13.09285118324105
 31
0.0
  0
ARC
  5
2A
330
2
100
AcDbEntity
  8
ADP1DETAIL
100
AcDbCircle
 10
23.15561803518591
 20
-13.09285118324105
 30
0.0
 40
0.125
100
AcDbArc
 50
0.0
 51
90.0
  0
LINE
  5
2B
330
2
100
AcDbEntity
  8
ADP2DETAIL
  6
HIDDEN2
100
AcDbLine
 10
22.93188802651984
 20
-12.89282422677914
 30
0.0
 11
22.99388802651983
 21
-12.95482422677915
 31
0.0
  0
LINE
  5
2C
330
2
100
AcDbEntity
  8
ADP2DETAIL
  6
HIDDEN2
100
AcDbLine
 10
22.93188802651984
 20
-12.76782422677914
 30
0.0
 11
22.93188802651984
 21
-12.89282422677914
 31
0.0
  0
LINE
  5
2D
330
2
100
AcDbEntity
  8
ADP2DETAIL
  6
HIDDEN2
100
AcDbLine
 10
22.74388802651983
 20
-12.76782422677914
 30
0.0
 11
22.74388802651983
 21
-12.89282422677914
 31
0.0
  0
LINE
  5
2E
330
2
100
AcDbEntity
  8
ADP1DETAIL
100
AcDbLine
 10
23.46811803518591
 20
-13.59589434276494
 30
0.0
 11
23.46811803518591
 21
-12.76086931237724
 31
0.0
  0
LINE
  5
2F
330
2
100
AcDbEntity
  8
ADP1DETAIL
100
AcDbLine
 10
23.84311803518591
 20
-12.76086931237724
 30
0.0
 11
23.84311803518591
 21
-13.59514434042118
 31
0.0
  0
LINE
  5
30
330
2
100
AcDbEntity
  8
ADP1DETAIL
100
AcDbLine
 10
22.40561803518591
 20
-12.96785118324105
 30
0.0
 11
22.40561803518591
 21
-12.77985118324105
 31
0.0
  0
LINE
  5
31
330
2
100
AcDbEntity
  8
ADP1DETAIL
100
AcDbLine
 10
23.15561803518591
 20
-12.96785118324105
 30
0.0
 11
22.40561803518591
 21
-12.96785118324105
 31
0.0
  0
LINE
  5
32
330
2
100
AcDbEntity
  8
ADP1DETAIL
100
AcDbLine
 10
22.40561803518591
 20
-12.77985118324105
 30
0.0
 11
23.46574447871769
 21
-12.77985118324105
 31
0.0
  0
LINE
  5
33
330
2
100
AcDbEntity
  8
ADP2DETAIL
  6
HIDDEN2
100
AcDbLine
 10
22.74388802651983
 20
-12.89282422677914
 30
0.0
 11
22.68188802651983
 21
-12.95482422677915
 31
0.0
  0
LINE
  5
34
330
2
100
AcDbEntity
  8
ADP1DETAIL
100
AcDbLine
 10
20.73494102447447
 20
-13.58303870758199
 30
0.0
 11
20.73494102447447
 21
-13.86132422677914
 31
0.0
  0
ARC
  5
35
330
2
100
AcDbEntity
  8
ADP2DETAIL
  6
HIDDEN2
100
AcDbCircle
 10
21.43140148265223
 20
-13.86132422677914
 30
0.0
 40
0.75
100
AcDbArc
 50
158.2197748746747
 51
180.0
  0
LINE
  5
36
330
2
100
AcDbEntity
  8
ADP1DETAIL
100
AcDbLine
 10
20.7306817527606
 20
-13.58117660741696
 30
0.0
 11
20.7306817527606
 21
-13.58117660741696
 31
0.0
  0
LINE
  5
37
330
2
100
AcDbEntity
  8
ADP1DETAIL
100
AcDbLine
 10
20.60994102447447
 20
-13.67382422677914
 30
0.0
 11
20.60994102447447
 21
-13.54882422677914
 31
0.0
  0
LINE
  5
38
330
2
100
AcDbEntity
  8
ADP1DETAIL
100
AcDbLine
 10
20.60994102447447
 20
-13.54882422677914
 30
0.0
 11
20.7306817527606
 21
-13.58117660741696
 31
0.0
  0
LINE
  5
39
330
2
100
AcDbEntity
  8
ADP2DETAIL
  6
HIDDEN2
100
AcDbLine
 10
20.32894102447448
 20
-12.89582103939074
 30
0.0
 11
20.39094102447447
 21
-12.95782103939074
 31
0.0
  0
LINE
  5
3A
330
2
100
AcDbEntity
  8
ADP2DETAIL
  6
HIDDEN2
100
AcDbLine
 10
20.14094102447447
 20
-12.89582103939074
 30
0.0
 11
20.07894102447447
 21
-12.95782103939074
 31
0.0
  0
LINE
  5
3B
330
2
100
AcDbEntity
  8
ADP1DETAIL
100
AcDbLine
 10
19.35994102447447
 20
-13.61132422677914
 30
0.0
 11
19.85994102447447
 21
-13.54882422677914
 31
0.0
  0
LINE
  5
3C
330
2
100
AcDbEntity
  8
ADP2DETAIL
  6
HIDDEN2
100
AcDbLine
 10
20.32894102447448
 20
-12.77082103939074
 30
0.0
 11
20.32894102447448
 21
-12.89582103939074
 31
0.0
  0
LINE
  5
3D
330
2
100
AcDbEntity
  8
ADP2DETAIL
  6
HIDDEN2
100
AcDbLine
 10
20.14094102447447
 20
-12.77082103939074
 30
0.0
 11
20.14094102447447
 21
-12.89582103939074
 31
0.0
  0
LINE
  5
3E
330
2
100
AcDbEntity
  8
ADP1DETAIL
100
AcDbLine
 10
19.85994102447447
 20
-12.95782103939074
 30
0.0
 11
20.60994102447447
 21
-12.95782103939074
 31
0.0
  0
LINE
  5
3F
330
2
100
AcDbEntity
  8
ADP1DETAIL
100
AcDbLine
 10
19.85994102447447
 20
-12.77082103939074
 30
0.0
 11
20.60994102447447
 21
-12.77082103939074
 31
0.0
  0
LINE
  5
40
330
2
100
AcDbEntity
  8
ADP1DETAIL
100
AcDbLine
 10
24.90561803518591
 20
-12.77985118324105
 30
0.0
 11
23.8427046338588
 21
-12.77876449283593
 31
0.0
  0
DIMENSION
  5
41
330
2
100
AcDbEntity
  8
ADPDIM
100
AcDbDimension
  2
*D1
 10
24.90561803518591
 20
-12.15485118324105
 30
0.0
 11
23.65561803518591
 21
-12.15485118324105
 31
0.0
 70
    32
  3
STANDARD
100
AcDbAlignedDimension
 13
22.40561803518591
 23
-12.77985118324105
 33
0.0
 14
24.90561803518591
 24
-12.77985118324105
 34
0.0
100
AcDbRotatedDimension
1001
ACAD
1000
DSTYLE
1002
{
1070
   270
1070
     7
1070
   270
1070
     7
1070
   270
1070
     7
1070
   270
1070
     7
1070
   270
1070
     7
1070
   270
1070
     7
1070
    41
1040
0.125
1070
    73
1070
     0
1070
    74
1070
     0
1070
    78
1070
     2
1070
   140
1040
0.125
1070
   141
1040
0.1875
1070
   142
1040
0.125
1070
   147
1040
0.125
1070
   171
1070
     1
1070
   276
1070
     2
1070
   277
1070
     5
1002
}
  0
DIMENSION
  5
51
330
2
100
AcDbEntity
  8
ADPDIM
100
AcDbDimension
  2
*D2
 10
24.43661803518591
 20
-12.52985118324105
 30
0.0
 11
23.62411803518591
 21
-12.52985118324105
 31
0.0
 70
    32
  3
STANDARD
100
AcDbAlignedDimension
 13
22.81161803518591
 23
-12.65485118324106
 33
0.0
 14
24.43661803518591
 24
-12.65485118324106
 34
0.0
100
AcDbRotatedDimension
1001
ACAD
1000
DSTYLE
1002
{
1070
   270
1070
     7
1070
   270
1070
     7
1070
   270
1070
     7
1070
   270
1070
     7
1070
   270
1070
     7
1070
   270
1070
     7
1070
    41
1040
0.125
1070
    73
1070
     0
1070
    74
1070
     0
1070
    78
1070
     2
1070
   140
1040
0.125
1070
   141
1040
0.1875
1070
   142
1040
0.125
1070
   147
1040
0.125
1070
   171
1070
     1
1070
   276
1070
     2
1070
   277
1070
     5
1002
}
  0
LINE
  5
5F
330
2
100
AcDbEntity
  8
ADP1DETAIL
100
AcDbLine
 10
20.7306817527606
 20
-14.14147184614133
 30
0.0
 11
20.7306817527606
 21
-14.14147184614133
 31
0.0
  0
LINE
  5
60
330
2
100
AcDbEntity
  8
ADP1DETAIL
100
AcDbLine
 10
20.60994102447447
 20
-14.04882422677914
 30
0.0
 11
20.60994102447447
 21
-14.17382422677914
 31
0.0
  0
LINE
  5
61
330
2
100
AcDbEntity
  8
ADP1DETAIL
100
AcDbLine
 10
20.60994102447447
 20
-14.17382422677914
 30
0.0
 11
20.7306817527606
 21
-14.14147184614133
 31
0.0
  0
LINE
  5
62
330
2
100
AcDbEntity
  8
ADP1DETAIL
100
AcDbLine
 10
19.85994102447447
 20
-14.17382422677914
 30
0.0
 11
19.35994102447447
 21
-14.11132422677914
 31
0.0
  0
LINE
  5
63
330
2
100
AcDbEntity
  8
ADP1DETAIL
100
AcDbLine
 10
19.85994102447447
 20
-14.27082103939073
 30
0.0
 11
20.60994102447447
 21
-14.27082103939073
 31
0.0
  0
DIMENSION
  5
64
330
2
100
AcDbEntity
  8
ADPDIM
100
AcDbDimension
  2
*D3
 10
20.60994102447447
 20
-14.51074454986162
 30
0.0
 11
20.23494102447447
 21
-14.51074454986162
 31
0.0
 70
    32
  3
STANDARD
100
AcDbAlignedDimension
 13
19.85994102447447
 23
-14.27082103939073
 33
0.0
 14
20.60994102447447
 24
-14.27082103939073
 34
0.0
100
AcDbRotatedDimension
1001
ACAD
1000
DSTYLE
1002
{
1070
   270
1070
     7
1070
   270
1070
     7
1070
   270
1070
     7
1070
   270
1070
     7
1070
   270
1070
     7
1070
   270
1070
     7
1070
    41
1040
0.125
1070
    73
1070
     0
1070
    74
1070
     0
1070
    78
1070
     2
1070
   140
1040
0.125
1070
   141
1040
0.1875
1070
   142
1040
0.125
1070
   147
1040
0.125
1070
   171
1070
     1
1070
   276
1070
     2
1070
   277
1070
     5
1002
}
  0
LINE
  5
72
330
2
100
AcDbEntity
  8
ADP1DETAIL
100
AcDbLine
 10
20.60994102447447
 20
-13.67382422677914
 30
0.0
 11
20.60994102447447
 21
-14.04882422677914
 31
0.0
  0
LINE
  5
73
330
2
100
AcDbEntity
  8
ADP1DETAIL
100
AcDbLine
 10
20.60994102447447
 20
-14.27082103939073
 30
0.0
 11
20.60994102447447
 21
-12.77082103939074
 31
0.0
  0
LINE
  5
74
330
2
100
AcDbEntity
  8
ADP1DETAIL
100
AcDbLine
 10
19.85994102447447
 20
-14.04882422677914
 30
0.0
 11
19.85994102447447
 21
-13.67382422677914
 31
0.0
  0
LINE
  5
75
330
2
100
AcDbEntity
  8
ADP1DETAIL
100
AcDbLine
 10
19.85994102447447
 20
-13.54882422677914
 30
0.0
 11
19.85994102447447
 21
-14.17382422677914
 31
0.0
  0
LINE
  5
76
330
2
100
AcDbEntity
  8
ADP1DETAIL
100
AcDbLine
 10
19.35590325733621
 20
-14.11049141021768
 30
0.0
 11
19.35590325733621
 21
-13.61215704334061
 31
0.0
  0
LINE
  5
77
330
2
100
AcDbEntity
  8
ADP1DETAIL
100
AcDbLine
 10
19.85994102447447
 20
-12.77082103939074
 30
0.0
 11
19.85994102447447
 21
-14.27082103939073
 31
0.0
  0
CIRCLE
  5
78
330
2
100
AcDbEntity
  8
ADP1DETAIL
100
AcDbCircle
 10
23.65611803518591
 20
-13.84551856034008
 30
0.0
 40
0.3125
  0
CIRCLE
  5
79
330
2
100
AcDbEntity
  8
ADP1DETAIL
100
AcDbCircle
 10
23.65611803518591
 20
-13.84551856034008
 30
0.0
 40
0.2859512779740925
  0
DIMENSION
  5
7A
330
2
100
AcDbEntity
  8
ADPDIM
100
AcDbDimension
  2
*D4
 10
22.03061803518591
 20
-13.84235118324105
 30
0.0
 11
22.03061803518591
 21
-13.31110118324105
 31
0.0
 70
    32
  3
STANDARD
100
AcDbAlignedDimension
 13
22.40561803518591
 23
-12.77985118324105
 33
0.0
 14
23.59608744937824
 24
-13.84235118324105
 34
0.0
 50
90.0
100
AcDbRotatedDimension
1001
ACAD
1000
DSTYLE
1002
{
1070
   270
1070
     7
1070
   270
1070
     7
1070
   270
1070
     7
1070
   270
1070
     7
1070
   270
1070
     7
1070
   270
1070
     7
1070
    41
1040
0.125
1070
    73
1070
     0
1070
    74
1070
     0
1070
    78
1070
     2
1070
   140
1040
0.125
1070
   141
1040
0.1875
1070
   142
1040
0.125
1070
   147
1040
0.125
1070
   171
1070
     1
1070
   276
1070
     2
1070
   277
1070
     5
1002
}
  0
ARC
  5
88
330
2
100
AcDbEntity
  8
ADP1DETAIL
100
AcDbCircle
 10
23.65611803518591
 20
-13.84235118324105
 30
0.0
 40
0.3745
100
AcDbArc
 50
270.0
 51
0.0
  0
ARC
  5
89
330
2
100
AcDbEntity
  8
ADP2DETAIL
  6
HIDDEN2
100
AcDbCircle
 10
21.43140148265223
 20
-13.86132422677914
 30
0.0
 40
0.75
100
AcDbArc
 50
180.0
 51
201.7802251253252
  0
LINE
  5
8A
330
2
100
AcDbEntity
  8
ADP1DETAIL
100
AcDbLine
 10
20.73494102447447
 20
-14.1396097459763
 30
0.0
 11
20.73494102447447
 21
-13.86132422677914
 31
0.0
  0
ARC
  5
8B
330
2
100
AcDbEntity
  8
ADP1DETAIL
100
AcDbCircle
 10
23.65511803518591
 20
-13.84235118324105
 30
0.0
 40
0.3745
100
AcDbArc
 50
180.0
 51
270.0
  0
LINE
  5
8C
330
2
100
AcDbEntity
  8
ADP1DETAIL
100
AcDbLine
 10
18.10984143052111
 20
-13.45782668399157
 30
0.0
 11
18.10994102447447
 21
-13.86132422677914
 31
0.0
  0
LINE
  5
8D
330
2
100
AcDbEntity
  8
ADP1DETAIL
100
AcDbLine
 10
17.98494102447447
 20
-13.86132422677914
 30
0.0
 11
17.98494102447447
 21
-13.42382422677914
 31
0.0
  0
LINE
  5
8E
330
2
100
AcDbEntity
  8
ADP1DETAIL
100
AcDbLine
 10
17.98494102447447
 20
-13.42382422677914
 30
0.0
 11
18.10984143052111
 21
-13.45782668399157
 31
0.0
  0
LINE
  5
8F
330
2
100
AcDbEntity
  8
ADP1DETAIL
100
AcDbLine
 10
17.98494102447447
 20
-14.29882422677914
 30
0.0
 11
18.10984143052111
 21
-14.26482176956672
 31
0.0
  0
INSERT
  5
90
330
2
100
AcDbEntity
  8
ADP1DETAIL
100
AcDbBlockReference
  2
STUD
 10
17.97912536801903
 20
-14.10790811673635
 30
0.0
  0
LINE
  5
C7
330
2
100
AcDbEntity
  8
ADP1DETAIL
100
AcDbLine
 10
17.98494102447447
 20
-13.86132422677914
 30
0.0
 11
17.98494102447447
 21
-14.29882422677914
 31
0.0
  0
LINE
  5
C8
330
2
100
AcDbEntity
  8
ADP1DETAIL
100
AcDbLine
 10
18.10984143052111
 20
-14.26482176956672
 30
0.0
 11
18.10994102447447
 21
-13.86132422677914
 31
0.0
  0
LINE
  5
C9
330
2
100
AcDbEntity
  8
ADP1DETAIL
100
AcDbLine
 10
18.10994102447447
 20
-13.48632422677914
 30
0.0
 11
19.35994102447447
 21
-13.61132422677914
 31
0.0
  0
LINE
  5
CA
330
2
100
AcDbEntity
  8
ADP1DETAIL
100
AcDbLine
 10
19.35994102447447
 20
-14.11132422677914
 30
0.0
 11
18.10994102447447
 21
-14.23632422677914
 31
0.0
  0
DIMENSION
  5
CB
330
2
100
AcDbEntity
  8
ADPDIM
100
AcDbDimension
  2
*D5
 10
20.23494102447447
 20
-12.44824454986162
 30
0.0
 11
19.10994102447447
 21
-12.44824454986162
 31
0.0
 70
    32
  3
STANDARD
100
AcDbAlignedDimension
 13
17.98494102447447
 23
-13.42382422677914
 33
0.0
 14
20.23494102447447
 24
-12.76074454986162
 34
0.0
100
AcDbRotatedDimension
1001
ACAD
1000
DSTYLE
1002
{
1070
   270
1070
     7
1070
   270
1070
     7
1070
   270
1070
     7
1070
   270
1070
     7
1070
   270
1070
     7
1070
   270
1070
     7
1070
    41
1040
0.125
1070
    73
1070
     0
1070
    74
1070
     0
1070
    78
1070
     2
1070
   140
1040
0.125
1070
   141
1040
0.1875
1070
   142
1040
0.125
1070
   147
1040
0.125
1070
   171
1070
     1
1070
   276
1070
     2
1070
   277
1070
     5
1002
}
  0
TEXT
  5
E3
330
2
100
AcDbEntity
  8
ADPDIM
100
AcDbText
 10
14.84224767422614
 20
-15.29497314819853
 30
0.0
 40
0.125
  1
J U L I U S  B L U M  &  C O . ,  I N C .      ( 8 0 0 )  5 2 6 - 6 2 9 3        W W W . J U L I U S B L U M . C O M        P A R T  N o .  1 3 4 1
 41
1.25
  7
ARIAL_WIDE
 72
     1
 11
21.36797669878276
 21
-15.16997314819853
 31
0.0
100
AcDbText
 73
     3
  0
ENDSEC
  0
SECTION
  2
OBJECTS
  0
DICTIONARY
  5
1A
330
0
100
AcDbDictionary
  3
ACAD_GROUP
350
18
  3
ACAD_LAYOUT
350
DC
  3
ACAD_MLINESTYLE
350
19
  3
ACAD_PLOTSETTINGS
350
DD
  3
ACAD_PLOTSTYLENAME
350
DA
  3
ACDBHEADERROUNDTRIPXREC
350
40C
  3
ACDBVARIABLEDICTIONARY
350
1C1
  0
DICTIONARY
  5
178
330
2
100
AcDbDictionary
280
     1
  3
ACAD_LAYOUTSELFREF
360
42D
  0
DICTIONARY
  5
17A
330
8
100
AcDbDictionary
280
     1
  3
ACAD_LAYOUTSELFREF
360
42E
  0
DICTIONARY
  5
18
102
{ACAD_REACTORS
330
1A
102
}
330
1A
100
AcDbDictionary
  0
DICTIONARY
  5
DC
102
{ACAD_REACTORS
330
1A
102
}
330
1A
100
AcDbDictionary
  0
DICTIONARY
  5
19
102
{ACAD_REACTORS
330
1A
102
}
330
1A
100
AcDbDictionary
  3
STANDARD
350
1B
  0
DICTIONARY
  5
DD
102
{ACAD_REACTORS
330
1A
102
}
330
1A
100
AcDbDictionary
  0
ACDBDICTIONARYWDFLT
  5
DA
102
{ACAD_REACTORS
330
1A
102
}
330
1A
100
AcDbDictionary
281
     1
  3
Normal
350
DB
100
AcDbDictionaryWithDefault
340
DB
  0
DICTIONARY
  5
40C
102
{ACAD_REACTORS
330
1A
102
}
330
1A
100
AcDbDictionary
  3
CEPSNTYPE
350
416
  3
DIMSTYLEDATA
350
41A
  3
FINGERPRINTGUID
350
417
  3
HYPERLINKBASE
350
40F
  3
INSUNITS
350
415
  3
LAYOUTDICT
350
411
  3
LWETCUNION
350
414
  3
PLOTSETDICT
350
412
  3
PLOTSTYLNAMDICT
350
413
  3
PSVPSCALE
350
419
  3
PUCSBASE
350
41D
  3
PUCSORGBACK
350
423
  3
PUCSORGBOTTOM
350
41F
  3
PUCSORGFRONT
350
422
  3
PUCSORGLEFT
350
420
  3
PUCSORGRIGHT
350
421
  3
PUCSORGTOP
350
41E
  3
PUCSORTHOREF
350
41B
  3
PUCSORTHOVIEW
350
41C
  3
STYLESHEET
350
410
  3
TSTACKALIGN
350
40D
  3
TSTACKSIZE
350
40E
  3
UCSBASE
350
426
  3
UCSORGBACK
350
42C
  3
UCSORGBOTTOM
350
428
  3
UCSORGFRONT
350
42B
  3
UCSORGLEFT
350
429
  3
UCSORGRIGHT
350
42A
  3
UCSORGTOP
350
427
  3
UCSORTHOREF
350
424
  3
UCSORTHOVIEW
350
425
  3
VERSIONGUID
350
418
  0
DICTIONARY
  5
1C1
102
{ACAD_REACTORS
330
1A
102
}
330
1A
100
AcDbDictionary
  3
DIMASSOC
350
1C2
  0
XRECORD
  5
42D
102
{ACAD_REACTORS
330
178
102
}
330
178
100
AcDbXrecord
340
2
  0
XRECORD
  5
42E
102
{ACAD_REACTORS
330
17A
102
}
330
17A
100
AcDbXrecord
340
8
  0
MLINESTYLE
  5
1B
102
{ACAD_REACTORS
330
19
102
}
330
19
100
AcDbMlineStyle
  2
STANDARD
 70
     0
  3

 62
     0
 51
90.0
 52
90.0
 71
     2
 49
0.5
 62
   256
  6
BYLAYER
 49
-0.5
 62
   256
  6
BYLAYER
  0
ACDBPLACEHOLDER
  5
DB
102
{ACAD_REACTORS
330
DA
102
}
330
DA
100
AcDbPlaceHolder
280
     0
  0
XRECORD
  5
416
102
{ACAD_REACTORS
330
40C
102
}
330
40C
100
AcDbXrecord
 90
        0
  0
XRECORD
  5
41A
102
{ACAD_REACTORS
330
40C
102
}
330
40C
100
AcDbXrecord
1000
DSTYLE
1002
{
1070
   276
 70
     2
1070
   277
 70
     5
1002
}
  0
XRECORD
  5
417
102
{ACAD_REACTORS
330
40C
102
}
330
40C
100
AcDbXrecord
  1
{DBF7A42A-B364-46B7-B512-86A494EEA668}
  0
XRECORD
  5
40F
102
{ACAD_REACTORS
330
40C
102
}
330
40C
100
AcDbXrecord
  1

  0
XRECORD
  5
415
102
{ACAD_REACTORS
330
40C
102
}
330
40C
100
AcDbXrecord
 90
        0
  0
XRECORD
  5
411
102
{ACAD_REACTORS
330
40C
102
}
330
40C
100
AcDbXrecord
340
DC
  0
XRECORD
  5
414
102
{ACAD_REACTORS
330
40C
102
}
330
40C
100
AcDbXrecord
 90
    14877
  0
XRECORD
  5
412
102
{ACAD_REACTORS
330
40C
102
}
330
40C
100
AcDbXrecord
340
DD
  0
XRECORD
  5
413
102
{ACAD_REACTORS
330
40C
102
}
330
40C
100
AcDbXrecord
340
DA
  0
XRECORD
  5
419
102
{ACAD_REACTORS
330
40C
102
}
330
40C
100
AcDbXrecord
 40
0.0
  0
XRECORD
  5
41D
102
{ACAD_REACTORS
330
40C
102
}
330
40C
100
AcDbXrecord
340
0
  0
XRECORD
  5
423
102
{ACAD_REACTORS
330
40C
102
}
330
40C
100
AcDbXrecord
 10
0.0
 20
0.0
 30
0.0
  0
XRECORD
  5
41F
102
{ACAD_REACTORS
330
40C
102
}
330
40C
100
AcDbXrecord
 10
0.0
 20
0.0
 30
0.0
  0
XRECORD
  5
422
102
{ACAD_REACTORS
330
40C
102
}
330
40C
100
AcDbXrecord
 10
0.0
 20
0.0
 30
0.0
  0
XRECORD
  5
420
102
{ACAD_REACTORS
330
40C
102
}
330
40C
100
AcDbXrecord
 10
0.0
 20
0.0
 30
0.0
  0
XRECORD
  5
421
102
{ACAD_REACTORS
330
40C
102
}
330
40C
100
AcDbXrecord
 10
0.0
 20
0.0
 30
0.0
  0
XRECORD
  5
41E
102
{ACAD_REACTORS
330
40C
102
}
330
40C
100
AcDbXrecord
 10
0.0
 20
0.0
 30
0.0
  0
XRECORD
  5
41B
102
{ACAD_REACTORS
330
40C
102
}
330
40C
100
AcDbXrecord
340
0
  0
XRECORD
  5
41C
102
{ACAD_REACTORS
330
40C
102
}
330
40C
100
AcDbXrecord
 70
     0
  0
XRECORD
  5
410
102
{ACAD_REACTORS
330
40C
102
}
330
40C
100
AcDbXrecord
  1

  0
XRECORD
  5
40D
102
{ACAD_REACTORS
330
40C
102
}
330
40C
100
AcDbXrecord
 90
        1
  0
XRECORD
  5
40E
102
{ACAD_REACTORS
330
40C
102
}
330
40C
100
AcDbXrecord
 90
       70
  0
XRECORD
  5
426
102
{ACAD_REACTORS
330
40C
102
}
330
40C
100
AcDbXrecord
340
0
  0
XRECORD
  5
42C
102
{ACAD_REACTORS
330
40C
102
}
330
40C
100
AcDbXrecord
 10
0.0
 20
0.0
 30
0.0
  0
XRECORD
  5
428
102
{ACAD_REACTORS
330
40C
102
}
330
40C
100
AcDbXrecord
 10
0.0
 20
0.0
 30
0.0
  0
XRECORD
  5
42B
102
{ACAD_REACTORS
330
40C
102
}
330
40C
100
AcDbXrecord
 10
0.0
 20
0.0
 30
0.0
  0
XRECORD
  5
429
102
{ACAD_REACTORS
330
40C
102
}
330
40C
100
AcDbXrecord
 10
0.0
 20
0.0
 30
0.0
  0
XRECORD
  5
42A
102
{ACAD_REACTORS
330
40C
102
}
330
40C
100
AcDbXrecord
 10
0.0
 20
0.0
 30
0.0
  0
XRECORD
  5
427
102
{ACAD_REACTORS
330
40C
102
}
330
40C
100
AcDbXrecord
 10
0.0
 20
0.0
 30
0.0
  0
XRECORD
  5
424
102
{ACAD_REACTORS
330
40C
102
}
330
40C
100
AcDbXrecord
340
0
  0
XRECORD
  5
425
102
{ACAD_REACTORS
330
40C
102
}
330
40C
100
AcDbXrecord
 70
     0
  0
XRECORD
  5
418
102
{ACAD_REACTORS
330
40C
102
}
330
40C
100
AcDbXrecord
  1
{4E708B5F-0274-4875-B894-48BC3F8A3C2D}
  0
DICTIONARYVAR
  5
1C2
102
{ACAD_REACTORS
330
1C1
102
}
330
1C1
100
DictionaryVariables
280
     0
  1
1
  0
ENDSEC
  0
EOF
