  0
SECTION
  2
HEADER
  9
$ACADVER
  1
AC1014
  9
$ACADMAINTVER
 70
     9
  9
$DWGCODEPAGE
  3
ANSI_1252
  9
$INSBASE
 10
-98.43357705513444
 20
59.0049267145358
 30
0.0
  9
$EXTMIN
 10
-108.0880521491836
 20
57.45425566581734
 30
0.0
  9
$EXTMAX
 10
-81.28190446841971
 20
69.04525814370917
 30
0.0
  9
$LIMMIN
 10
0.0
 20
0.0
  9
$LIMMAX
 10
36.0
 20
36.0
  9
$ORTHOMODE
 70
     1
  9
$REGENMODE
 70
     1
  9
$FILLMODE
 70
     1
  9
$QTEXTMODE
 70
     0
  9
$MIRRTEXT
 70
     1
  9
$DRAGMODE
 70
     0
  9
$LTSCALE
 40
1.0
  9
$OSMODE
 70
    37
  9
$ATTMODE
 70
     1
  9
$TEXTSIZE
 40
0.2
  9
$TRACEWID
 40
0.05
  9
$TEXTSTYLE
  7
STANDARD
  9
$CLAYER
  8
ADPDIM
  9
$CELTYPE
  6
BYLAYER
  9
$CECOLOR
 62
   256
  9
$CELTSCALE
 40
1.0
  9
$DELOBJ
 70
     1
  9
$DISPSILH
 70
     0
  9
$DIMSCALE
 40
1.0
  9
$DIMASZ
 40
0.125
  9
$DIMEXO
 40
0.0625
  9
$DIMDLI
 40
0.38
  9
$DIMRND
 40
0.0
  9
$DIMDLE
 40
0.0
  9
$DIMEXE
 40
0.18
  9
$DIMTP
 40
0.0
  9
$DIMTM
 40
0.0
  9
$DIMTXT
 40
0.125
  9
$DIMCEN
 40
0.1875
  9
$DIMTSZ
 40
0.125
  9
$DIMTOL
 70
     0
  9
$DIMLIM
 70
     0
  9
$DIMTIH
 70
     0
  9
$DIMTOH
 70
     0
  9
$DIMSE1
 70
     0
  9
$DIMSE2
 70
     0
  9
$DIMTAD
 70
     0
  9
$DIMZIN
 70
     3
  9
$DIMBLK
  1

  9
$DIMASO
 70
     1
  9
$DIMSHO
 70
     1
  9
$DIMPOST
  1

  9
$DIMAPOST
  1

  9
$DIMALT
 70
     0
  9
$DIMALTD
 70
     1
  9
$DIMALTF
 40
25.4
  9
$DIMLFAC
 40
1.0
  9
$DIMTOFL
 70
     0
  9
$DIMTVP
 40
0.0
  9
$DIMTIX
 70
     0
  9
$DIMSOXD
 70
     0
  9
$DIMSAH
 70
     0
  9
$DIMBLK1
  1

  9
$DIMBLK2
  1

  9
$DIMSTYLE
  2
STANDARD
  9
$DIMCLRD
 70
     0
  9
$DIMCLRE
 70
     0
  9
$DIMCLRT
 70
     0
  9
$DIMTFAC
 40
1.0
  9
$DIMGAP
 40
0.125
  9
$DIMJUST
 70
     0
  9
$DIMSD1
 70
     0
  9
$DIMSD2
 70
     0
  9
$DIMTOLJ
 70
     1
  9
$DIMTZIN
 70
     3
  9
$DIMALTZ
 70
     3
  9
$DIMALTTZ
 70
     3
  9
$DIMFIT
 70
     5
  9
$DIMUPT
 70
     0
  9
$DIMUNIT
 70
     5
  9
$DIMDEC
 70
     4
  9
$DIMTDEC
 70
     4
  9
$DIMALTU
 70
     5
  9
$DIMALTTD
 70
     1
  9
$DIMTXSTY
  7
STANDARD
  9
$DIMAUNIT
 70
     0
  9
$LUNITS
 70
     5
  9
$LUPREC
 70
     4
  9
$SKETCHINC
 40
0.1
  9
$FILLETRAD
 40
0.187
  9
$AUNITS
 70
     0
  9
$AUPREC
 70
     0
  9
$MENU
  1
acad
  9
$ELEVATION
 40
0.0
  9
$PELEVATION
 40
0.0
  9
$THICKNESS
 40
0.0
  9
$LIMCHECK
 70
     0
  9
$BLIPMODE
 70
     0
  9
$CHAMFERA
 40
0.0
  9
$CHAMFERB
 40
0.0
  9
$CHAMFERC
 40
0.0
  9
$CHAMFERD
 40
0.0
  9
$SKPOLY
 70
     0
  9
$TDCREATE
 40
2450406.499169560
  9
$TDUPDATE
 40
2452297.081001157
  9
$TDINDWG
 40
0.0466048148
  9
$TDUSRTIMER
 40
0.0466048148
  9
$USRTIMER
 70
     1
  9
$ANGBASE
 50
0.0
  9
$ANGDIR
 70
     0
  9
$PDMODE
 70
     0
  9
$PDSIZE
 40
0.0
  9
$PLINEWID
 40
0.0
  9
$COORDS
 70
     2
  9
$SPLFRAME
 70
     0
  9
$SPLINETYPE
 70
     6
  9
$SPLINESEGS
 70
     8
  9
$ATTDIA
 70
     0
  9
$ATTREQ
 70
     1
  9
$HANDLING
 70
 22529
  9
$HANDSEED
  5
380
  9
$SURFTAB1
 70
     6
  9
$SURFTAB2
 70
     6
  9
$SURFTYPE
 70
     6
  9
$SURFU
 70
     6
  9
$SURFV
 70
     6
  9
$UCSNAME
  2

  9
$UCSORG
 10
0.0
 20
0.0
 30
0.0
  9
$UCSXDIR
 10
1.0
 20
0.0
 30
0.0
  9
$UCSYDIR
 10
0.0
 20
1.0
 30
0.0
  9
$PUCSNAME
  2

  9
$PUCSORG
 10
0.0
 20
0.0
 30
0.0
  9
$PUCSXDIR
 10
1.0
 20
0.0
 30
0.0
  9
$PUCSYDIR
 10
0.0
 20
1.0
 30
0.0
  9
$USERI1
 70
     0
  9
$USERI2
 70
     0
  9
$USERI3
 70
     0
  9
$USERI4
 70
     0
  9
$USERI5
 70
     0
  9
$USERR1
 40
0.0
  9
$USERR2
 40
0.0
  9
$USERR3
 40
0.0
  9
$USERR4
 40
0.0
  9
$USERR5
 40
0.0
  9
$WORLDVIEW
 70
     1
  9
$SHADEDGE
 70
     3
  9
$SHADEDIF
 70
    70
  9
$TILEMODE
 70
     1
  9
$MAXACTVP
 70
    15
  9
$PINSBASE
 10
0.0008545024320483
 20
1.750284242913068
 30
0.0
  9
$PLIMCHECK
 70
     0
  9
$PEXTMIN
 10
1.000000000000000E+20
 20
1.000000000000000E+20
 30
1.000000000000000E+20
  9
$PEXTMAX
 10
-1.000000000000000E+20
 20
-1.000000000000000E+20
 30
-1.000000000000000E+20
  9
$PLIMMIN
 10
0.0
 20
0.0
  9
$PLIMMAX
 10
12.0
 20
9.0
  9
$UNITMODE
 70
     0
  9
$VISRETAIN
 70
     0
  9
$PLINEGEN
 70
     0
  9
$PSLTSCALE
 70
     1
  9
$TREEDEPTH
 70
  3020
  9
$PICKSTYLE
 70
     1
  9
$CMLSTYLE
  2
STANDARD
  9
$CMLJUST
 70
     0
  9
$CMLSCALE
 40
1.0
  9
$PROXYGRAPHICS
 70
     1
  9
$MEASUREMENT
 70
     0
  0
ENDSEC
  0
SECTION
  2
CLASSES
  0
CLASS
  1
ACDBDICTIONARYWDFLT
  2
AcDbDictionaryWithDefault
  3
AutoCAD 2000
 90
        0
280
     0
281
     0
  0
CLASS
  1
ACDBPLACEHOLDER
  2
AcDbPlaceHolder
  3
AutoCAD 2000
 90
        0
280
     0
281
     0
  0
CLASS
  1
LAYOUT
  2
AcDbLayout
  3
AutoCAD 2000
 90
        0
280
     0
281
     0
  0
CLASS
  1
DICTIONARYVAR
  2
AcDbDictionaryVar
  3
AutoCAD 2000
 90
        0
280
     0
281
     0
  0
CLASS
  1
LONG_TRANSACTION
  2
AcDbLongTransaction
  3
AutoCAD 2000
 90
        0
280
     0
281
     0
  0
CLASS
  1
LWPOLYLINE
  2
AcDbPolyline
  3
AutoCAD 2000
 90
        0
280
     0
281
     1
  0
CLASS
  1
HATCH
  2
AcDbHatch
  3
AutoCAD 2000
 90
        0
280
     0
281
     1
  0
CLASS
  1
XRECORD
  2
AcDbXrecord
  3
AutoCAD 2000
 90
        0
280
     0
281
     0
  0
CLASS
  1
LONG_TRANSACTION
  2
AcDbLongTransaction
  3
AutoCAD 2000
 90
        0
280
     0
281
     0
  0
CLASS
  1
LWPOLYLINE
  2
AcDbPolyline
  3
AutoCAD 2000
 90
        0
280
     0
281
     1
  0
CLASS
  1
HATCH
  2
AcDbHatch
  3
AutoCAD 2000
 90
        0
280
     0
281
     1
  0
CLASS
  1
XRECORD
  2
AcDbXrecord
  3
AutoCAD 2000
 90
        0
280
     0
281
     0
  0
CLASS
  1
LONG_TRANSACTION
  2
AcDbLongTransaction
  3
AutoCAD 2000
 90
        0
280
     0
281
     0
  0
CLASS
  1
LWPOLYLINE
  2
AcDbPolyline
  3
AutoCAD 2000
 90
        0
280
     0
281
     1
  0
CLASS
  1
HATCH
  2
AcDbHatch
  3
AutoCAD 2000
 90
        0
280
     0
281
     1
  0
CLASS
  1
XRECORD
  2
AcDbXrecord
  3
AutoCAD 2000
 90
        0
280
     0
281
     0
  0
CLASS
  1
LONG_TRANSACTION
  2
AcDbLongTransaction
  3
AutoCAD 2000
 90
        0
280
     0
281
     0
  0
CLASS
  1
LWPOLYLINE
  2
AcDbPolyline
  3
AutoCAD 2000
 90
        0
280
     0
281
     1
  0
CLASS
  1
HATCH
  2
AcDbHatch
  3
AutoCAD 2000
 90
        0
280
     0
281
     1
  0
CLASS
  1
XRECORD
  2
AcDbXrecord
  3
AutoCAD 2000
 90
        0
280
     0
281
     0
  0
CLASS
  1
LONG_TRANSACTION
  2
AcDbLongTransaction
  3
AutoCAD 2000
 90
        0
280
     0
281
     0
  0
CLASS
  1
LWPOLYLINE
  2
AcDbPolyline
  3
AutoCAD 2000
 90
        0
280
     0
281
     1
  0
CLASS
  1
HATCH
  2
AcDbHatch
  3
AutoCAD 2000
 90
        0
280
     0
281
     1
  0
CLASS
  1
XRECORD
  2
AcDbXrecord
  3
AutoCAD 2000
 90
        0
280
     0
281
     0
  0
CLASS
  1
LONG_TRANSACTION
  2
AcDbLongTransaction
  3
AutoCAD 2000
 90
        0
280
     0
281
     0
  0
CLASS
  1
LWPOLYLINE
  2
AcDbPolyline
  3
AutoCAD 2000
 90
        0
280
     0
281
     1
  0
CLASS
  1
HATCH
  2
AcDbHatch
  3
AutoCAD 2000
 90
        0
280
     0
281
     1
  0
CLASS
  1
XRECORD
  2
AcDbXrecord
  3
AutoCAD 2000
 90
        0
280
     0
281
     0
  0
ENDSEC
  0
SECTION
  2
TABLES
  0
TABLE
  2
VPORT
  5
8
330
0
100
AcDbSymbolTable
 70
     2
  0
VPORT
  5
35C
330
8
100
AcDbSymbolTableRecord
100
AcDbViewportTableRecord
  2
*ACTIVE
 70
     0
 10
0.0
 20
0.0
 11
1.0
 21
1.0
 12
-94.66146734739714
 22
63.24885350886258
 13
0.0
 23
0.0
 14
0.5740882589684922
 24
0.5740882589684922
 15
0.5
 25
0.5
 16
0.0
 26
0.0
 36
1.0
 17
0.0
 27
0.0
 37
0.0
 40
17.18226197471459
 41
1.570528967254408
 42
50.0
 43
0.0
 44
0.0
 50
0.0
 51
0.0
 71
     0
 72
   100
 73
     1
 74
     0
 75
     0
 76
     0
 77
     0
 78
     0
  0
ENDTAB
  0
TABLE
  2
LTYPE
  5
5
330
0
100
AcDbSymbolTable
 70
     2
  0
LTYPE
  5
13
330
5
100
AcDbSymbolTableRecord
100
AcDbLinetypeTableRecord
  2
BYBLOCK
 70
     0
  3

 72
    65
 73
     0
 40
0.0
  0
LTYPE
  5
14
330
5
100
AcDbSymbolTableRecord
100
AcDbLinetypeTableRecord
  2
BYLAYER
 70
     0
  3

 72
    65
 73
     0
 40
0.0
  0
LTYPE
  5
15
330
5
100
AcDbSymbolTableRecord
100
AcDbLinetypeTableRecord
  2
CONTINUOUS
 70
     0
  3
Solid line
 72
    65
 73
     0
 40
0.0
  0
LTYPE
  5
143
330
5
100
AcDbSymbolTableRecord
100
AcDbLinetypeTableRecord
  2
CENTER2
 70
     0
  3
___ _ ___ _ ___ _ ___ _ ___ _ ___ _ ___ _ ___ _
 72
    65
 73
     4
 40
1.125
 49
0.75
 74
     0
 49
-0.125
 74
     0
 49
0.125
 74
     0
 49
-0.125
 74
     0
  0
ENDTAB
  0
TABLE
  2
LAYER
  5
2
330
0
100
AcDbSymbolTable
 70
     5
  0
LAYER
  5
10
330
2
100
AcDbSymbolTableRecord
100
AcDbLayerTableRecord
  2
0
 70
     0
 62
     7
  6
CONTINUOUS
  0
LAYER
  5
147
330
2
100
AcDbSymbolTableRecord
100
AcDbLayerTableRecord
  2
ADP1DETAIL
 70
     0
 62
     7
  6
CONTINUOUS
  0
LAYER
  5
148
330
2
100
AcDbSymbolTableRecord
100
AcDbLayerTableRecord
  2
ADP3DETAIL
 70
     0
 62
     1
  6
CONTINUOUS
  0
LAYER
  5
149
330
2
100
AcDbSymbolTableRecord
100
AcDbLayerTableRecord
  2
DEFPOINTS
 70
     0
 62
     7
  6
CONTINUOUS
  0
LAYER
  5
14D
330
2
100
AcDbSymbolTableRecord
100
AcDbLayerTableRecord
  2
ADPDIM
 70
     0
 62
     3
  6
CONTINUOUS
  0
ENDTAB
  0
TABLE
  2
STYLE
  5
3
330
0
100
AcDbSymbolTable
 70
     2
  0
STYLE
  5
11
330
3
100
AcDbSymbolTableRecord
100
AcDbTextStyleTableRecord
  2
STANDARD
 70
     0
 40
0.0
 41
1.0
 50
0.0
 71
     0
 42
0.2
  3
txt
  4

  0
STYLE
  5
18F
330
3
100
AcDbSymbolTableRecord
100
AcDbTextStyleTableRecord
  2
ARIAL_WIDE
 70
     0
 40
0.0
 41
1.25
 50
0.0
 71
     0
 42
0.2
  3
ARIAL.TTF
  4

1001
ACAD
1000
Arial
1071
       34
  0
ENDTAB
  0
TABLE
  2
VIEW
  5
6
330
0
100
AcDbSymbolTable
 70
     0
  0
ENDTAB
  0
TABLE
  2
UCS
  5
7
330
0
100
AcDbSymbolTable
 70
     0
  0
ENDTAB
  0
TABLE
  2
APPID
  5
9
330
0
100
AcDbSymbolTable
 70
     1
  0
APPID
  5
12
330
9
100
AcDbSymbolTableRecord
100
AcDbRegAppTableRecord
  2
ACAD
 70
     0
  0
ENDTAB
  0
TABLE
  2
DIMSTYLE
  5
A
330
0
100
AcDbSymbolTable
 70
     1
  0
DIMSTYLE
105
18D
330
A
100
AcDbSymbolTableRecord
100
AcDbDimStyleTableRecord
  2
STANDARD
 70
     0
  3

  4

  5

  6

  7

 40
1.0
 41
0.18
 42
0.0625
 43
0.38
 44
0.18
 45
0.0
 46
0.0
 47
0.0
 48
0.0
140
0.18
141
0.09
142
0.0
143
25.4
144
1.0
145
0.0
146
1.0
147
0.09
 71
     0
 72
     0
 73
     1
 74
     1
 75
     0
 76
     0
 77
     0
 78
     0
170
     0
171
     2
172
     0
173
     0
174
     0
175
     0
176
     0
177
     0
178
     0
270
     2
271
     4
272
     4
273
     2
274
     2
340
11
275
     0
280
     0
281
     0
282
     0
283
     1
284
     0
285
     0
286
     0
287
     3
288
     0
  0
ENDTAB
  0
TABLE
  2
BLOCK_RECORD
  5
1
330
0
100
AcDbSymbolTable
 70
     4
  0
BLOCK_RECORD
  5
1E
102
{ACAD_XDICTIONARY
360
1CC
102
}
330
1
100
AcDbSymbolTableRecord
100
AcDbBlockTableRecord
  2
*MODEL_SPACE
  0
BLOCK_RECORD
  5
1A
102
{ACAD_XDICTIONARY
360
1CE
102
}
330
1
100
AcDbSymbolTableRecord
100
AcDbBlockTableRecord
  2
*PAPER_SPACE
  0
BLOCK_RECORD
  5
13B
330
1
100
AcDbSymbolTableRecord
100
AcDbBlockTableRecord
  2
*D0
  0
BLOCK_RECORD
  5
13C
330
1
100
AcDbSymbolTableRecord
100
AcDbBlockTableRecord
  2
*D1
  0
BLOCK_RECORD
  5
13D
330
1
100
AcDbSymbolTableRecord
100
AcDbBlockTableRecord
  2
*D2
  0
BLOCK_RECORD
  5
13E
330
1
100
AcDbSymbolTableRecord
100
AcDbBlockTableRecord
  2
*D3
  0
ENDTAB
  0
ENDSEC
  0
SECTION
  2
BLOCKS
  0
BLOCK
  5
150
330
1E
100
AcDbEntity
  8
0
100
AcDbBlockBegin
  2
*MODEL_SPACE
 70
     0
 10
0.0
 20
0.0
 30
0.0
  3
*MODEL_SPACE
  1

  0
ENDBLK
  5
151
330
1E
100
AcDbEntity
  8
0
100
AcDbBlockEnd
  0
BLOCK
  5
14E
330
1A
100
AcDbEntity
 67
     1
  8
0
100
AcDbBlockBegin
  2
*PAPER_SPACE
 70
     0
 10
0.0
 20
0.0
 30
0.0
  3
*PAPER_SPACE
  1

  0
ENDBLK
  5
14F
330
1A
100
AcDbEntity
 67
     1
  8
0
100
AcDbBlockEnd
  0
BLOCK
  5
153
330
13B
100
AcDbEntity
  8
0
100
AcDbBlockBegin
  2
*D0
 70
     1
 10
0.0
 20
0.0
 30
0.0
  3
*D0
  1

  0
LINE
  5
154
330
13B
100
AcDbEntity
  8
0
  6
BYBLOCK
 62
     0
100
AcDbLine
 10
-98.36906081252784
 20
64.89191281280328
 30
0.0
 11
-94.70363230032187
 21
61.52026095207601
 31
0.0
  0
LINE
  5
155
330
13B
100
AcDbEntity
  8
0
  6
BYBLOCK
 62
     0
100
AcDbLine
 10
-98.54568366497002
 20
64.88453934718754
 30
0.0
 11
-98.19243796008564
 21
64.89928627841902
 31
0.0
  0
TEXT
  5
156
330
13B
100
AcDbEntity
  8
0
  6
BYBLOCK
 62
     0
100
AcDbText
 10
-94.6539464879995
 20
61.38963717914831
 30
0.0
 40
0.125
  1
R5
 50
317.3905360123015
 72
     1
 11
-94.53496900876876
 21
61.36511568081844
 31
0.0
100
AcDbText
 73
     2
  0
POINT
  5
158
330
13B
100
AcDbEntity
  8
DEFPOINTS
  6
BYBLOCK
 62
     0
100
AcDbPoint
 10
-98.36906081252784
 20
64.89191281280328
 30
0.0
  0
POINT
  5
159
330
13B
100
AcDbEntity
  8
DEFPOINTS
  6
BYBLOCK
 62
     0
100
AcDbPoint
 10
-94.68696196963099
 20
61.5049267145358
 30
0.0
  0
ENDBLK
  5
15A
330
13B
100
AcDbEntity
  8
0
100
AcDbBlockEnd
  0
BLOCK
  5
15B
330
13C
100
AcDbEntity
  8
0
100
AcDbBlockBegin
  2
*D1
 70
     1
 10
0.0
 20
0.0
 30
0.0
  3
*D1
  1

  0
LINE
  5
15C
330
13C
100
AcDbEntity
  8
0
  6
BYBLOCK
 62
     0
100
AcDbLine
 10
-98.37107705513444
 20
59.0049267145358
 30
0.0
 11
-96.01084346354339
 21
59.0049267145358
 31
0.0
  0
LINE
  5
15D
330
13C
100
AcDbEntity
  8
0
  6
BYBLOCK
 62
     0
100
AcDbLine
 10
-94.67613230032187
 20
61.520260952076
 30
0.0
 11
-96.3708434635434
 21
61.520260952076
 31
0.0
  0
LINE
  5
15E
330
13C
100
AcDbEntity
  8
0
  6
BYBLOCK
 62
     0
100
AcDbLine
 10
-96.19084346354339
 20
59.0049267145358
 30
0.0
 11
-96.19084346354339
 21
59.86676049997257
 31
0.0
  0
LINE
  5
15F
330
13C
100
AcDbEntity
  8
0
  6
BYBLOCK
 62
     0
100
AcDbLine
 10
-96.19084346354339
 20
61.520260952076
 30
0.0
 11
-96.19084346354339
 21
60.65842716663923
 31
0.0
  0
LINE
  5
160
330
13C
100
AcDbEntity
  8
0
  6
BYBLOCK
 62
     0
100
AcDbLine
 10
-96.06584346354338
 20
58.8799267145358
 30
0.0
 11
-96.31584346354339
 21
59.12992671453579
 31
0.0
  0
LINE
  5
161
330
13C
100
AcDbEntity
  8
0
  6
BYBLOCK
 62
     0
100
AcDbLine
 10
-96.06584346354338
 20
61.395260952076
 30
0.0
 11
-96.31584346354339
 21
61.645260952076
 31
0.0
  0
TEXT
  5
162
330
13C
100
AcDbEntity
  8
0
  6
BYBLOCK
 62
     0
100
AcDbText
 10
-96.1283434635434
 20
59.99176049997256
 30
0.0
 40
0.125
  1
2 1/2
 50
90.0
 72
     1
 11
-96.19084346354339
 21
60.26259383330589
 31
0.0
100
AcDbText
 73
     2
  0
POINT
  5
163
330
13C
100
AcDbEntity
  8
DEFPOINTS
  6
BYBLOCK
 62
     0
100
AcDbPoint
 10
-98.43357705513444
 20
59.0049267145358
 30
0.0
  0
POINT
  5
164
330
13C
100
AcDbEntity
  8
DEFPOINTS
  6
BYBLOCK
 62
     0
100
AcDbPoint
 10
-94.61363230032187
 20
61.520260952076
 30
0.0
  0
POINT
  5
165
330
13C
100
AcDbEntity
  8
DEFPOINTS
  6
BYBLOCK
 62
     0
100
AcDbPoint
 10
-96.19084346354339
 20
61.520260952076
 30
0.0
  0
ENDBLK
  5
166
330
13C
100
AcDbEntity
  8
0
100
AcDbBlockEnd
  0
BLOCK
  5
167
330
13D
100
AcDbEntity
  8
0
100
AcDbBlockBegin
  2
*D2
 70
     1
 10
0.0
 20
0.0
 30
0.0
  3
*D2
  1

  0
LINE
  5
168
330
13D
100
AcDbEntity
  8
0
  6
BYBLOCK
 62
     0
100
AcDbLine
 10
-89.22932380356137
 20
65.61383715979485
 30
0.0
 11
-89.05460230459654
 21
65.4350288887348
 31
0.0
  0
LINE
  5
169
330
13D
100
AcDbEntity
  8
0
  6
BYBLOCK
 62
     0
100
AcDbLine
 10
-89.40608868857379
 20
65.61588054584245
 30
0.0
 11
-89.05255891854894
 21
65.61179377374724
 31
0.0
  0
LINE
  5
16A
330
13D
100
AcDbEntity
  8
0
  6
BYBLOCK
 62
     0
100
AcDbLine
 10
-90.2904312983855
 20
66.50787851509509
 30
0.0
 11
-89.9154312983855
 21
66.50787851509509
 31
0.0
  0
LINE
  5
16B
330
13D
100
AcDbEntity
  8
0
  6
BYBLOCK
 62
     0
100
AcDbLine
 10
-90.10293129838549
 20
66.32037851509508
 30
0.0
 11
-90.10293129838549
 21
66.69537851509509
 31
0.0
  0
TEXT
  5
16C
330
13D
100
AcDbEntity
  8
0
  6
BYBLOCK
 62
     0
100
AcDbText
 10
-89.01194362287915
 20
65.30194437846359
 30
0.0
 40
0.125
  1
%%c2 1/2
 50
314.3376954830273
 72
     1
 11
-88.73427955649436
 21
65.10721372512472
 31
0.0
100
AcDbText
 73
     2
  0
POINT
  5
16D
330
13D
100
AcDbEntity
  8
DEFPOINTS
  6
BYBLOCK
 62
     0
100
AcDbPoint
 10
-89.22932380356137
 20
65.61383715979485
 30
0.0
  0
POINT
  5
16E
330
13D
100
AcDbEntity
  8
DEFPOINTS
  6
BYBLOCK
 62
     0
100
AcDbPoint
 10
-90.97653879320963
 20
67.40191987039532
 30
0.0
  0
ENDBLK
  5
16F
330
13D
100
AcDbEntity
  8
0
100
AcDbBlockEnd
  0
BLOCK
  5
170
330
13E
100
AcDbEntity
  8
0
100
AcDbBlockBegin
  2
*D3
 70
     1
 10
0.0
 20
0.0
 30
0.0
  3
*D3
  1

  0
LINE
  5
171
330
13E
100
AcDbEntity
  8
0
  6
BYBLOCK
 62
     0
100
AcDbLine
 10
-88.97392703602038
 20
66.54591986292118
 30
0.0
 11
-88.97392703602038
 21
66.6878785150951
 31
0.0
  0
LINE
  5
172
330
13E
100
AcDbEntity
  8
0
  6
BYBLOCK
 62
     0
100
AcDbLine
 10
-88.84892703602039
 20
66.54591986292118
 30
0.0
 11
-88.84892703602039
 21
66.6878785150951
 31
0.0
  0
LINE
  5
173
330
13E
100
AcDbEntity
  8
0
  6
BYBLOCK
 62
     0
100
AcDbLine
 10
-88.97392703602038
 20
66.50787851509509
 30
0.0
 11
-89.22392703602039
 21
66.50787851509509
 31
0.0
  0
LINE
  5
174
330
13E
100
AcDbEntity
  8
0
  6
BYBLOCK
 62
     0
100
AcDbLine
 10
-88.84892703602039
 20
66.50787851509509
 30
0.0
 11
-88.59892703602039
 21
66.50787851509509
 31
0.0
  0
LINE
  5
175
330
13E
100
AcDbEntity
  8
0
  6
BYBLOCK
 62
     0
100
AcDbLine
 10
-89.09892703602038
 20
66.38287851509509
 30
0.0
 11
-88.84892703602039
 21
66.63287851509508
 31
0.0
  0
LINE
  5
176
330
13E
100
AcDbEntity
  8
0
  6
BYBLOCK
 62
     0
100
AcDbLine
 10
-88.97392703602038
 20
66.38287851509509
 30
0.0
 11
-88.72392703602038
 21
66.63287851509508
 31
0.0
  0
TEXT
  5
177
330
13E
100
AcDbEntity
  8
0
  6
BYBLOCK
 62
     0
100
AcDbText
 10
-88.47392703602038
 20
66.44537851509508
 30
0.0
 40
0.125
  1
1/8
 72
     1
 11
-88.32809370268705
 21
66.50787851509509
 31
0.0
100
AcDbText
 73
     2
  0
POINT
  5
178
330
13E
100
AcDbEntity
  8
DEFPOINTS
  6
BYBLOCK
 62
     0
100
AcDbPoint
 10
-88.97392703602038
 20
66.48341986292118
 30
0.0
  0
POINT
  5
179
330
13E
100
AcDbEntity
  8
DEFPOINTS
  6
BYBLOCK
 62
     0
100
AcDbPoint
 10
-88.84892703602039
 20
66.48341986292118
 30
0.0
  0
POINT
  5
17A
330
13E
100
AcDbEntity
  8
DEFPOINTS
  6
BYBLOCK
 62
     0
100
AcDbPoint
 10
-88.84892703602039
 20
66.50787851509509
 30
0.0
  0
ENDBLK
  5
17B
330
13E
100
AcDbEntity
  8
0
100
AcDbBlockEnd
  0
ENDSEC
  0
SECTION
  2
ENTITIES
  0
ARC
  5
17C
330
1E
100
AcDbEntity
  8
ADP1DETAIL
100
AcDbCircle
 10
-94.68696196963099
 20
61.5049267145358
 30
0.0
 40
6.246615085503433
100
AcDbArc
 50
89.99999999999998
 51
180.0
  0
ARC
  5
17D
330
1E
100
AcDbEntity
  8
ADP1DETAIL
100
AcDbCircle
 10
-94.68696196963099
 20
61.5049267145358
 30
0.0
 40
3.746615085503433
100
AcDbArc
 50
89.99999999999998
 51
180.0
  0
DIMENSION
  5
17E
330
1E
100
AcDbEntity
  8
ADPDIM
100
AcDbDimension
  2
*D1
 10
-96.19084346354339
 20
61.520260952076
 30
0.0
 11
-96.19084346354339
 21
60.26259383330589
 31
0.0
100
AcDbAlignedDimension
 13
-98.43357705513444
 23
59.0049267145358
 33
0.0
 14
-94.61363230032187
 24
61.520260952076
 34
0.0
 50
90.0
100
AcDbRotatedDimension
  0
DIMENSION
  5
17F
330
1E
100
AcDbEntity
  8
ADPDIM
100
AcDbDimension
  2
*D0
 10
-94.68696196963099
 20
61.5049267145358
 30
0.0
 11
-94.53496900876876
 21
61.36511568081844
 31
0.0
 70
     4
100
AcDbRadialDimension
 15
-98.36906081252784
 25
64.89191281280328
 35
0.0
 40
-4.980301441483052
  0
ARC
  5
180
330
1E
100
AcDbEntity
  8
ADP3DETAIL
  6
CENTER2
100
AcDbCircle
 10
-94.68696196963099
 20
61.5049267145358
 30
0.0
 40
5.002951800559284
100
AcDbArc
 50
89.99999999999998
 51
180.0
  0
LINE
  5
181
330
1E
100
AcDbEntity
  8
ADP1DETAIL
100
AcDbLine
 10
-100.9335770551344
 20
59.0049267145358
 30
0.0
 11
-100.9335770551344
 21
61.5049267145358
 31
0.0
  0
LINE
  5
182
330
1E
100
AcDbEntity
  8
ADP1DETAIL
100
AcDbLine
 10
-98.43357705513444
 20
61.5049267145358
 30
0.0
 11
-98.43357705513444
 21
59.0049267145358
 31
0.0
  0
LINE
  5
183
330
1E
100
AcDbEntity
  8
ADP3DETAIL
  6
CENTER2
100
AcDbLine
 10
-99.68696196963101
 20
61.5049267145358
 30
0.0
 11
-99.68696196963101
 21
58.42526251426528
 31
0.0
  0
LINE
  5
184
330
1E
100
AcDbEntity
  8
ADP1DETAIL
100
AcDbLine
 10
-98.43357705513444
 20
59.0049267145358
 30
0.0
 11
-100.9335770551344
 21
59.0049267145358
 31
0.0
  0
LINE
  5
185
330
1E
100
AcDbEntity
  8
ADP1DETAIL
100
AcDbLine
 10
-92.18696196963099
 20
67.75787851509509
 30
0.0
 11
-92.18696196963099
 21
65.25787851509509
 31
0.0
  0
CIRCLE
  5
186
330
1E
100
AcDbEntity
  8
ADP1DETAIL
100
AcDbCircle
 10
-90.10293129838547
 20
66.50787851509509
 30
0.0
 40
1.25
  0
CIRCLE
  5
187
330
1E
100
AcDbEntity
  8
ADP1DETAIL
100
AcDbCircle
 10
-90.10293129838547
 20
66.50787851509509
 30
0.0
 40
1.125
  0
LINE
  5
188
330
1E
100
AcDbEntity
  8
ADP1DETAIL
100
AcDbLine
 10
-92.18696196963099
 20
65.25787851509509
 30
0.0
 11
-94.68696196963099
 21
65.25787851509509
 31
0.0
  0
LINE
  5
189
330
1E
100
AcDbEntity
  8
ADP3DETAIL
  6
CENTER2
100
AcDbLine
 10
-91.68080203629669
 20
66.50787851509509
 30
0.0
 11
-94.68696196963099
 21
66.50787851509509
 31
0.0
  0
DIMENSION
  5
18A
330
1E
100
AcDbEntity
  8
ADPDIM
100
AcDbDimension
  2
*D2
 10
-90.97653879320963
 20
67.40191987039532
 30
0.0
 11
-88.73427955649436
 21
65.10721372512472
 31
0.0
 70
     3
100
AcDbDiametricDimension
 15
-89.22932380356137
 25
65.61383715979485
 35
0.0
 40
0.0
  0
DIMENSION
  5
18B
330
1E
100
AcDbEntity
  8
ADPDIM
100
AcDbDimension
  2
*D3
 10
-88.84892703602039
 20
66.50787851509509
 30
0.0
 11
-88.32809370268705
 21
66.50787851509509
 31
0.0
100
AcDbAlignedDimension
 13
-88.97392703602038
 23
66.48341986292118
 33
0.0
 14
-88.84892703602039
 24
66.48341986292118
 34
0.0
100
AcDbRotatedDimension
  0
LINE
  5
18C
330
1E
100
AcDbEntity
  8
ADP1DETAIL
100
AcDbLine
 10
-94.68696196963099
 20
67.75787851509509
 30
0.0
 11
-92.18696196963099
 21
67.75787851509509
 31
0.0
  0
TEXT
  5
190
330
1E
100
AcDbEntity
  8
ADPDIM
100
AcDbText
 10
-108.0880521491836
 20
57.52826657986918
 30
0.0
 40
0.25
  1
J U L I U S  B L U M  &  C O . ,  I N C .      ( 8 0 0 )  5 2 6 - 6 2 9 3        W W W . J U L I U S B L U M . C O M        P A R T  N o .  1 3 3 2 - C
 41
1.25
  7
ARIAL_WIDE
 72
     1
 11
-94.68497830880171
 21
57.77826657986918
 31
0.0
100
AcDbText
 73
     3
  0
ENDSEC
  0
SECTION
  2
OBJECTS
  0
DICTIONARY
  5
C
330
0
100
AcDbDictionary
  3
ACAD_GROUP
350
D
  3
ACAD_LAYOUT
350
19
  3
ACAD_MLINESTYLE
350
16
  3
ACAD_PLOTSETTINGS
350
18
  3
ACAD_PLOTSTYLENAME
350
E
  3
ACDBHEADERROUNDTRIPXREC
350
35D
  3
ACDBVARIABLEDICTIONARY
350
201
  0
DICTIONARY
  5
1CC
330
1E
100
AcDbDictionary
280
     1
  3
ACAD_LAYOUTSELFREF
360
37F
  0
DICTIONARY
  5
1CE
330
1A
100
AcDbDictionary
280
     1
  3
ACAD_LAYOUTSELFREF
360
37E
  0
DICTIONARY
  5
D
102
{ACAD_REACTORS
330
C
102
}
330
C
100
AcDbDictionary
  0
DICTIONARY
  5
19
102
{ACAD_REACTORS
330
C
102
}
330
C
100
AcDbDictionary
  0
DICTIONARY
  5
16
102
{ACAD_REACTORS
330
C
102
}
330
C
100
AcDbDictionary
  3
STANDARD
350
17
  0
DICTIONARY
  5
18
102
{ACAD_REACTORS
330
C
102
}
330
C
100
AcDbDictionary
  0
ACDBDICTIONARYWDFLT
  5
E
102
{ACAD_REACTORS
330
C
102
}
330
C
100
AcDbDictionary
281
     1
  3
Normal
350
F
100
AcDbDictionaryWithDefault
340
F
  0
DICTIONARY
  5
35D
102
{ACAD_REACTORS
330
C
102
}
330
C
100
AcDbDictionary
  3
CEPSNTYPE
350
367
  3
DIMSTYLEDATA
350
36B
  3
FINGERPRINTGUID
350
368
  3
HYPERLINKBASE
350
360
  3
INSUNITS
350
366
  3
LAYOUTDICT
350
362
  3
LWETCUNION
350
365
  3
PLOTSETDICT
350
363
  3
PLOTSTYLNAMDICT
350
364
  3
PSVPSCALE
350
36A
  3
PUCSBASE
350
36E
  3
PUCSORGBACK
350
374
  3
PUCSORGBOTTOM
350
370
  3
PUCSORGFRONT
350
373
  3
PUCSORGLEFT
350
371
  3
PUCSORGRIGHT
350
372
  3
PUCSORGTOP
350
36F
  3
PUCSORTHOREF
350
36C
  3
PUCSORTHOVIEW
350
36D
  3
STYLESHEET
350
361
  3
TSTACKALIGN
350
35E
  3
TSTACKSIZE
350
35F
  3
UCSBASE
350
377
  3
UCSORGBACK
350
37D
  3
UCSORGBOTTOM
350
379
  3
UCSORGFRONT
350
37C
  3
UCSORGLEFT
350
37A
  3
UCSORGRIGHT
350
37B
  3
UCSORGTOP
350
378
  3
UCSORTHOREF
350
375
  3
UCSORTHOVIEW
350
376
  3
VERSIONGUID
350
369
  0
DICTIONARY
  5
201
102
{ACAD_REACTORS
330
C
102
}
330
C
100
AcDbDictionary
  3
DIMASSOC
350
203
  3
HIDETEXT
350
202
  0
XRECORD
  5
37F
102
{ACAD_REACTORS
330
1CC
102
}
330
1CC
100
AcDbXrecord
340
1E
  0
XRECORD
  5
37E
102
{ACAD_REACTORS
330
1CE
102
}
330
1CE
100
AcDbXrecord
340
1A
  0
MLINESTYLE
  5
17
102
{ACAD_REACTORS
330
16
102
}
330
16
100
AcDbMlineStyle
  2
STANDARD
 70
     0
  3

 62
   256
 51
90.0
 52
90.0
 71
     2
 49
0.5
 62
   256
  6
BYLAYER
 49
-0.5
 62
   256
  6
BYLAYER
  0
ACDBPLACEHOLDER
  5
F
102
{ACAD_REACTORS
330
E
102
}
330
E
100
AcDbPlaceHolder
280
     0
  0
XRECORD
  5
367
102
{ACAD_REACTORS
330
35D
102
}
330
35D
100
AcDbXrecord
 90
        0
  0
XRECORD
  5
36B
102
{ACAD_REACTORS
330
35D
102
}
330
35D
100
AcDbXrecord
1000
DSTYLE
1002
{
1070
   277
 70
     5
1070
   279
 70
     2
1002
}
  0
XRECORD
  5
368
102
{ACAD_REACTORS
330
35D
102
}
330
35D
100
AcDbXrecord
  1
{0989522D-A5B7-4351-B146-E3073FB2E6EE}
  0
XRECORD
  5
360
102
{ACAD_REACTORS
330
35D
102
}
330
35D
100
AcDbXrecord
  1

  0
XRECORD
  5
366
102
{ACAD_REACTORS
330
35D
102
}
330
35D
100
AcDbXrecord
 90
        0
  0
XRECORD
  5
362
102
{ACAD_REACTORS
330
35D
102
}
330
35D
100
AcDbXrecord
340
19
  0
XRECORD
  5
365
102
{ACAD_REACTORS
330
35D
102
}
330
35D
100
AcDbXrecord
 90
    14877
  0
XRECORD
  5
363
102
{ACAD_REACTORS
330
35D
102
}
330
35D
100
AcDbXrecord
340
18
  0
XRECORD
  5
364
102
{ACAD_REACTORS
330
35D
102
}
330
35D
100
AcDbXrecord
340
E
  0
XRECORD
  5
36A
102
{ACAD_REACTORS
330
35D
102
}
330
35D
100
AcDbXrecord
 40
0.0
  0
XRECORD
  5
36E
102
{ACAD_REACTORS
330
35D
102
}
330
35D
100
AcDbXrecord
340
0
  0
XRECORD
  5
374
102
{ACAD_REACTORS
330
35D
102
}
330
35D
100
AcDbXrecord
 10
0.0
 20
0.0
 30
0.0
  0
XRECORD
  5
370
102
{ACAD_REACTORS
330
35D
102
}
330
35D
100
AcDbXrecord
 10
0.0
 20
0.0
 30
0.0
  0
XRECORD
  5
373
102
{ACAD_REACTORS
330
35D
102
}
330
35D
100
AcDbXrecord
 10
0.0
 20
0.0
 30
0.0
  0
XRECORD
  5
371
102
{ACAD_REACTORS
330
35D
102
}
330
35D
100
AcDbXrecord
 10
0.0
 20
0.0
 30
0.0
  0
XRECORD
  5
372
102
{ACAD_REACTORS
330
35D
102
}
330
35D
100
AcDbXrecord
 10
0.0
 20
0.0
 30
0.0
  0
XRECORD
  5
36F
102
{ACAD_REACTORS
330
35D
102
}
330
35D
100
AcDbXrecord
 10
0.0
 20
0.0
 30
0.0
  0
XRECORD
  5
36C
102
{ACAD_REACTORS
330
35D
102
}
330
35D
100
AcDbXrecord
340
0
  0
XRECORD
  5
36D
102
{ACAD_REACTORS
330
35D
102
}
330
35D
100
AcDbXrecord
 70
     0
  0
XRECORD
  5
361
102
{ACAD_REACTORS
330
35D
102
}
330
35D
100
AcDbXrecord
  1

  0
XRECORD
  5
35E
102
{ACAD_REACTORS
330
35D
102
}
330
35D
100
AcDbXrecord
 90
        1
  0
XRECORD
  5
35F
102
{ACAD_REACTORS
330
35D
102
}
330
35D
100
AcDbXrecord
 90
       70
  0
XRECORD
  5
377
102
{ACAD_REACTORS
330
35D
102
}
330
35D
100
AcDbXrecord
340
0
  0
XRECORD
  5
37D
102
{ACAD_REACTORS
330
35D
102
}
330
35D
100
AcDbXrecord
 10
0.0
 20
0.0
 30
0.0
  0
XRECORD
  5
379
102
{ACAD_REACTORS
330
35D
102
}
330
35D
100
AcDbXrecord
 10
0.0
 20
0.0
 30
0.0
  0
XRECORD
  5
37C
102
{ACAD_REACTORS
330
35D
102
}
330
35D
100
AcDbXrecord
 10
0.0
 20
0.0
 30
0.0
  0
XRECORD
  5
37A
102
{ACAD_REACTORS
330
35D
102
}
330
35D
100
AcDbXrecord
 10
0.0
 20
0.0
 30
0.0
  0
XRECORD
  5
37B
102
{ACAD_REACTORS
330
35D
102
}
330
35D
100
AcDbXrecord
 10
0.0
 20
0.0
 30
0.0
  0
XRECORD
  5
378
102
{ACAD_REACTORS
330
35D
102
}
330
35D
100
AcDbXrecord
 10
0.0
 20
0.0
 30
0.0
  0
XRECORD
  5
375
102
{ACAD_REACTORS
330
35D
102
}
330
35D
100
AcDbXrecord
340
0
  0
XRECORD
  5
376
102
{ACAD_REACTORS
330
35D
102
}
330
35D
100
AcDbXrecord
 70
     0
  0
XRECORD
  5
369
102
{ACAD_REACTORS
330
35D
102
}
330
35D
100
AcDbXrecord
  1
{208B3A03-6337-47D7-8C0C-64E66228B806}
  0
DICTIONARYVAR
  5
203
102
{ACAD_REACTORS
330
201
102
}
330
201
100
DictionaryVariables
280
     0
  1
2
  0
DICTIONARYVAR
  5
202
102
{ACAD_REACTORS
330
201
102
}
330
201
100
DictionaryVariables
280
     0
  1
1
  0
ENDSEC
  0
EOF
