  0
SECTION
  2
HEADER
  9
$ACADVER
  1
AC1014
  9
$ACADMAINTVER
 70
     9
  9
$DWGCODEPAGE
  3
ANSI_1252
  9
$INSBASE
 10
-1.250061787303375
 20
0.0000000000000013
 30
0.0
  9
$EXTMIN
 10
-9.016076962815439
 20
-2.274196435745154
 30
0.0
  9
$EXTMAX
 10
4.471623412355093
 20
5.297744477089037
 30
0.0
  9
$LIMMIN
 10
0.0
 20
0.0
  9
$LIMMAX
 10
36.0
 20
36.0
  9
$ORTHOMODE
 70
     1
  9
$REGENMODE
 70
     1
  9
$FILLMODE
 70
     1
  9
$QTEXTMODE
 70
     0
  9
$MIRRTEXT
 70
     1
  9
$DRAGMODE
 70
     0
  9
$LTSCALE
 40
1.0
  9
$OSMODE
 70
    37
  9
$ATTMODE
 70
     1
  9
$TEXTSIZE
 40
0.2
  9
$TRACEWID
 40
0.05
  9
$TEXTSTYLE
  7
STANDARD
  9
$CLAYER
  8
ADP1DETAIL
  9
$CELTYPE
  6
BYLAYER
  9
$CECOLOR
 62
   256
  9
$CELTSCALE
 40
1.0
  9
$DELOBJ
 70
     1
  9
$DISPSILH
 70
     0
  9
$DIMSCALE
 40
1.0
  9
$DIMASZ
 40
0.125
  9
$DIMEXO
 40
0.0625
  9
$DIMDLI
 40
0.38
  9
$DIMRND
 40
0.0
  9
$DIMDLE
 40
0.0
  9
$DIMEXE
 40
0.18
  9
$DIMTP
 40
0.0
  9
$DIMTM
 40
0.0
  9
$DIMTXT
 40
0.125
  9
$DIMCEN
 40
0.1875
  9
$DIMTSZ
 40
0.125
  9
$DIMTOL
 70
     0
  9
$DIMLIM
 70
     0
  9
$DIMTIH
 70
     0
  9
$DIMTOH
 70
     0
  9
$DIMSE1
 70
     0
  9
$DIMSE2
 70
     0
  9
$DIMTAD
 70
     0
  9
$DIMZIN
 70
     3
  9
$DIMBLK
  1

  9
$DIMASO
 70
     1
  9
$DIMSHO
 70
     1
  9
$DIMPOST
  1

  9
$DIMAPOST
  1

  9
$DIMALT
 70
     0
  9
$DIMALTD
 70
     1
  9
$DIMALTF
 40
25.4
  9
$DIMLFAC
 40
1.0
  9
$DIMTOFL
 70
     0
  9
$DIMTVP
 40
0.0
  9
$DIMTIX
 70
     0
  9
$DIMSOXD
 70
     0
  9
$DIMSAH
 70
     0
  9
$DIMBLK1
  1

  9
$DIMBLK2
  1

  9
$DIMSTYLE
  2
STANDARD
  9
$DIMCLRD
 70
     0
  9
$DIMCLRE
 70
     0
  9
$DIMCLRT
 70
     0
  9
$DIMTFAC
 40
1.0
  9
$DIMGAP
 40
0.125
  9
$DIMJUST
 70
     0
  9
$DIMSD1
 70
     0
  9
$DIMSD2
 70
     0
  9
$DIMTOLJ
 70
     1
  9
$DIMTZIN
 70
     3
  9
$DIMALTZ
 70
     3
  9
$DIMALTTZ
 70
     3
  9
$DIMFIT
 70
     5
  9
$DIMUPT
 70
     0
  9
$DIMUNIT
 70
     5
  9
$DIMDEC
 70
     4
  9
$DIMTDEC
 70
     4
  9
$DIMALTU
 70
     5
  9
$DIMALTTD
 70
     1
  9
$DIMTXSTY
  7
STANDARD
  9
$DIMAUNIT
 70
     0
  9
$LUNITS
 70
     5
  9
$LUPREC
 70
     4
  9
$SKETCHINC
 40
0.1
  9
$FILLETRAD
 40
0.01
  9
$AUNITS
 70
     0
  9
$AUPREC
 70
     0
  9
$MENU
  1
acad
  9
$ELEVATION
 40
0.0
  9
$PELEVATION
 40
0.0
  9
$THICKNESS
 40
0.0
  9
$LIMCHECK
 70
     0
  9
$BLIPMODE
 70
     0
  9
$CHAMFERA
 40
0.0
  9
$CHAMFERB
 40
0.0
  9
$CHAMFERC
 40
0.0
  9
$CHAMFERD
 40
0.0
  9
$SKPOLY
 70
     0
  9
$TDCREATE
 40
2450210.637979352
  9
$TDUPDATE
 40
2452297.063647812
  9
$TDINDWG
 40
0.0082538310
  9
$TDUSRTIMER
 40
0.0082538310
  9
$USRTIMER
 70
     1
  9
$ANGBASE
 50
0.0
  9
$ANGDIR
 70
     0
  9
$PDMODE
 70
     0
  9
$PDSIZE
 40
0.0
  9
$PLINEWID
 40
0.0
  9
$COORDS
 70
     2
  9
$SPLFRAME
 70
     0
  9
$SPLINETYPE
 70
     6
  9
$SPLINESEGS
 70
     8
  9
$ATTDIA
 70
     0
  9
$ATTREQ
 70
     1
  9
$HANDLING
 70
 22529
  9
$HANDSEED
  5
1A7
  9
$SURFTAB1
 70
     6
  9
$SURFTAB2
 70
     6
  9
$SURFTYPE
 70
     6
  9
$SURFU
 70
     6
  9
$SURFV
 70
     6
  9
$UCSNAME
  2

  9
$UCSORG
 10
0.0
 20
0.0
 30
0.0
  9
$UCSXDIR
 10
1.0
 20
0.0
 30
0.0
  9
$UCSYDIR
 10
0.0
 20
1.0
 30
0.0
  9
$PUCSNAME
  2

  9
$PUCSORG
 10
0.0
 20
0.0
 30
0.0
  9
$PUCSXDIR
 10
1.0
 20
0.0
 30
0.0
  9
$PUCSYDIR
 10
0.0
 20
1.0
 30
0.0
  9
$USERI1
 70
     0
  9
$USERI2
 70
     0
  9
$USERI3
 70
     0
  9
$USERI4
 70
     0
  9
$USERI5
 70
     0
  9
$USERR1
 40
0.0
  9
$USERR2
 40
0.0
  9
$USERR3
 40
0.0
  9
$USERR4
 40
0.0
  9
$USERR5
 40
0.0
  9
$WORLDVIEW
 70
     1
  9
$SHADEDGE
 70
     3
  9
$SHADEDIF
 70
    70
  9
$TILEMODE
 70
     1
  9
$MAXACTVP
 70
    15
  9
$PINSBASE
 10
0.0008545056916773
 20
1.250276130627782
 30
0.0
  9
$PLIMCHECK
 70
     0
  9
$PEXTMIN
 10
1.000000000000000E+20
 20
1.000000000000000E+20
 30
1.000000000000000E+20
  9
$PEXTMAX
 10
-1.000000000000000E+20
 20
-1.000000000000000E+20
 30
-1.000000000000000E+20
  9
$PLIMMIN
 10
0.0
 20
0.0
  9
$PLIMMAX
 10
12.0
 20
9.0
  9
$UNITMODE
 70
     0
  9
$VISRETAIN
 70
     0
  9
$PLINEGEN
 70
     0
  9
$PSLTSCALE
 70
     1
  9
$TREEDEPTH
 70
  3020
  9
$PICKSTYLE
 70
     1
  9
$CMLSTYLE
  2
STANDARD
  9
$CMLJUST
 70
     0
  9
$CMLSCALE
 40
1.0
  9
$PROXYGRAPHICS
 70
     1
  9
$MEASUREMENT
 70
     0
  0
ENDSEC
  0
SECTION
  2
CLASSES
  0
CLASS
  1
DICTIONARYVAR
  2
AcDbDictionaryVar
  3
AutoCAD 2000
 90
        0
280
     0
281
     0
  0
CLASS
  1
ACDBDICTIONARYWDFLT
  2
AcDbDictionaryWithDefault
  3
AutoCAD 2000
 90
        0
280
     0
281
     0
  0
CLASS
  1
ACDBPLACEHOLDER
  2
AcDbPlaceHolder
  3
AutoCAD 2000
 90
        0
280
     0
281
     0
  0
CLASS
  1
LAYOUT
  2
AcDbLayout
  3
AutoCAD 2000
 90
        0
280
     0
281
     0
  0
CLASS
  1
LONG_TRANSACTION
  2
AcDbLongTransaction
  3
AutoCAD 2000
 90
        0
280
     0
281
     0
  0
CLASS
  1
LWPOLYLINE
  2
AcDbPolyline
  3
AutoCAD 2000
 90
        0
280
     0
281
     1
  0
CLASS
  1
HATCH
  2
AcDbHatch
  3
AutoCAD 2000
 90
        0
280
     0
281
     1
  0
CLASS
  1
XRECORD
  2
AcDbXrecord
  3
AutoCAD 2000
 90
        0
280
     0
281
     0
  0
CLASS
  1
LONG_TRANSACTION
  2
AcDbLongTransaction
  3
AutoCAD 2000
 90
        0
280
     0
281
     0
  0
CLASS
  1
LWPOLYLINE
  2
AcDbPolyline
  3
AutoCAD 2000
 90
        0
280
     0
281
     1
  0
CLASS
  1
HATCH
  2
AcDbHatch
  3
AutoCAD 2000
 90
        0
280
     0
281
     1
  0
CLASS
  1
XRECORD
  2
AcDbXrecord
  3
AutoCAD 2000
 90
        0
280
     0
281
     0
  0
CLASS
  1
LONG_TRANSACTION
  2
AcDbLongTransaction
  3
AutoCAD 2000
 90
        0
280
     0
281
     0
  0
CLASS
  1
LWPOLYLINE
  2
AcDbPolyline
  3
AutoCAD 2000
 90
        0
280
     0
281
     1
  0
CLASS
  1
HATCH
  2
AcDbHatch
  3
AutoCAD 2000
 90
        0
280
     0
281
     1
  0
CLASS
  1
XRECORD
  2
AcDbXrecord
  3
AutoCAD 2000
 90
        0
280
     0
281
     0
  0
CLASS
  1
LONG_TRANSACTION
  2
AcDbLongTransaction
  3
AutoCAD 2000
 90
        0
280
     0
281
     0
  0
CLASS
  1
LWPOLYLINE
  2
AcDbPolyline
  3
AutoCAD 2000
 90
        0
280
     0
281
     1
  0
CLASS
  1
HATCH
  2
AcDbHatch
  3
AutoCAD 2000
 90
        0
280
     0
281
     1
  0
CLASS
  1
XRECORD
  2
AcDbXrecord
  3
AutoCAD 2000
 90
        0
280
     0
281
     0
  0
CLASS
  1
LONG_TRANSACTION
  2
AcDbLongTransaction
  3
AutoCAD 2000
 90
        0
280
     0
281
     0
  0
CLASS
  1
LWPOLYLINE
  2
AcDbPolyline
  3
AutoCAD 2000
 90
        0
280
     0
281
     1
  0
CLASS
  1
HATCH
  2
AcDbHatch
  3
AutoCAD 2000
 90
        0
280
     0
281
     1
  0
CLASS
  1
XRECORD
  2
AcDbXrecord
  3
AutoCAD 2000
 90
        0
280
     0
281
     0
  0
ENDSEC
  0
SECTION
  2
TABLES
  0
TABLE
  2
VPORT
  5
8
330
0
100
AcDbSymbolTable
 70
     2
  0
VPORT
  5
183
330
8
100
AcDbSymbolTableRecord
100
AcDbViewportTableRecord
  2
*ACTIVE
 70
     0
 10
0.0
 20
0.0
 11
1.0
 21
1.0
 12
-2.273564052142551
 22
1.5115324375138
 13
0.0
 23
0.0
 14
0.5740882589684922
 24
0.5740882589684922
 15
0.5
 25
0.5
 16
0.0
 26
0.0
 36
1.0
 17
0.0
 27
0.0
 37
0.0
 40
8.631393586368565
 41
1.570528967254408
 42
50.0
 43
0.0
 44
0.0
 50
0.0
 51
0.0
 71
     0
 72
   100
 73
     1
 74
     1
 75
     0
 76
     0
 77
     0
 78
     0
  0
ENDTAB
  0
TABLE
  2
LTYPE
  5
5
330
0
100
AcDbSymbolTable
 70
     2
  0
LTYPE
  5
11
330
5
100
AcDbSymbolTableRecord
100
AcDbLinetypeTableRecord
  2
BYBLOCK
 70
     0
  3

 72
    65
 73
     0
 40
0.0
  0
LTYPE
  5
12
330
5
100
AcDbSymbolTableRecord
100
AcDbLinetypeTableRecord
  2
BYLAYER
 70
     0
  3

 72
    65
 73
     0
 40
0.0
  0
LTYPE
  5
13
330
5
100
AcDbSymbolTableRecord
100
AcDbLinetypeTableRecord
  2
CONTINUOUS
 70
     0
  3
Solid line
 72
    65
 73
     0
 40
0.0
  0
LTYPE
  5
21
330
5
100
AcDbSymbolTableRecord
100
AcDbLinetypeTableRecord
  2
DASHDOT
 70
     0
  3
__ . __ . __ . __ . __ . __ . __ . __ . __ . __
 72
    65
 73
     4
 40
1.0
 49
0.5
 74
     0
 49
-0.25
 74
     0
 49
0.0
 74
     0
 49
-0.25
 74
     0
  0
ENDTAB
  0
TABLE
  2
LAYER
  5
2
330
0
100
AcDbSymbolTable
 70
     5
  0
LAYER
  5
E
330
2
100
AcDbSymbolTableRecord
100
AcDbLayerTableRecord
  2
0
 70
     0
 62
     7
  6
CONTINUOUS
  0
LAYER
  5
23
330
2
100
AcDbSymbolTableRecord
100
AcDbLayerTableRecord
  2
ADPDIM
 70
     0
 62
     3
  6
CONTINUOUS
  0
LAYER
  5
24
330
2
100
AcDbSymbolTableRecord
100
AcDbLayerTableRecord
  2
ADP1DETAIL
 70
     0
 62
     7
  6
CONTINUOUS
  0
LAYER
  5
25
330
2
100
AcDbSymbolTableRecord
100
AcDbLayerTableRecord
  2
ADP3DETAIL
 70
     0
 62
     1
  6
CONTINUOUS
  0
LAYER
  5
26
330
2
100
AcDbSymbolTableRecord
100
AcDbLayerTableRecord
  2
DEFPOINTS
 70
     0
 62
     7
  6
CONTINUOUS
  0
ENDTAB
  0
TABLE
  2
STYLE
  5
3
330
0
100
AcDbSymbolTable
 70
     2
  0
STYLE
  5
F
330
3
100
AcDbSymbolTableRecord
100
AcDbTextStyleTableRecord
  2
STANDARD
 70
     0
 40
0.0
 41
1.0
 50
0.0
 71
     0
 42
0.2
  3
txt
  4

  0
STYLE
  5
8B
330
3
100
AcDbSymbolTableRecord
100
AcDbTextStyleTableRecord
  2
ARIAL_WIDE
 70
     0
 40
0.0
 41
1.25
 50
0.0
 71
     0
 42
0.2
  3
ARIAL.TTF
  4

1001
ACAD
1000
Arial
1071
       34
  0
ENDTAB
  0
TABLE
  2
VIEW
  5
6
330
0
100
AcDbSymbolTable
 70
     0
  0
ENDTAB
  0
TABLE
  2
UCS
  5
7
330
0
100
AcDbSymbolTable
 70
     0
  0
ENDTAB
  0
TABLE
  2
APPID
  5
9
330
0
100
AcDbSymbolTable
 70
     1
  0
APPID
  5
10
330
9
100
AcDbSymbolTableRecord
100
AcDbRegAppTableRecord
  2
ACAD
 70
     0
  0
ENDTAB
  0
TABLE
  2
DIMSTYLE
  5
A
330
0
100
AcDbSymbolTable
 70
     1
  0
DIMSTYLE
105
89
330
A
100
AcDbSymbolTableRecord
100
AcDbDimStyleTableRecord
  2
STANDARD
 70
     0
  3

  4

  5

  6

  7

 40
1.0
 41
0.18
 42
0.0625
 43
0.38
 44
0.18
 45
0.0
 46
0.0
 47
0.0
 48
0.0
140
0.18
141
0.09
142
0.0
143
25.4
144
1.0
145
0.0
146
1.0
147
0.09
 71
     0
 72
     0
 73
     1
 74
     1
 75
     0
 76
     0
 77
     0
 78
     0
170
     0
171
     2
172
     0
173
     0
174
     0
175
     0
176
     0
177
     0
178
     0
270
     2
271
     4
272
     4
273
     2
274
     2
340
F
275
     0
280
     0
281
     0
282
     0
283
     1
284
     0
285
     0
286
     0
287
     3
288
     0
  0
ENDTAB
  0
TABLE
  2
BLOCK_RECORD
  5
1
330
0
100
AcDbSymbolTable
 70
     5
  0
BLOCK_RECORD
  5
17
102
{ACAD_XDICTIONARY
360
C4
102
}
330
1
100
AcDbSymbolTableRecord
100
AcDbBlockTableRecord
  2
*MODEL_SPACE
  0
BLOCK_RECORD
  5
14
102
{ACAD_XDICTIONARY
360
C2
102
}
330
1
100
AcDbSymbolTableRecord
100
AcDbBlockTableRecord
  2
*PAPER_SPACE
  0
BLOCK_RECORD
  5
1C
330
1
100
AcDbSymbolTableRecord
100
AcDbBlockTableRecord
  2
*D0
  0
BLOCK_RECORD
  5
1D
330
1
100
AcDbSymbolTableRecord
100
AcDbBlockTableRecord
  2
*D1
  0
BLOCK_RECORD
  5
1E
330
1
100
AcDbSymbolTableRecord
100
AcDbBlockTableRecord
  2
*D2
  0
BLOCK_RECORD
  5
1F
330
1
100
AcDbSymbolTableRecord
100
AcDbBlockTableRecord
  2
*D3
  0
BLOCK_RECORD
  5
20
330
1
100
AcDbSymbolTableRecord
100
AcDbBlockTableRecord
  2
*D4
  0
ENDTAB
  0
ENDSEC
  0
SECTION
  2
BLOCKS
  0
BLOCK
  5
29
330
17
100
AcDbEntity
  8
0
100
AcDbBlockBegin
  2
*MODEL_SPACE
 70
     0
 10
0.0
 20
0.0
 30
0.0
  3
*MODEL_SPACE
  1

  0
ENDBLK
  5
2A
330
17
100
AcDbEntity
  8
0
100
AcDbBlockEnd
  0
BLOCK
  5
27
330
14
100
AcDbEntity
 67
     1
  8
0
100
AcDbBlockBegin
  2
*PAPER_SPACE
 70
     0
 10
0.0
 20
0.0
 30
0.0
  3
*PAPER_SPACE
  1

  0
ENDBLK
  5
28
330
14
100
AcDbEntity
 67
     1
  8
0
100
AcDbBlockEnd
  0
BLOCK
  5
2D
330
1C
100
AcDbEntity
  8
0
100
AcDbBlockBegin
  2
*D0
 70
     1
 10
0.0
 20
0.0
 30
0.0
  3
*D0
  1

  0
LINE
  5
2E
330
1C
100
AcDbEntity
  8
0
  6
BYBLOCK
 62
     0
100
AcDbLine
 10
-1.309156358456377
 20
-0.4041305872951702
 30
0.0
 11
-1.910744740226437
 21
-0.4041305872951701
 31
0.0
  0
LINE
  5
2F
330
1C
100
AcDbEntity
  8
0
  6
BYBLOCK
 62
     0
100
AcDbLine
 10
-1.309156358456377
 20
-0.9041305872951701
 30
0.0
 11
-1.910744740226437
 21
-0.9041305872951701
 31
0.0
  0
LINE
  5
30
330
1C
100
AcDbEntity
  8
0
  6
BYBLOCK
 62
     0
100
AcDbLine
 10
-1.730744740226437
 20
-0.4041305872951701
 30
0.0
 11
-1.730744740226437
 21
-0.1541305872951701
 31
0.0
  0
LINE
  5
31
330
1C
100
AcDbEntity
  8
0
  6
BYBLOCK
 62
     0
100
AcDbLine
 10
-1.730744740226437
 20
-0.9041305872951701
 30
0.0
 11
-1.730744740226437
 21
-1.15413058729517
 31
0.0
  0
LINE
  5
32
330
1C
100
AcDbEntity
  8
0
  6
BYBLOCK
 62
     0
100
AcDbLine
 10
-1.605744740226437
 20
-0.5291305872951701
 30
0.0
 11
-1.855744740226437
 21
-0.2791305872951701
 31
0.0
  0
LINE
  5
33
330
1C
100
AcDbEntity
  8
0
  6
BYBLOCK
 62
     0
100
AcDbLine
 10
-1.605744740226437
 20
-1.02913058729517
 30
0.0
 11
-1.855744740226437
 21
-0.7791305872951702
 31
0.0
  0
TEXT
  5
34
330
1C
100
AcDbEntity
  8
0
  6
BYBLOCK
 62
     0
100
AcDbText
 10
-1.668244740226437
 20
-1.570797253961836
 30
0.0
 40
0.125
  1
1/2
 50
90.0
 72
     1
 11
-1.730744740226437
 21
-1.424963920628503
 31
0.0
100
AcDbText
 73
     2
  0
POINT
  5
36
330
1C
100
AcDbEntity
  8
DEFPOINTS
  6
BYBLOCK
 62
     0
100
AcDbPoint
 10
-1.246656358456377
 20
-0.4041305872951702
 30
0.0
  0
POINT
  5
37
330
1C
100
AcDbEntity
  8
DEFPOINTS
  6
BYBLOCK
 62
     0
100
AcDbPoint
 10
-1.246656358456377
 20
-0.9041305872951701
 30
0.0
  0
POINT
  5
38
330
1C
100
AcDbEntity
  8
DEFPOINTS
  6
BYBLOCK
 62
     0
100
AcDbPoint
 10
-1.730744740226437
 20
-0.9041305872951701
 30
0.0
  0
ENDBLK
  5
39
330
1C
100
AcDbEntity
  8
0
100
AcDbBlockEnd
  0
BLOCK
  5
3A
330
1D
100
AcDbEntity
  8
0
100
AcDbBlockBegin
  2
*D1
 70
     1
 10
0.0
 20
0.0
 30
0.0
  3
*D1
  1

  0
LINE
  5
3B
330
1D
100
AcDbEntity
  8
0
  6
BYBLOCK
 62
     0
100
AcDbLine
 10
-3.192904556449741
 20
1.491604516268315
 30
0.0
 11
-2.163541213516573
 21
1.491604516268315
 31
0.0
  0
LINE
  5
3C
330
1D
100
AcDbEntity
  8
0
  6
BYBLOCK
 62
     0
100
AcDbLine
 10
-1.312561787303375
 20
0.0000000000000013
 30
0.0
 11
-2.523541213516573
 21
0.0000000000000014
 31
0.0
  0
LINE
  5
3D
330
1D
100
AcDbEntity
  8
0
  6
BYBLOCK
 62
     0
100
AcDbLine
 10
-2.343541213516573
 20
1.491604516268315
 30
0.0
 11
-2.343541213516573
 21
1.120802258134158
 31
0.0
  0
LINE
  5
3E
330
1D
100
AcDbEntity
  8
0
  6
BYBLOCK
 62
     0
100
AcDbLine
 10
-2.343541213516573
 20
0.0000000000000014
 30
0.0
 11
-2.343541213516573
 21
0.3708022581341584
 31
0.0
  0
LINE
  5
3F
330
1D
100
AcDbEntity
  8
0
  6
BYBLOCK
 62
     0
100
AcDbLine
 10
-2.218541213516573
 20
1.366604516268315
 30
0.0
 11
-2.468541213516573
 21
1.616604516268315
 31
0.0
  0
LINE
  5
40
330
1D
100
AcDbEntity
  8
0
  6
BYBLOCK
 62
     0
100
AcDbLine
 10
-2.218541213516573
 20
-0.1249999999999986
 30
0.0
 11
-2.468541213516573
 21
0.1250000000000014
 31
0.0
  0
TEXT
  5
41
330
1D
100
AcDbEntity
  8
0
  6
BYBLOCK
 62
     0
100
AcDbText
 10
-2.281041213516573
 20
0.4958022581341584
 30
0.0
 40
0.125
  1
1 1/2
 50
90.0
 72
     1
 11
-2.343541213516573
 21
0.7458022581341584
 31
0.0
100
AcDbText
 73
     2
  0
POINT
  5
42
330
1D
100
AcDbEntity
  8
DEFPOINTS
  6
BYBLOCK
 62
     0
100
AcDbPoint
 10
-3.255404556449741
 20
1.491604516268315
 30
0.0
  0
POINT
  5
43
330
1D
100
AcDbEntity
  8
DEFPOINTS
  6
BYBLOCK
 62
     0
100
AcDbPoint
 10
-1.250061787303375
 20
0.0000000000000013
 30
0.0
  0
POINT
  5
44
330
1D
100
AcDbEntity
  8
DEFPOINTS
  6
BYBLOCK
 62
     0
100
AcDbPoint
 10
-2.343541213516573
 20
0.0000000000000014
 30
0.0
  0
ENDBLK
  5
45
330
1D
100
AcDbEntity
  8
0
100
AcDbBlockEnd
  0
BLOCK
  5
46
330
1E
100
AcDbEntity
  8
0
100
AcDbBlockBegin
  2
*D2
 70
     1
 10
0.0
 20
0.0
 30
0.0
  3
*D2
  1

  0
LINE
  5
47
330
1E
100
AcDbEntity
  8
0
  6
BYBLOCK
 62
     0
100
AcDbLine
 10
-1.246656358456377
 20
-0.9666305872951701
 30
0.0
 11
-1.246656358456377
 21
-1.295815051166979
 31
0.0
  0
LINE
  5
48
330
1E
100
AcDbEntity
  8
0
  6
BYBLOCK
 62
     0
100
AcDbLine
 10
0.0033436415436228
 20
-0.9666305872951701
 30
0.0
 11
0.0033436415436228
 21
-1.295815051166979
 31
0.0
  0
LINE
  5
49
330
1E
100
AcDbEntity
  8
0
  6
BYBLOCK
 62
     0
100
AcDbLine
 10
-1.246656358456377
 20
-1.115815051166979
 30
0.0
 11
-0.9966563584563772
 21
-1.115815051166979
 31
0.0
  0
LINE
  5
4A
330
1E
100
AcDbEntity
  8
0
  6
BYBLOCK
 62
     0
100
AcDbLine
 10
0.0033436415436228
 20
-1.115815051166979
 30
0.0
 11
-0.2466563584563772
 21
-1.115815051166979
 31
0.0
  0
LINE
  5
4B
330
1E
100
AcDbEntity
  8
0
  6
BYBLOCK
 62
     0
100
AcDbLine
 10
-1.371656358456377
 20
-1.240815051166979
 30
0.0
 11
-1.121656358456377
 21
-0.9908150511669795
 31
0.0
  0
LINE
  5
4C
330
1E
100
AcDbEntity
  8
0
  6
BYBLOCK
 62
     0
100
AcDbLine
 10
-0.1216563584563772
 20
-1.240815051166979
 30
0.0
 11
0.1283436415436228
 21
-0.9908150511669795
 31
0.0
  0
TEXT
  5
4D
330
1E
100
AcDbEntity
  8
0
  6
BYBLOCK
 62
     0
100
AcDbText
 10
-0.8716563584563772
 20
-1.178315051166979
 30
0.0
 40
0.125
  1
1 1/4
 72
     1
 11
-0.6216563584563773
 21
-1.115815051166979
 31
0.0
100
AcDbText
 73
     2
  0
POINT
  5
4E
330
1E
100
AcDbEntity
  8
DEFPOINTS
  6
BYBLOCK
 62
     0
100
AcDbPoint
 10
-1.246656358456377
 20
-0.9041305872951701
 30
0.0
  0
POINT
  5
4F
330
1E
100
AcDbEntity
  8
DEFPOINTS
  6
BYBLOCK
 62
     0
100
AcDbPoint
 10
0.0033436415436228
 20
-0.9041305872951701
 30
0.0
  0
POINT
  5
50
330
1E
100
AcDbEntity
  8
DEFPOINTS
  6
BYBLOCK
 62
     0
100
AcDbPoint
 10
0.0033436415436228
 20
-1.115815051166979
 30
0.0
  0
ENDBLK
  5
51
330
1E
100
AcDbEntity
  8
0
100
AcDbBlockEnd
  0
BLOCK
  5
52
330
1F
100
AcDbEntity
  8
0
100
AcDbBlockBegin
  2
*D3
 70
     1
 10
0.0
 20
0.0
 30
0.0
  3
*D3
  1

  0
LINE
  5
53
330
1F
100
AcDbEntity
  8
0
  6
BYBLOCK
 62
     0
100
AcDbLine
 10
-0.1216563584563772
 20
-0.3416305872951701
 30
0.0
 11
-0.1216563584563772
 21
-0.1193178732065012
 31
0.0
  0
LINE
  5
54
330
1F
100
AcDbEntity
  8
0
  6
BYBLOCK
 62
     0
100
AcDbLine
 10
0.0033436415436228
 20
-0.3416305872951701
 30
0.0
 11
0.0033436415436228
 21
-0.1193178732065012
 31
0.0
  0
LINE
  5
55
330
1F
100
AcDbEntity
  8
0
  6
BYBLOCK
 62
     0
100
AcDbLine
 10
-0.1216563584563772
 20
-0.2993178732065011
 30
0.0
 11
-0.3716563584563772
 21
-0.2993178732065011
 31
0.0
  0
LINE
  5
56
330
1F
100
AcDbEntity
  8
0
  6
BYBLOCK
 62
     0
100
AcDbLine
 10
0.0033436415436228
 20
-0.2993178732065011
 30
0.0
 11
0.2533436415436228
 21
-0.2993178732065011
 31
0.0
  0
LINE
  5
57
330
1F
100
AcDbEntity
  8
0
  6
BYBLOCK
 62
     0
100
AcDbLine
 10
-0.2466563584563772
 20
-0.4243178732065012
 30
0.0
 11
0.0033436415436228
 21
-0.1743178732065012
 31
0.0
  0
LINE
  5
58
330
1F
100
AcDbEntity
  8
0
  6
BYBLOCK
 62
     0
100
AcDbLine
 10
-0.1216563584563772
 20
-0.4243178732065012
 30
0.0
 11
0.1283436415436228
 21
-0.1743178732065012
 31
0.0
  0
TEXT
  5
59
330
1F
100
AcDbEntity
  8
0
  6
BYBLOCK
 62
     0
100
AcDbText
 10
0.3783436415436227
 20
-0.3618178732065012
 30
0.0
 40
0.125
  1
1/8
 72
     1
 11
0.524176974876956
 21
-0.2993178732065011
 31
0.0
100
AcDbText
 73
     2
  0
POINT
  5
5A
330
1F
100
AcDbEntity
  8
DEFPOINTS
  6
BYBLOCK
 62
     0
100
AcDbPoint
 10
-0.1216563584563772
 20
-0.4041305872951702
 30
0.0
  0
POINT
  5
5B
330
1F
100
AcDbEntity
  8
DEFPOINTS
  6
BYBLOCK
 62
     0
100
AcDbPoint
 10
0.0033436415436228
 20
-0.4041305872951702
 30
0.0
  0
POINT
  5
5C
330
1F
100
AcDbEntity
  8
DEFPOINTS
  6
BYBLOCK
 62
     0
100
AcDbPoint
 10
0.0033436415436228
 20
-0.2993178732065011
 30
0.0
  0
ENDBLK
  5
5D
330
1F
100
AcDbEntity
  8
0
100
AcDbBlockEnd
  0
BLOCK
  5
5E
330
20
100
AcDbEntity
  8
0
100
AcDbBlockBegin
  2
*D4
 70
     1
 10
0.0
 20
0.0
 30
0.0
  3
*D4
  1

  0
LINE
  5
5F
330
20
100
AcDbEntity
  8
0
  6
BYBLOCK
 62
     0
100
AcDbLine
 10
-1.338200343827471
 20
3.272842217656052
 30
0.0
 11
-3.173803195301356
 21
1.476362801473694
 31
0.0
  0
LINE
  5
60
330
20
100
AcDbEntity
  8
0
  6
BYBLOCK
 62
     0
100
AcDbLine
 10
-1.340104405986213
 20
3.096075776985613
 30
0.0
 11
-1.336296281668728
 21
3.44960865832649
 31
0.0
  0
TEXT
  5
61
330
20
100
AcDbEntity
  8
0
  6
BYBLOCK
 62
     0
100
AcDbText
 10
-3.695877526299172
 20
0.8779643104793622
 30
0.0
 40
0.125
  1
R2 1/2
 50
44.38285510439217
 72
     1
 11
-3.501365783821521
 21
1.155781774202252
 31
0.0
100
AcDbText
 73
     2
  0
POINT
  5
62
330
20
100
AcDbEntity
  8
DEFPOINTS
  6
BYBLOCK
 62
     0
100
AcDbPoint
 10
-1.338200343827471
 20
3.272842217656052
 30
0.0
  0
POINT
  5
63
330
20
100
AcDbEntity
  8
DEFPOINTS
  6
BYBLOCK
 62
     0
100
AcDbPoint
 10
-3.12490537211928
 20
1.524218432539091
 30
0.0
  0
ENDBLK
  5
64
330
20
100
AcDbEntity
  8
0
100
AcDbBlockEnd
  0
ENDSEC
  0
SECTION
  2
ENTITIES
  0
LINE
  5
65
330
17
100
AcDbEntity
  8
ADP3DETAIL
  6
DASHDOT
100
AcDbLine
 10
-3.095268825711455
 20
4.024042761390423
 30
0.0
 11
-5.046750063547653
 21
4.029181021662209
 31
0.0
  0
LINE
  5
66
330
17
100
AcDbEntity
  8
ADP1DETAIL
100
AcDbLine
 10
-3.095268825711455
 20
4.648557890123905
 30
0.0
 11
-4.595268825711455
 21
4.648557890123905
 31
0.0
  0
LINE
  5
67
330
17
100
AcDbEntity
  8
ADP1DETAIL
100
AcDbLine
 10
-3.095268825711455
 20
4.523569532196015
 30
0.0
 11
-4.595268825711455
 21
4.523569532196015
 31
0.0
  0
LINE
  5
68
330
17
100
AcDbEntity
  8
ADP1DETAIL
100
AcDbLine
 10
-3.095268825711455
 20
4.461068901173305
 30
0.0
 11
-4.595268825711455
 21
4.461068901173306
 31
0.0
  0
LINE
  5
69
330
17
100
AcDbEntity
  8
ADP1DETAIL
100
AcDbLine
 10
-3.095268825711455
 20
3.523986599106509
 30
0.0
 11
-4.595268825711455
 21
3.52398659910651
 31
0.0
  0
LINE
  5
6A
330
17
100
AcDbEntity
  8
ADP1DETAIL
100
AcDbLine
 10
-3.095268825711455
 20
3.586487696780159
 30
0.0
 11
-4.595268825711455
 21
3.58648769678016
 31
0.0
  0
LINE
  5
6B
330
17
100
AcDbEntity
  8
ADP1DETAIL
100
AcDbLine
 10
-4.595268825711455
 20
3.398984979215029
 30
0.0
 11
-3.095268825711455
 21
3.398984197939402
 31
0.0
  0
LINE
  5
6C
330
17
100
AcDbEntity
  8
ADP1DETAIL
100
AcDbLine
 10
-4.595268825711455
 20
4.648557890123905
 30
0.0
 11
-4.595268825711455
 21
3.398984979215029
 31
0.0
  0
DIMENSION
  5
6D
330
17
100
AcDbEntity
  8
ADPDIM
100
AcDbDimension
  2
*D4
 10
-3.12490537211928
 20
1.524218432539091
 30
0.0
 11
-3.501365783821521
 21
1.155781774202252
 31
0.0
 70
     4
100
AcDbRadialDimension
 15
-1.338200343827471
 25
3.272842217656052
 35
0.0
 40
-2.568418992513869
  0
LINE
  5
6E
330
17
100
AcDbEntity
  8
ADP3DETAIL
  6
DASHDOT
100
AcDbLine
 10
-0.6238052147005267
 20
-0.3189357029973057
 30
0.0
 11
-0.6250226813665006
 21
1.500000000000001
 31
0.0
  0
LINE
  5
6F
330
17
100
AcDbEntity
  8
ADP1DETAIL
100
AcDbLine
 10
-1.062562367679479
 20
0.0000000000000013
 30
0.0
 11
-1.062561586403852
 21
1.500000000000001
 31
0.0
  0
LINE
  5
70
330
17
100
AcDbEntity
  8
ADP1DETAIL
100
AcDbLine
 10
-1.125062430706774
 20
0.0000000000000013
 30
0.0
 11
-1.125061649431147
 21
1.500000000000001
 31
0.0
  0
LINE
  5
71
330
17
100
AcDbEntity
  8
ADP1DETAIL
100
AcDbLine
 10
-1.250061787303375
 20
1.500000000000001
 30
0.0
 11
-1.250061787303375
 21
0.0000000000000013
 31
0.0
  0
LINE
  5
72
330
17
100
AcDbEntity
  8
ADP1DETAIL
100
AcDbLine
 10
-0.1875001041700415
 20
0.0
 30
0.0
 11
-0.1874993228944142
 21
1.5
 31
0.0
  0
LINE
  5
73
330
17
100
AcDbEntity
  8
ADP1DETAIL
100
AcDbLine
 10
-0.1250000679369823
 20
0.0
 30
0.0
 11
-0.124999286661355
 21
1.5
 31
0.0
  0
LINE
  5
74
330
17
100
AcDbEntity
  8
ADP1DETAIL
100
AcDbLine
 10
0.0
 20
0.0
 30
0.0
 11
0.0000007812756273
 21
1.5
 31
0.0
  0
DIMENSION
  5
75
330
17
100
AcDbEntity
  8
ADPDIM
100
AcDbDimension
  2
*D1
 10
-2.343541213516573
 20
0.0000000000000014
 30
0.0
 11
-2.343541213516573
 21
0.7458022581341584
 31
0.0
100
AcDbAlignedDimension
 13
-3.255404556449741
 23
1.491604516268315
 33
0.0
 14
-1.250061787303375
 24
0.0000000000000013
 34
0.0
 50
90.0
100
AcDbRotatedDimension
  0
DIMENSION
  5
76
330
17
100
AcDbEntity
  8
ADPDIM
100
AcDbDimension
  2
*D0
 10
-1.730744740226437
 20
-0.9041305872951701
 30
0.0
 11
-1.730744740226437
 21
-1.424963920628503
 31
0.0
100
AcDbAlignedDimension
 13
-1.246656358456377
 23
-0.4041305872951702
 33
0.0
 14
-1.246656358456377
 24
-0.9041305872951701
 34
0.0
 50
90.0
100
AcDbRotatedDimension
  0
LINE
  5
77
330
17
100
AcDbEntity
  8
ADP1DETAIL
100
AcDbLine
 10
0.0033436415436228
 20
-0.9041305872951701
 30
0.0
 11
-1.246656358456377
 21
-0.9041305872951701
 31
0.0
  0
LINE
  5
78
330
17
100
AcDbEntity
  8
ADP1DETAIL
100
AcDbLine
 10
-0.1841563584563772
 20
-0.7791305872951702
 30
0.0
 11
-1.059156358456377
 21
-0.7791305872951702
 31
0.0
  0
LINE
  5
79
330
17
100
AcDbEntity
  8
ADP1DETAIL
100
AcDbLine
 10
-1.250061787303375
 20
0.0000000000000013
 30
0.0
 11
0.0
 21
0.0
 31
0.0
  0
DIMENSION
  5
7A
330
17
100
AcDbEntity
  8
ADPDIM
100
AcDbDimension
  2
*D2
 10
0.0033436415436228
 20
-1.115815051166979
 30
0.0
 11
-0.6216563584563773
 21
-1.115815051166979
 31
0.0
100
AcDbAlignedDimension
 13
-1.246656358456377
 23
-0.9041305872951701
 33
0.0
 14
0.0033436415436228
 24
-0.9041305872951701
 34
0.0
100
AcDbRotatedDimension
  0
DIMENSION
  5
7B
330
17
100
AcDbEntity
  8
ADPDIM
100
AcDbDimension
  2
*D3
 10
0.0033436415436228
 20
-0.2993178732065011
 30
0.0
 11
0.524176974876956
 21
-0.2993178732065011
 31
0.0
100
AcDbAlignedDimension
 13
-0.1216563584563772
 23
-0.4041305872951702
 33
0.0
 14
0.0033436415436228
 24
-0.4041305872951702
 34
0.0
100
AcDbRotatedDimension
  0
LINE
  5
7C
330
17
100
AcDbEntity
  8
ADP1DETAIL
100
AcDbLine
 10
-1.246656358456377
 20
-0.9041305872951701
 30
0.0
 11
-1.246656358456377
 21
-0.4041305872951702
 31
0.0
  0
LINE
  5
7D
330
17
100
AcDbEntity
  8
ADP1DETAIL
100
AcDbLine
 10
-1.246656358456377
 20
-0.4041305872951702
 30
0.0
 11
-1.121656358456377
 21
-0.4041305872951702
 31
0.0
  0
LINE
  5
7E
330
17
100
AcDbEntity
  8
ADP1DETAIL
100
AcDbLine
 10
-1.059156358456377
 20
-0.7791305872951702
 30
0.0
 11
-1.121656358456377
 21
-0.4041305872951702
 31
0.0
  0
LINE
  5
7F
330
17
100
AcDbEntity
  8
ADP1DETAIL
100
AcDbLine
 10
0.0033436415436228
 20
-0.9041305872951701
 30
0.0
 11
0.0033436415436228
 21
-0.4041305872951702
 31
0.0
  0
LINE
  5
80
330
17
100
AcDbEntity
  8
ADP1DETAIL
100
AcDbLine
 10
0.0033436415436228
 20
-0.4041305872951702
 30
0.0
 11
-0.1216563584563772
 21
-0.4041305872951702
 31
0.0
  0
LINE
  5
81
330
17
100
AcDbEntity
  8
ADP1DETAIL
100
AcDbLine
 10
-0.1841563584563772
 20
-0.7791305872951702
 30
0.0
 11
-0.1216563584563772
 21
-0.4041305872951702
 31
0.0
  0
ARC
  5
82
330
17
100
AcDbEntity
  8
ADP3DETAIL
  6
DASHDOT
100
AcDbCircle
 10
-3.124905372119279
 20
1.52421843253909
 30
0.0
 40
2.5
100
AcDbArc
 50
359.4449457298748
 51
89.32076447890947
  0
ARC
  5
83
330
17
100
AcDbEntity
  8
ADP1DETAIL
100
AcDbCircle
 10
-3.124905372119279
 20
1.52421843253909
 30
0.0
 40
1.875
100
AcDbArc
 50
359.2599186358501
 51
89.09433613775737
  0
ARC
  5
84
330
17
100
AcDbEntity
  8
ADP1DETAIL
100
AcDbCircle
 10
-3.124905372119279
 20
1.52421843253909
 30
0.0
 40
2.0
100
AcDbArc
 50
359.306176057578
 51
89.15094441103354
  0
ARC
  5
85
330
17
100
AcDbEntity
  8
ADP1DETAIL
100
AcDbCircle
 10
-3.124905372119279
 20
1.52421843253909
 30
0.0
 40
2.063
100
AcDbArc
 50
359.3273650775502
 51
89.17687472627234
  0
ARC
  5
86
330
17
100
AcDbEntity
  8
ADP1DETAIL
100
AcDbCircle
 10
-3.143505586943311
 20
1.516919748044089
 30
0.0
 40
3.143551902690155
100
AcDbArc
 50
359.6916116341858
 51
89.1759310147121
  0
ARC
  5
87
330
17
100
AcDbEntity
  8
ADP1DETAIL
100
AcDbCircle
 10
-3.124905372119279
 20
1.52421843253909
 30
0.0
 40
2.936999999999999
100
AcDbArc
 50
359.5275350027957
 51
89.4218325343321
  0
ARC
  5
88
330
17
100
AcDbEntity
  8
ADP1DETAIL
100
AcDbCircle
 10
-3.124905372119279
 20
1.52421843253909
 30
0.0
 40
3.0
100
AcDbArc
 50
359.5374569855939
 51
89.43397445034655
  0
TEXT
  5
92
330
17
100
AcDbEntity
  8
ADPDIM
100
AcDbText
 10
-9.016076962815439
 20
-2.237190978719234
 30
0.0
 40
0.125
  1
J U L I U S  B L U M  &  C O . ,  I N C .      ( 8 0 0 )  5 2 6 - 6 2 9 3        W W W . J U L I U S B L U M . C O M        P A R T  N O .  1 2 5 - C C
 41
1.25
  7
ARIAL_WIDE
 72
     1
 11
-2.272226775230173
 21
-2.112190978719234
 31
0.0
100
AcDbText
 73
     3
  0
ENDSEC
  0
SECTION
  2
OBJECTS
  0
DICTIONARY
  5
C
330
0
100
AcDbDictionary
  3
ACAD_GROUP
350
D
  3
ACAD_LAYOUT
350
97
  3
ACAD_MLINESTYLE
350
1A
  3
ACAD_PLOTSETTINGS
350
98
  3
ACAD_PLOTSTYLENAME
350
95
  3
ACDBHEADERROUNDTRIPXREC
350
184
  3
ACDBVARIABLEDICTIONARY
350
2B
  0
DICTIONARY
  5
C4
330
17
100
AcDbDictionary
280
     1
  3
ACAD_LAYOUTSELFREF
360
1A6
  0
DICTIONARY
  5
C2
330
14
100
AcDbDictionary
280
     1
  3
ACAD_LAYOUTSELFREF
360
1A5
  0
DICTIONARY
  5
D
102
{ACAD_REACTORS
330
C
102
}
330
C
100
AcDbDictionary
  0
DICTIONARY
  5
97
102
{ACAD_REACTORS
330
C
102
}
330
C
100
AcDbDictionary
  0
DICTIONARY
  5
1A
102
{ACAD_REACTORS
330
C
102
}
330
C
100
AcDbDictionary
  3
STANDARD
350
1B
  0
DICTIONARY
  5
98
102
{ACAD_REACTORS
330
C
102
}
330
C
100
AcDbDictionary
  0
ACDBDICTIONARYWDFLT
  5
95
102
{ACAD_REACTORS
330
C
102
}
330
C
100
AcDbDictionary
281
     1
  3
Normal
350
96
100
AcDbDictionaryWithDefault
340
96
  0
DICTIONARY
  5
184
102
{ACAD_REACTORS
330
C
102
}
330
C
100
AcDbDictionary
  3
CEPSNTYPE
350
18E
  3
DIMSTYLEDATA
350
192
  3
FINGERPRINTGUID
350
18F
  3
HYPERLINKBASE
350
187
  3
INSUNITS
350
18D
  3
LAYOUTDICT
350
189
  3
LWETCUNION
350
18C
  3
PLOTSETDICT
350
18A
  3
PLOTSTYLNAMDICT
350
18B
  3
PSVPSCALE
350
191
  3
PUCSBASE
350
195
  3
PUCSORGBACK
350
19B
  3
PUCSORGBOTTOM
350
197
  3
PUCSORGFRONT
350
19A
  3
PUCSORGLEFT
350
198
  3
PUCSORGRIGHT
350
199
  3
PUCSORGTOP
350
196
  3
PUCSORTHOREF
350
193
  3
PUCSORTHOVIEW
350
194
  3
STYLESHEET
350
188
  3
TSTACKALIGN
350
185
  3
TSTACKSIZE
350
186
  3
UCSBASE
350
19E
  3
UCSORGBACK
350
1A4
  3
UCSORGBOTTOM
350
1A0
  3
UCSORGFRONT
350
1A3
  3
UCSORGLEFT
350
1A1
  3
UCSORGRIGHT
350
1A2
  3
UCSORGTOP
350
19F
  3
UCSORTHOREF
350
19C
  3
UCSORTHOVIEW
350
19D
  3
VERSIONGUID
350
190
  0
DICTIONARY
  5
2B
102
{ACAD_REACTORS
330
C
102
}
330
C
100
AcDbDictionary
  3
DIMADEC
350
2C
  3
DIMASSOC
350
CA
  0
XRECORD
  5
1A6
102
{ACAD_REACTORS
330
C4
102
}
330
C4
100
AcDbXrecord
340
17
  0
XRECORD
  5
1A5
102
{ACAD_REACTORS
330
C2
102
}
330
C2
100
AcDbXrecord
340
14
  0
MLINESTYLE
  5
1B
102
{ACAD_REACTORS
330
1A
102
}
330
1A
100
AcDbMlineStyle
  2
STANDARD
 70
     0
  3

 62
   256
 51
90.0
 52
90.0
 71
     2
 49
0.5
 62
   256
  6
BYLAYER
 49
-0.5
 62
   256
  6
BYLAYER
  0
ACDBPLACEHOLDER
  5
96
102
{ACAD_REACTORS
330
95
102
}
330
95
100
AcDbPlaceHolder
280
     0
  0
XRECORD
  5
18E
102
{ACAD_REACTORS
330
184
102
}
330
184
100
AcDbXrecord
 90
        0
  0
XRECORD
  5
192
102
{ACAD_REACTORS
330
184
102
}
330
184
100
AcDbXrecord
1000
DSTYLE
1002
{
1070
   277
 70
     5
1070
   279
 70
     2
1002
}
  0
XRECORD
  5
18F
102
{ACAD_REACTORS
330
184
102
}
330
184
100
AcDbXrecord
  1
{BE4A99EF-B716-44B8-94CF-C64D43861C7B}
  0
XRECORD
  5
187
102
{ACAD_REACTORS
330
184
102
}
330
184
100
AcDbXrecord
  1

  0
XRECORD
  5
18D
102
{ACAD_REACTORS
330
184
102
}
330
184
100
AcDbXrecord
 90
        0
  0
XRECORD
  5
189
102
{ACAD_REACTORS
330
184
102
}
330
184
100
AcDbXrecord
340
97
  0
XRECORD
  5
18C
102
{ACAD_REACTORS
330
184
102
}
330
184
100
AcDbXrecord
 90
    14877
  0
XRECORD
  5
18A
102
{ACAD_REACTORS
330
184
102
}
330
184
100
AcDbXrecord
340
98
  0
XRECORD
  5
18B
102
{ACAD_REACTORS
330
184
102
}
330
184
100
AcDbXrecord
340
95
  0
XRECORD
  5
191
102
{ACAD_REACTORS
330
184
102
}
330
184
100
AcDbXrecord
 40
0.0
  0
XRECORD
  5
195
102
{ACAD_REACTORS
330
184
102
}
330
184
100
AcDbXrecord
340
0
  0
XRECORD
  5
19B
102
{ACAD_REACTORS
330
184
102
}
330
184
100
AcDbXrecord
 10
0.0
 20
0.0
 30
0.0
  0
XRECORD
  5
197
102
{ACAD_REACTORS
330
184
102
}
330
184
100
AcDbXrecord
 10
0.0
 20
0.0
 30
0.0
  0
XRECORD
  5
19A
102
{ACAD_REACTORS
330
184
102
}
330
184
100
AcDbXrecord
 10
0.0
 20
0.0
 30
0.0
  0
XRECORD
  5
198
102
{ACAD_REACTORS
330
184
102
}
330
184
100
AcDbXrecord
 10
0.0
 20
0.0
 30
0.0
  0
XRECORD
  5
199
102
{ACAD_REACTORS
330
184
102
}
330
184
100
AcDbXrecord
 10
0.0
 20
0.0
 30
0.0
  0
XRECORD
  5
196
102
{ACAD_REACTORS
330
184
102
}
330
184
100
AcDbXrecord
 10
0.0
 20
0.0
 30
0.0
  0
XRECORD
  5
193
102
{ACAD_REACTORS
330
184
102
}
330
184
100
AcDbXrecord
340
0
  0
XRECORD
  5
194
102
{ACAD_REACTORS
330
184
102
}
330
184
100
AcDbXrecord
 70
     0
  0
XRECORD
  5
188
102
{ACAD_REACTORS
330
184
102
}
330
184
100
AcDbXrecord
  1

  0
XRECORD
  5
185
102
{ACAD_REACTORS
330
184
102
}
330
184
100
AcDbXrecord
 90
        1
  0
XRECORD
  5
186
102
{ACAD_REACTORS
330
184
102
}
330
184
100
AcDbXrecord
 90
       70
  0
XRECORD
  5
19E
102
{ACAD_REACTORS
330
184
102
}
330
184
100
AcDbXrecord
340
0
  0
XRECORD
  5
1A4
102
{ACAD_REACTORS
330
184
102
}
330
184
100
AcDbXrecord
 10
0.0
 20
0.0
 30
0.0
  0
XRECORD
  5
1A0
102
{ACAD_REACTORS
330
184
102
}
330
184
100
AcDbXrecord
 10
0.0
 20
0.0
 30
0.0
  0
XRECORD
  5
1A3
102
{ACAD_REACTORS
330
184
102
}
330
184
100
AcDbXrecord
 10
0.0
 20
0.0
 30
0.0
  0
XRECORD
  5
1A1
102
{ACAD_REACTORS
330
184
102
}
330
184
100
AcDbXrecord
 10
0.0
 20
0.0
 30
0.0
  0
XRECORD
  5
1A2
102
{ACAD_REACTORS
330
184
102
}
330
184
100
AcDbXrecord
 10
0.0
 20
0.0
 30
0.0
  0
XRECORD
  5
19F
102
{ACAD_REACTORS
330
184
102
}
330
184
100
AcDbXrecord
 10
0.0
 20
0.0
 30
0.0
  0
XRECORD
  5
19C
102
{ACAD_REACTORS
330
184
102
}
330
184
100
AcDbXrecord
340
0
  0
XRECORD
  5
19D
102
{ACAD_REACTORS
330
184
102
}
330
184
100
AcDbXrecord
 70
     0
  0
XRECORD
  5
190
102
{ACAD_REACTORS
330
184
102
}
330
184
100
AcDbXrecord
  1
{1D42F36D-1254-4F34-969E-E74CD390DE39}
  0
DICTIONARYVAR
  5
2C
102
{ACAD_REACTORS
330
2B
102
}
330
2B
100
DictionaryVariables
280
     0
  1
0
  0
DICTIONARYVAR
  5
CA
102
{ACAD_REACTORS
330
2B
102
}
330
2B
100
DictionaryVariables
280
     0
  1
1
  0
ENDSEC
  0
EOF
