  0
SECTION
  2
HEADER
  9
$ACADVER
  1
AC1014
  9
$ACADMAINTVER
 70
     9
  9
$DWGCODEPAGE
  3
ANSI_1252
  9
$INSBASE
 10
16.27664320641381
 20
8.761980085763177
 30
0.0
  9
$EXTMIN
 10
4.48325244419753
 20
7.315557049688621
 30
0.0
  9
$EXTMAX
 10
24.06043951786738
 20
15.27362928383402
 30
0.0
  9
$LIMMIN
 10
0.0
 20
0.0
  9
$LIMMAX
 10
36.0
 20
36.0
  9
$ORTHOMODE
 70
     1
  9
$REGENMODE
 70
     1
  9
$FILLMODE
 70
     1
  9
$QTEXTMODE
 70
     0
  9
$MIRRTEXT
 70
     1
  9
$DRAGMODE
 70
     0
  9
$LTSCALE
 40
1.0
  9
$OSMODE
 70
    37
  9
$ATTMODE
 70
     1
  9
$TEXTSIZE
 40
0.2
  9
$TRACEWID
 40
0.05
  9
$TEXTSTYLE
  7
STANDARD
  9
$CLAYER
  8
ADP1DETAIL
  9
$CELTYPE
  6
BYLAYER
  9
$CECOLOR
 62
   256
  9
$CELTSCALE
 40
1.0
  9
$DELOBJ
 70
     1
  9
$DISPSILH
 70
     0
  9
$DIMSCALE
 40
1.0
  9
$DIMASZ
 40
0.125
  9
$DIMEXO
 40
0.0625
  9
$DIMDLI
 40
0.38
  9
$DIMRND
 40
0.0
  9
$DIMDLE
 40
0.0
  9
$DIMEXE
 40
0.18
  9
$DIMTP
 40
0.0
  9
$DIMTM
 40
0.0
  9
$DIMTXT
 40
0.125
  9
$DIMCEN
 40
0.1875
  9
$DIMTSZ
 40
0.125
  9
$DIMTOL
 70
     0
  9
$DIMLIM
 70
     0
  9
$DIMTIH
 70
     0
  9
$DIMTOH
 70
     0
  9
$DIMSE1
 70
     0
  9
$DIMSE2
 70
     0
  9
$DIMTAD
 70
     0
  9
$DIMZIN
 70
     3
  9
$DIMBLK
  1

  9
$DIMASO
 70
     1
  9
$DIMSHO
 70
     1
  9
$DIMPOST
  1

  9
$DIMAPOST
  1

  9
$DIMALT
 70
     0
  9
$DIMALTD
 70
     1
  9
$DIMALTF
 40
25.4
  9
$DIMLFAC
 40
1.0
  9
$DIMTOFL
 70
     0
  9
$DIMTVP
 40
0.0
  9
$DIMTIX
 70
     0
  9
$DIMSOXD
 70
     0
  9
$DIMSAH
 70
     0
  9
$DIMBLK1
  1

  9
$DIMBLK2
  1

  9
$DIMSTYLE
  2
STANDARD
  9
$DIMCLRD
 70
     0
  9
$DIMCLRE
 70
     0
  9
$DIMCLRT
 70
     0
  9
$DIMTFAC
 40
1.0
  9
$DIMGAP
 40
0.125
  9
$DIMJUST
 70
     0
  9
$DIMSD1
 70
     0
  9
$DIMSD2
 70
     0
  9
$DIMTOLJ
 70
     1
  9
$DIMTZIN
 70
     3
  9
$DIMALTZ
 70
     3
  9
$DIMALTTZ
 70
     3
  9
$DIMFIT
 70
     5
  9
$DIMUPT
 70
     0
  9
$DIMUNIT
 70
     5
  9
$DIMDEC
 70
     4
  9
$DIMTDEC
 70
     4
  9
$DIMALTU
 70
     5
  9
$DIMALTTD
 70
     1
  9
$DIMTXSTY
  7
STANDARD
  9
$DIMAUNIT
 70
     0
  9
$LUNITS
 70
     5
  9
$LUPREC
 70
     4
  9
$SKETCHINC
 40
0.1
  9
$FILLETRAD
 40
0.0
  9
$AUNITS
 70
     0
  9
$AUPREC
 70
     0
  9
$MENU
  1
acad
  9
$ELEVATION
 40
0.0
  9
$PELEVATION
 40
0.0
  9
$THICKNESS
 40
0.0
  9
$LIMCHECK
 70
     0
  9
$BLIPMODE
 70
     0
  9
$CHAMFERA
 40
0.0
  9
$CHAMFERB
 40
0.0
  9
$CHAMFERC
 40
0.0
  9
$CHAMFERD
 40
0.0
  9
$SKPOLY
 70
     0
  9
$TDCREATE
 40
2450374.550173796
  9
$TDUPDATE
 40
2452297.080031643
  9
$TDINDWG
 40
0.0155262731
  9
$TDUSRTIMER
 40
0.0155262731
  9
$USRTIMER
 70
     1
  9
$ANGBASE
 50
0.0
  9
$ANGDIR
 70
     0
  9
$PDMODE
 70
     0
  9
$PDSIZE
 40
0.0
  9
$PLINEWID
 40
0.0
  9
$COORDS
 70
     2
  9
$SPLFRAME
 70
     0
  9
$SPLINETYPE
 70
     6
  9
$SPLINESEGS
 70
     8
  9
$ATTDIA
 70
     0
  9
$ATTREQ
 70
     1
  9
$HANDLING
 70
 22529
  9
$HANDSEED
  5
2C8
  9
$SURFTAB1
 70
     6
  9
$SURFTAB2
 70
     6
  9
$SURFTYPE
 70
     6
  9
$SURFU
 70
     6
  9
$SURFV
 70
     6
  9
$UCSNAME
  2

  9
$UCSORG
 10
0.0
 20
0.0
 30
0.0
  9
$UCSXDIR
 10
1.0
 20
0.0
 30
0.0
  9
$UCSYDIR
 10
0.0
 20
1.0
 30
0.0
  9
$PUCSNAME
  2

  9
$PUCSORG
 10
0.0
 20
0.0
 30
0.0
  9
$PUCSXDIR
 10
1.0
 20
0.0
 30
0.0
  9
$PUCSYDIR
 10
0.0
 20
1.0
 30
0.0
  9
$USERI1
 70
     0
  9
$USERI2
 70
     0
  9
$USERI3
 70
     0
  9
$USERI4
 70
     0
  9
$USERI5
 70
     0
  9
$USERR1
 40
0.0
  9
$USERR2
 40
0.0
  9
$USERR3
 40
0.0
  9
$USERR4
 40
0.0
  9
$USERR5
 40
0.0
  9
$WORLDVIEW
 70
     1
  9
$SHADEDGE
 70
     3
  9
$SHADEDIF
 70
    70
  9
$TILEMODE
 70
     1
  9
$MAXACTVP
 70
    15
  9
$PINSBASE
 10
0.0
 20
0.0
 30
0.0
  9
$PLIMCHECK
 70
     0
  9
$PEXTMIN
 10
1.000000000000000E+20
 20
1.000000000000000E+20
 30
1.000000000000000E+20
  9
$PEXTMAX
 10
-1.000000000000000E+20
 20
-1.000000000000000E+20
 30
-1.000000000000000E+20
  9
$PLIMMIN
 10
0.0
 20
0.0
  9
$PLIMMAX
 10
12.0
 20
9.0
  9
$UNITMODE
 70
     0
  9
$VISRETAIN
 70
     0
  9
$PLINEGEN
 70
     0
  9
$PSLTSCALE
 70
     1
  9
$TREEDEPTH
 70
  3020
  9
$PICKSTYLE
 70
     1
  9
$CMLSTYLE
  2
STANDARD
  9
$CMLJUST
 70
     0
  9
$CMLSCALE
 40
1.0
  9
$PROXYGRAPHICS
 70
     1
  9
$MEASUREMENT
 70
     0
  0
ENDSEC
  0
SECTION
  2
CLASSES
  0
CLASS
  1
ACDBDICTIONARYWDFLT
  2
AcDbDictionaryWithDefault
  3
AutoCAD 2000
 90
        0
280
     0
281
     0
  0
CLASS
  1
ACDBPLACEHOLDER
  2
AcDbPlaceHolder
  3
AutoCAD 2000
 90
        0
280
     0
281
     0
  0
CLASS
  1
LAYOUT
  2
AcDbLayout
  3
AutoCAD 2000
 90
        0
280
     0
281
     0
  0
CLASS
  1
DICTIONARYVAR
  2
AcDbDictionaryVar
  3
AutoCAD 2000
 90
        0
280
     0
281
     0
  0
CLASS
  1
LONG_TRANSACTION
  2
AcDbLongTransaction
  3
AutoCAD 2000
 90
        0
280
     0
281
     0
  0
CLASS
  1
LWPOLYLINE
  2
AcDbPolyline
  3
AutoCAD 2000
 90
        0
280
     0
281
     1
  0
CLASS
  1
HATCH
  2
AcDbHatch
  3
AutoCAD 2000
 90
        0
280
     0
281
     1
  0
CLASS
  1
XRECORD
  2
AcDbXrecord
  3
AutoCAD 2000
 90
        0
280
     0
281
     0
  0
CLASS
  1
LONG_TRANSACTION
  2
AcDbLongTransaction
  3
AutoCAD 2000
 90
        0
280
     0
281
     0
  0
CLASS
  1
LWPOLYLINE
  2
AcDbPolyline
  3
AutoCAD 2000
 90
        0
280
     0
281
     1
  0
CLASS
  1
HATCH
  2
AcDbHatch
  3
AutoCAD 2000
 90
        0
280
     0
281
     1
  0
CLASS
  1
XRECORD
  2
AcDbXrecord
  3
AutoCAD 2000
 90
        0
280
     0
281
     0
  0
CLASS
  1
LONG_TRANSACTION
  2
AcDbLongTransaction
  3
AutoCAD 2000
 90
        0
280
     0
281
     0
  0
CLASS
  1
LWPOLYLINE
  2
AcDbPolyline
  3
AutoCAD 2000
 90
        0
280
     0
281
     1
  0
CLASS
  1
HATCH
  2
AcDbHatch
  3
AutoCAD 2000
 90
        0
280
     0
281
     1
  0
CLASS
  1
XRECORD
  2
AcDbXrecord
  3
AutoCAD 2000
 90
        0
280
     0
281
     0
  0
CLASS
  1
LONG_TRANSACTION
  2
AcDbLongTransaction
  3
AutoCAD 2000
 90
        0
280
     0
281
     0
  0
CLASS
  1
LWPOLYLINE
  2
AcDbPolyline
  3
AutoCAD 2000
 90
        0
280
     0
281
     1
  0
CLASS
  1
HATCH
  2
AcDbHatch
  3
AutoCAD 2000
 90
        0
280
     0
281
     1
  0
CLASS
  1
XRECORD
  2
AcDbXrecord
  3
AutoCAD 2000
 90
        0
280
     0
281
     0
  0
CLASS
  1
LONG_TRANSACTION
  2
AcDbLongTransaction
  3
AutoCAD 2000
 90
        0
280
     0
281
     0
  0
CLASS
  1
LWPOLYLINE
  2
AcDbPolyline
  3
AutoCAD 2000
 90
        0
280
     0
281
     1
  0
CLASS
  1
HATCH
  2
AcDbHatch
  3
AutoCAD 2000
 90
        0
280
     0
281
     1
  0
CLASS
  1
XRECORD
  2
AcDbXrecord
  3
AutoCAD 2000
 90
        0
280
     0
281
     0
  0
CLASS
  1
LONG_TRANSACTION
  2
AcDbLongTransaction
  3
AutoCAD 2000
 90
        0
280
     0
281
     0
  0
CLASS
  1
LWPOLYLINE
  2
AcDbPolyline
  3
AutoCAD 2000
 90
        0
280
     0
281
     1
  0
CLASS
  1
HATCH
  2
AcDbHatch
  3
AutoCAD 2000
 90
        0
280
     0
281
     1
  0
CLASS
  1
XRECORD
  2
AcDbXrecord
  3
AutoCAD 2000
 90
        0
280
     0
281
     0
  0
ENDSEC
  0
SECTION
  2
TABLES
  0
TABLE
  2
VPORT
  5
8
330
0
100
AcDbSymbolTable
 70
     2
  0
VPORT
  5
2A4
330
8
100
AcDbSymbolTableRecord
100
AcDbViewportTableRecord
  2
*ACTIVE
 70
     0
 10
0.0
 20
0.0
 11
1.0
 21
1.0
 12
14.28731788601536
 22
11.2942200467156
 13
0.0
 23
0.0
 14
0.5740882589684922
 24
0.5740882589684922
 15
0.5
 25
0.5
 16
0.0
 26
0.0
 36
1.0
 17
0.0
 27
0.0
 37
0.0
 40
12.54751368323494
 41
1.570528967254408
 42
50.0
 43
0.0
 44
0.0
 50
0.0
 51
0.0
 71
     0
 72
   100
 73
     1
 74
     0
 75
     0
 76
     0
 77
     0
 78
     0
  0
ENDTAB
  0
TABLE
  2
LTYPE
  5
5
330
0
100
AcDbSymbolTable
 70
     2
  0
LTYPE
  5
13
330
5
100
AcDbSymbolTableRecord
100
AcDbLinetypeTableRecord
  2
BYBLOCK
 70
     0
  3

 72
    65
 73
     0
 40
0.0
  0
LTYPE
  5
14
330
5
100
AcDbSymbolTableRecord
100
AcDbLinetypeTableRecord
  2
BYLAYER
 70
     0
  3

 72
    65
 73
     0
 40
0.0
  0
LTYPE
  5
15
330
5
100
AcDbSymbolTableRecord
100
AcDbLinetypeTableRecord
  2
CONTINUOUS
 70
     0
  3
Solid line
 72
    65
 73
     0
 40
0.0
  0
LTYPE
  5
79
330
5
100
AcDbSymbolTableRecord
100
AcDbLinetypeTableRecord
  2
HIDDEN2
 70
     0
  3
_ _ _ _ _ _ _ _ _ _ _ _ _ _ _ _ _ _ _ _ _ _ _ _
 72
    65
 73
     2
 40
0.1875
 49
0.125
 74
     0
 49
-0.0625
 74
     0
  0
ENDTAB
  0
TABLE
  2
LAYER
  5
2
330
0
100
AcDbSymbolTable
 70
     5
  0
LAYER
  5
10
330
2
100
AcDbSymbolTableRecord
100
AcDbLayerTableRecord
  2
0
 70
     0
 62
     7
  6
CONTINUOUS
  0
LAYER
  5
7A
330
2
100
AcDbSymbolTableRecord
100
AcDbLayerTableRecord
  2
ADP2DETAIL
 70
     0
 62
     5
  6
CONTINUOUS
  0
LAYER
  5
7B
330
2
100
AcDbSymbolTableRecord
100
AcDbLayerTableRecord
  2
ADPDIM
 70
     0
 62
     3
  6
CONTINUOUS
  0
LAYER
  5
7D
330
2
100
AcDbSymbolTableRecord
100
AcDbLayerTableRecord
  2
ADP1DETAIL
 70
     0
 62
     7
  6
CONTINUOUS
  0
LAYER
  5
7F
330
2
100
AcDbSymbolTableRecord
100
AcDbLayerTableRecord
  2
DEFPOINTS
 70
     0
 62
     7
  6
CONTINUOUS
  0
ENDTAB
  0
TABLE
  2
STYLE
  5
3
330
0
100
AcDbSymbolTable
 70
     2
  0
STYLE
  5
11
330
3
100
AcDbSymbolTableRecord
100
AcDbTextStyleTableRecord
  2
STANDARD
 70
     0
 40
0.0
 41
1.0
 50
0.0
 71
     0
 42
0.2
  3
txt
  4

  0
STYLE
  5
D7
330
3
100
AcDbSymbolTableRecord
100
AcDbTextStyleTableRecord
  2
ARIAL_WIDE
 70
     0
 40
0.0
 41
1.25
 50
0.0
 71
     0
 42
0.2
  3
ARIAL.TTF
  4

1001
ACAD
1000
Arial
1071
       34
  0
ENDTAB
  0
TABLE
  2
VIEW
  5
6
330
0
100
AcDbSymbolTable
 70
     0
  0
ENDTAB
  0
TABLE
  2
UCS
  5
7
330
0
100
AcDbSymbolTable
 70
     0
  0
ENDTAB
  0
TABLE
  2
APPID
  5
9
330
0
100
AcDbSymbolTable
 70
     1
  0
APPID
  5
12
330
9
100
AcDbSymbolTableRecord
100
AcDbRegAppTableRecord
  2
ACAD
 70
     0
  0
ENDTAB
  0
TABLE
  2
DIMSTYLE
  5
A
330
0
100
AcDbSymbolTable
 70
     1
  0
DIMSTYLE
105
D5
330
A
100
AcDbSymbolTableRecord
100
AcDbDimStyleTableRecord
  2
STANDARD
 70
     0
  3

  4

  5

  6

  7

 40
1.0
 41
0.18
 42
0.0625
 43
0.38
 44
0.18
 45
0.0
 46
0.0
 47
0.0
 48
0.0
140
0.18
141
0.09
142
0.0
143
25.4
144
1.0
145
0.0
146
1.0
147
0.09
 71
     0
 72
     0
 73
     1
 74
     1
 75
     0
 76
     0
 77
     0
 78
     0
170
     0
171
     2
172
     0
173
     0
174
     0
175
     0
176
     0
177
     0
178
     0
270
     2
271
     4
272
     4
273
     2
274
     2
340
11
275
     0
280
     0
281
     0
282
     0
283
     1
284
     0
285
     0
286
     0
287
     3
288
     0
  0
ENDTAB
  0
TABLE
  2
BLOCK_RECORD
  5
1
330
0
100
AcDbSymbolTable
 70
     3
  0
BLOCK_RECORD
  5
1E
102
{ACAD_XDICTIONARY
360
114
102
}
330
1
100
AcDbSymbolTableRecord
100
AcDbBlockTableRecord
  2
*MODEL_SPACE
  0
BLOCK_RECORD
  5
1A
102
{ACAD_XDICTIONARY
360
116
102
}
330
1
100
AcDbSymbolTableRecord
100
AcDbBlockTableRecord
  2
*PAPER_SPACE
  0
BLOCK_RECORD
  5
75
330
1
100
AcDbSymbolTableRecord
100
AcDbBlockTableRecord
  2
*D0
  0
BLOCK_RECORD
  5
76
330
1
100
AcDbSymbolTableRecord
100
AcDbBlockTableRecord
  2
*D1
  0
BLOCK_RECORD
  5
77
330
1
100
AcDbSymbolTableRecord
100
AcDbBlockTableRecord
  2
*D2
  0
ENDTAB
  0
ENDSEC
  0
SECTION
  2
BLOCKS
  0
BLOCK
  5
82
330
1E
100
AcDbEntity
  8
0
100
AcDbBlockBegin
  2
*MODEL_SPACE
 70
     0
 10
0.0
 20
0.0
 30
0.0
  3
*MODEL_SPACE
  1

  0
ENDBLK
  5
83
330
1E
100
AcDbEntity
  8
0
100
AcDbBlockEnd
  0
BLOCK
  5
80
330
1A
100
AcDbEntity
 67
     1
  8
0
100
AcDbBlockBegin
  2
*PAPER_SPACE
 70
     0
 10
0.0
 20
0.0
 30
0.0
  3
*PAPER_SPACE
  1

  0
ENDBLK
  5
81
330
1A
100
AcDbEntity
 67
     1
  8
0
100
AcDbBlockEnd
  0
BLOCK
  5
85
330
75
100
AcDbEntity
  8
0
100
AcDbBlockBegin
  2
*D0
 70
     1
 10
0.0
 20
0.0
 30
0.0
  3
*D0
  1

  0
LINE
  5
86
330
75
100
AcDbEntity
  8
0
  6
BYBLOCK
 62
     0
100
AcDbLine
 10
12.2670487556511
 20
8.699480085763177
 30
0.0
 11
12.2670487556511
 21
8.327003878725765
 31
0.0
  0
LINE
  5
87
330
75
100
AcDbEntity
  8
0
  6
BYBLOCK
 62
     0
100
AcDbLine
 10
16.27664320641381
 20
8.699480085763177
 30
0.0
 11
16.27664320641381
 21
8.327003878725765
 31
0.0
  0
LINE
  5
88
330
75
100
AcDbEntity
  8
0
  6
BYBLOCK
 62
     0
100
AcDbLine
 10
12.2670487556511
 20
8.507003878725765
 30
0.0
 11
14.10517931436578
 21
8.507003878725765
 31
0.0
  0
LINE
  5
89
330
75
100
AcDbEntity
  8
0
  6
BYBLOCK
 62
     0
100
AcDbLine
 10
16.27664320641381
 20
8.507003878725765
 30
0.0
 11
14.43851264769912
 21
8.507003878725765
 31
0.0
  0
LINE
  5
8A
330
75
100
AcDbEntity
  8
0
  6
BYBLOCK
 62
     0
100
AcDbLine
 10
12.1420487556511
 20
8.382003878725765
 30
0.0
 11
12.3920487556511
 21
8.632003878725765
 31
0.0
  0
LINE
  5
8B
330
75
100
AcDbEntity
  8
0
  6
BYBLOCK
 62
     0
100
AcDbLine
 10
16.15164320641381
 20
8.382003878725765
 30
0.0
 11
16.4016432064138
 21
8.632003878725765
 31
0.0
  0
TEXT
  5
8C
330
75
100
AcDbEntity
  8
0
  6
BYBLOCK
 62
     0
100
AcDbText
 10
14.23017931436579
 20
8.444503878725765
 30
0.0
 40
0.125
  1
4
 72
     1
 11
14.27184598103245
 21
8.507003878725765
 31
0.0
100
AcDbText
 73
     2
  0
POINT
  5
8E
330
75
100
AcDbEntity
  8
DEFPOINTS
  6
BYBLOCK
 62
     0
100
AcDbPoint
 10
12.2670487556511
 20
8.761980085763177
 30
0.0
  0
POINT
  5
8F
330
75
100
AcDbEntity
  8
DEFPOINTS
  6
BYBLOCK
 62
     0
100
AcDbPoint
 10
16.27664320641381
 20
8.761980085763177
 30
0.0
  0
POINT
  5
90
330
75
100
AcDbEntity
  8
DEFPOINTS
  6
BYBLOCK
 62
     0
100
AcDbPoint
 10
16.27664320641381
 20
8.507003878725765
 30
0.0
  0
ENDBLK
  5
91
330
75
100
AcDbEntity
  8
0
100
AcDbBlockEnd
  0
BLOCK
  5
92
330
76
100
AcDbEntity
  8
0
100
AcDbBlockBegin
  2
*D1
 70
     1
 10
0.0
 20
0.0
 30
0.0
  3
*D1
  1

  0
LINE
  5
93
330
76
100
AcDbEntity
  8
0
  6
BYBLOCK
 62
     0
100
AcDbLine
 10
13.25018294290025
 20
10.55045359477221
 30
0.0
 11
13.25018294290025
 21
10.97347334992648
 31
0.0
  0
LINE
  5
94
330
76
100
AcDbEntity
  8
0
  6
BYBLOCK
 62
     0
100
AcDbLine
 10
15.29685301299884
 20
10.55045359477221
 30
0.0
 11
15.29685301299884
 21
10.97347334992648
 31
0.0
  0
LINE
  5
95
330
76
100
AcDbEntity
  8
0
  6
BYBLOCK
 62
     0
100
AcDbLine
 10
13.25018294290025
 20
10.79347334992648
 30
0.0
 11
14.10685131128288
 21
10.79347334992648
 31
0.0
  0
LINE
  5
96
330
76
100
AcDbEntity
  8
0
  6
BYBLOCK
 62
     0
100
AcDbLine
 10
15.29685301299884
 20
10.79347334992648
 30
0.0
 11
14.44018464461621
 21
10.79347334992648
 31
0.0
  0
LINE
  5
97
330
76
100
AcDbEntity
  8
0
  6
BYBLOCK
 62
     0
100
AcDbLine
 10
13.12518294290025
 20
10.66847334992648
 30
0.0
 11
13.37518294290025
 21
10.91847334992648
 31
0.0
  0
LINE
  5
98
330
76
100
AcDbEntity
  8
0
  6
BYBLOCK
 62
     0
100
AcDbLine
 10
15.17185301299884
 20
10.66847334992648
 30
0.0
 11
15.42185301299884
 21
10.91847334992648
 31
0.0
  0
TEXT
  5
99
330
76
100
AcDbEntity
  8
0
  6
BYBLOCK
 62
     0
100
AcDbText
 10
14.23185131128288
 20
10.73097334992648
 30
0.0
 40
0.125
  1
2
 72
     1
 11
14.27351797794954
 21
10.79347334992648
 31
0.0
100
AcDbText
 73
     2
  0
POINT
  5
9A
330
76
100
AcDbEntity
  8
DEFPOINTS
  6
BYBLOCK
 62
     0
100
AcDbPoint
 10
13.25018294290025
 20
10.48795359477221
 30
0.0
  0
POINT
  5
9B
330
76
100
AcDbEntity
  8
DEFPOINTS
  6
BYBLOCK
 62
     0
100
AcDbPoint
 10
15.29685301299884
 20
10.48795359477221
 30
0.0
  0
POINT
  5
9C
330
76
100
AcDbEntity
  8
DEFPOINTS
  6
BYBLOCK
 62
     0
100
AcDbPoint
 10
15.29685301299884
 20
10.79347334992648
 30
0.0
  0
ENDBLK
  5
9D
330
76
100
AcDbEntity
  8
0
100
AcDbBlockEnd
  0
BLOCK
  5
9E
330
77
100
AcDbEntity
  8
0
100
AcDbBlockBegin
  2
*D2
 70
     1
 10
0.0
 20
0.0
 30
0.0
  3
*D2
  1

  0
LINE
  5
9F
330
77
100
AcDbEntity
  8
0
  6
BYBLOCK
 62
     0
100
AcDbLine
 10
16.3391432064138
 20
8.761980085763177
 30
0.0
 11
16.75750436790823
 21
8.761980085763177
 31
0.0
  0
LINE
  5
A0
330
77
100
AcDbEntity
  8
0
  6
BYBLOCK
 62
     0
100
AcDbLine
 10
15.40616892667737
 20
10.49464158244057
 30
0.0
 11
16.75750436790823
 21
10.49464158244057
 31
0.0
  0
LINE
  5
A1
330
77
100
AcDbEntity
  8
0
  6
BYBLOCK
 62
     0
100
AcDbLine
 10
16.57750436790824
 20
8.761980085763177
 30
0.0
 11
16.57750436790824
 21
9.232477500768542
 31
0.0
  0
LINE
  5
A2
330
77
100
AcDbEntity
  8
0
  6
BYBLOCK
 62
     0
100
AcDbLine
 10
16.57750436790824
 20
10.49464158244057
 30
0.0
 11
16.57750436790824
 21
10.02414416743521
 31
0.0
  0
LINE
  5
A3
330
77
100
AcDbEntity
  8
0
  6
BYBLOCK
 62
     0
100
AcDbLine
 10
16.70250436790824
 20
8.636980085763177
 30
0.0
 11
16.45250436790824
 21
8.886980085763177
 31
0.0
  0
LINE
  5
A4
330
77
100
AcDbEntity
  8
0
  6
BYBLOCK
 62
     0
100
AcDbLine
 10
16.70250436790824
 20
10.36964158244057
 30
0.0
 11
16.45250436790824
 21
10.61964158244057
 31
0.0
  0
TEXT
  5
A5
330
77
100
AcDbEntity
  8
0
  6
BYBLOCK
 62
     0
100
AcDbText
 10
16.64000436790824
 20
9.357477500768542
 30
0.0
 40
0.125
  1
1 3/4
 50
90.0
 72
     1
 11
16.57750436790824
 21
9.628310834101876
 31
0.0
100
AcDbText
 73
     2
  0
POINT
  5
A6
330
77
100
AcDbEntity
  8
DEFPOINTS
  6
BYBLOCK
 62
     0
100
AcDbPoint
 10
16.27664320641381
 20
8.761980085763177
 30
0.0
  0
POINT
  5
A7
330
77
100
AcDbEntity
  8
DEFPOINTS
  6
BYBLOCK
 62
     0
100
AcDbPoint
 10
15.34366892667737
 20
10.49464158244057
 30
0.0
  0
POINT
  5
A8
330
77
100
AcDbEntity
  8
DEFPOINTS
  6
BYBLOCK
 62
     0
100
AcDbPoint
 10
16.57750436790824
 20
10.49464158244057
 30
0.0
  0
ENDBLK
  5
A9
330
77
100
AcDbEntity
  8
0
100
AcDbBlockEnd
  0
ENDSEC
  0
SECTION
  2
ENTITIES
  0
DIMENSION
  5
AA
330
1E
100
AcDbEntity
  8
ADPDIM
100
AcDbDimension
  2
*D0
 10
16.27664320641381
 20
8.507003878725765
 30
0.0
 11
14.27184598103245
 21
8.507003878725765
 31
0.0
100
AcDbAlignedDimension
 13
12.2670487556511
 23
8.761980085763177
 33
0.0
 14
16.27664320641381
 24
8.761980085763177
 34
0.0
100
AcDbRotatedDimension
  0
LINE
  5
AB
330
1E
100
AcDbEntity
  8
ADP1DETAIL
100
AcDbLine
 10
12.2670487556511
 20
8.761980085763177
 30
0.0
 11
16.27664320641381
 21
8.761980085763177
 31
0.0
  0
LINE
  5
AC
330
1E
100
AcDbEntity
  8
ADP1DETAIL
100
AcDbLine
 10
16.21464320641381
 20
9.012779623326736
 30
0.0
 11
12.3290487556511
 21
9.012779623326736
 31
0.0
  0
LINE
  5
AD
330
1E
100
AcDbEntity
  8
ADP1DETAIL
100
AcDbLine
 10
12.27071554978143
 20
15.27362928383402
 30
0.0
 11
16.27071554978142
 21
15.27362928383402
 31
0.0
  0
LINE
  5
AE
330
1E
100
AcDbEntity
  8
ADP1DETAIL
100
AcDbLine
 10
16.27071554978142
 20
11.27362928383402
 30
0.0
 11
12.27071554978143
 21
11.27362928383402
 31
0.0
  0
LINE
  5
AF
330
1E
100
AcDbEntity
  8
ADP1DETAIL
100
AcDbLine
 10
12.27071554978143
 20
11.27362928383402
 30
0.0
 11
12.27071554978143
 21
15.27362928383402
 31
0.0
  0
LINE
  5
B0
330
1E
100
AcDbEntity
  8
ADP1DETAIL
100
AcDbLine
 10
12.2670487556511
 20
8.950779623326736
 30
0.0
 11
12.2670487556511
 21
8.761980085763177
 31
0.0
  0
ARC
  5
B1
330
1E
100
AcDbEntity
  8
ADP1DETAIL
100
AcDbCircle
 10
12.3290487556511
 20
8.950779623326736
 30
0.0
 40
0.062
100
AcDbArc
 50
90.0
 51
180.0
  0
LINE
  5
B2
330
1E
100
AcDbEntity
  8
ADP1DETAIL
100
AcDbLine
 10
15.67302885550085
 20
14.67594258955345
 30
0.0
 11
15.67302885550085
 21
11.89862928383402
 31
0.0
  0
LINE
  5
B3
330
1E
100
AcDbEntity
  8
ADP1DETAIL
100
AcDbLine
 10
15.47746658443279
 20
14.48038031848538
 30
0.0
 11
15.47746658443279
 21
12.08612928383402
 31
0.0
  0
LINE
  5
B4
330
1E
100
AcDbEntity
  8
ADP1DETAIL
100
AcDbLine
 10
15.33321554978143
 20
14.33612928383402
 30
0.0
 11
15.33321554978143
 21
12.21112928383402
 31
0.0
  0
LINE
  5
B5
330
1E
100
AcDbEntity
  8
ADP1DETAIL
100
AcDbLine
 10
16.27071554978142
 20
15.27362928383402
 30
0.0
 11
16.27071554978142
 21
11.27362928383402
 31
0.0
  0
LINE
  5
B6
330
1E
100
AcDbEntity
  8
ADP1DETAIL
100
AcDbLine
 10
15.27071554978143
 20
14.27362928383402
 30
0.0
 11
15.27071554978143
 21
12.27362928383402
 31
0.0
  0
LINE
  5
B7
330
1E
100
AcDbEntity
  8
ADP1DETAIL
100
AcDbLine
 10
13.27071554978143
 20
12.27362928383402
 30
0.0
 11
13.27071554978143
 21
14.27362928383402
 31
0.0
  0
LINE
  5
B8
330
1E
100
AcDbEntity
  8
ADP1DETAIL
100
AcDbLine
 10
12.89571554978143
 20
11.89862928383402
 30
0.0
 11
12.89571554978143
 21
14.67594258955345
 31
0.0
  0
LINE
  5
B9
330
1E
100
AcDbEntity
  8
ADP1DETAIL
100
AcDbLine
 10
13.08321554978143
 20
12.08612928383402
 30
0.0
 11
13.08321554978143
 21
14.48038031848538
 31
0.0
  0
LINE
  5
BA
330
1E
100
AcDbEntity
  8
ADP1DETAIL
100
AcDbLine
 10
13.20821554978143
 20
12.21112928383402
 30
0.0
 11
13.20821554978143
 21
14.33612928383402
 31
0.0
  0
DIMENSION
  5
BB
330
1E
100
AcDbEntity
  8
ADPDIM
100
AcDbDimension
  2
*D1
 10
15.29685301299884
 20
10.79347334992648
 30
0.0
 11
14.27351797794954
 21
10.79347334992648
 31
0.0
  1
2
100
AcDbAlignedDimension
 13
13.25018294290025
 23
10.48795359477221
 33
0.0
 14
15.29685301299884
 24
10.48795359477221
 34
0.0
100
AcDbRotatedDimension
  0
LINE
  5
BC
330
1E
100
AcDbEntity
  8
ADP1DETAIL
100
AcDbLine
 10
15.34366892667737
 20
10.49464158244057
 30
0.0
 11
13.77184598103245
 21
10.49464158244057
 31
0.0
  0
LINE
  5
BD
330
1E
100
AcDbEntity
  8
ADP1DETAIL
100
AcDbLine
 10
15.4774286800446
 20
10.32744189073153
 30
0.0
 11
13.06960727585449
 21
10.32744189073153
 31
0.0
  0
LINE
  5
BE
330
1E
100
AcDbEntity
  8
ADP1DETAIL
100
AcDbLine
 10
15.67302885550085
 20
11.89862928383402
 30
0.0
 11
12.89571554978143
 21
11.89862928383402
 31
0.0
  0
LINE
  5
BF
330
1E
100
AcDbEntity
  8
ADP1DETAIL
100
AcDbLine
 10
15.47746658443279
 20
12.08612928383402
 30
0.0
 11
13.08321554978143
 21
12.08612928383402
 31
0.0
  0
LINE
  5
C0
330
1E
100
AcDbEntity
  8
ADP1DETAIL
100
AcDbLine
 10
15.33321554978143
 20
12.21112928383402
 30
0.0
 11
13.20821554978143
 21
12.21112928383402
 31
0.0
  0
LINE
  5
C1
330
1E
100
AcDbEntity
  8
ADP1DETAIL
100
AcDbLine
 10
15.27071554978143
 20
12.27362928383402
 30
0.0
 11
13.27071554978143
 21
12.27362928383402
 31
0.0
  0
LINE
  5
C2
330
1E
100
AcDbEntity
  8
ADP1DETAIL
100
AcDbLine
 10
13.06960727585449
 20
10.32744189073153
 30
0.0
 11
13.02613535601014
 21
9.11644343218634
 31
0.0
  0
LINE
  5
C3
330
1E
100
AcDbEntity
  8
ADP2DETAIL
  6
HIDDEN2
100
AcDbLine
 10
13.25018294290025
 20
10.48795359477221
 30
0.0
 11
13.25018294290025
 21
8.761980085763177
 31
0.0
  0
ARC
  5
C4
330
1E
100
AcDbEntity
  8
ADP1DETAIL
100
AcDbCircle
 10
12.86118529103016
 20
9.17883831406484
 30
0.0
 40
0.1763565854215041
100
AcDbArc
 50
285.2174510637984
 51
339.2801100397975
  0
LINE
  5
C5
330
1E
100
AcDbEntity
  8
ADP1DETAIL
100
AcDbLine
 10
13.77184598103245
 20
10.49464158244057
 30
0.0
 11
13.20002303538754
 21
10.49464158244057
 31
0.0
  0
ARC
  5
C6
330
1E
100
AcDbEntity
  8
ADP1DETAIL
100
AcDbCircle
 10
12.97579837798132
 20
10.52188350040116
 30
0.0
 40
0.2258734581200502
100
AcDbArc
 50
297.8633497787834
 51
353.0728650058975
  0
DIMENSION
  5
C7
330
1E
100
AcDbEntity
  8
ADPDIM
100
AcDbDimension
  2
*D2
 10
16.57750436790824
 20
10.49464158244057
 30
0.0
 11
16.57750436790824
 21
9.628310834101876
 31
0.0
100
AcDbAlignedDimension
 13
16.27664320641381
 23
8.761980085763177
 33
0.0
 14
15.34366892667737
 24
10.49464158244057
 34
0.0
 50
90.0
100
AcDbRotatedDimension
  0
LINE
  5
C8
330
1E
100
AcDbEntity
  8
ADP1DETAIL
100
AcDbLine
 10
15.51755660605477
 20
9.11644343218634
 30
0.0
 11
15.4774286800446
 21
10.32744189073153
 31
0.0
  0
LINE
  5
C9
330
1E
100
AcDbEntity
  8
ADP2DETAIL
  6
HIDDEN2
100
AcDbLine
 10
15.29685301299884
 20
10.48795359477221
 30
0.0
 11
15.29685301299884
 21
8.761980085763177
 31
0.0
  0
ARC
  5
CA
330
1E
100
AcDbEntity
  8
ADP1DETAIL
100
AcDbCircle
 10
15.68392950959127
 20
9.184122847622544
 30
0.0
 40
0.1763565854215041
100
AcDbArc
 50
200.7198899602025
 51
254.7825489362015
  0
LINE
  5
CB
330
1E
100
AcDbEntity
  8
ADP1DETAIL
100
AcDbLine
 10
16.27664320641381
 20
8.949243740477301
 30
0.0
 11
16.27664320641381
 21
8.761980085763177
 31
0.0
  0
LINE
  5
CC
330
1E
100
AcDbEntity
  8
ADP1DETAIL
100
AcDbLine
 10
16.27664320641381
 20
8.761980085763177
 30
0.0
 11
16.27664320641381
 21
8.950779623326736
 31
0.0
  0
LINE
  5
CD
330
1E
100
AcDbEntity
  8
ADP1DETAIL
100
AcDbLine
 10
16.27664320641381
 20
8.761980085763177
 30
0.0
 11
16.27664320641381
 21
8.761980085763177
 31
0.0
  0
LINE
  5
CE
330
1E
100
AcDbEntity
  8
ADP1DETAIL
100
AcDbLine
 10
16.27664320641381
 20
8.761980085763177
 30
0.0
 11
16.27664320641381
 21
8.761980085763177
 31
0.0
  0
ARC
  5
CF
330
1E
100
AcDbEntity
  8
ADP1DETAIL
100
AcDbCircle
 10
16.21464320641381
 20
8.950779623326736
 30
0.0
 40
0.062
100
AcDbArc
 50
0.0
 51
90.0
  0
ARC
  5
D0
330
1E
100
AcDbEntity
  8
ADP1DETAIL
100
AcDbCircle
 10
15.57060850112276
 20
10.52630573739387
 30
0.0
 40
0.2258734581200502
100
AcDbArc
 50
186.9271349941024
 51
242.1366502212165
  0
LINE
  5
D1
330
1E
100
AcDbEntity
  8
ADP1DETAIL
100
AcDbLine
 10
13.27071554978143
 20
14.27362928383402
 30
0.0
 11
15.27071554978143
 21
14.27362928383402
 31
0.0
  0
LINE
  5
D2
330
1E
100
AcDbEntity
  8
ADP1DETAIL
100
AcDbLine
 10
12.89571554978143
 20
14.67594258955345
 30
0.0
 11
15.67302885550085
 21
14.67594258955345
 31
0.0
  0
LINE
  5
D3
330
1E
100
AcDbEntity
  8
ADP1DETAIL
100
AcDbLine
 10
13.08321554978143
 20
14.48038031848538
 30
0.0
 11
15.47746658443279
 21
14.48038031848538
 31
0.0
  0
LINE
  5
D4
330
1E
100
AcDbEntity
  8
ADP1DETAIL
100
AcDbLine
 10
13.20821554978143
 20
14.33612928383402
 30
0.0
 11
15.33321554978143
 21
14.33612928383402
 31
0.0
  0
TEXT
  5
D8
330
1E
100
AcDbEntity
  8
ADPDIM
100
AcDbText
 10
4.48325244419753
 20
7.371065235227503
 30
0.0
 40
0.1875
  1
J U L I U S  B L U M  &  C O . ,  I N C .      ( 8 0 0 )  5 2 6 - 6 2 9 3        W W W . J U L I U S B L U M . C O M        P A R T  N o .  1 2 0 4
 41
1.25
  7
ARIAL_WIDE
 72
     1
 11
14.27184598103245
 21
7.558565235227503
 31
0.0
100
AcDbText
 73
     3
  0
ENDSEC
  0
SECTION
  2
OBJECTS
  0
DICTIONARY
  5
C
330
0
100
AcDbDictionary
  3
ACAD_GROUP
350
D
  3
ACAD_LAYOUT
350
19
  3
ACAD_MLINESTYLE
350
16
  3
ACAD_PLOTSETTINGS
350
18
  3
ACAD_PLOTSTYLENAME
350
E
  3
ACDBHEADERROUNDTRIPXREC
350
2A5
  3
ACDBVARIABLEDICTIONARY
350
149
  0
DICTIONARY
  5
114
330
1E
100
AcDbDictionary
280
     1
  3
ACAD_LAYOUTSELFREF
360
2C7
  0
DICTIONARY
  5
116
330
1A
100
AcDbDictionary
280
     1
  3
ACAD_LAYOUTSELFREF
360
2C6
  0
DICTIONARY
  5
D
102
{ACAD_REACTORS
330
C
102
}
330
C
100
AcDbDictionary
  0
DICTIONARY
  5
19
102
{ACAD_REACTORS
330
C
102
}
330
C
100
AcDbDictionary
  0
DICTIONARY
  5
16
102
{ACAD_REACTORS
330
C
102
}
330
C
100
AcDbDictionary
  3
STANDARD
350
17
  0
DICTIONARY
  5
18
102
{ACAD_REACTORS
330
C
102
}
330
C
100
AcDbDictionary
  0
ACDBDICTIONARYWDFLT
  5
E
102
{ACAD_REACTORS
330
C
102
}
330
C
100
AcDbDictionary
281
     1
  3
Normal
350
F
100
AcDbDictionaryWithDefault
340
F
  0
DICTIONARY
  5
2A5
102
{ACAD_REACTORS
330
C
102
}
330
C
100
AcDbDictionary
  3
CEPSNTYPE
350
2AF
  3
DIMSTYLEDATA
350
2B3
  3
FINGERPRINTGUID
350
2B0
  3
HYPERLINKBASE
350
2A8
  3
INSUNITS
350
2AE
  3
LAYOUTDICT
350
2AA
  3
LWETCUNION
350
2AD
  3
PLOTSETDICT
350
2AB
  3
PLOTSTYLNAMDICT
350
2AC
  3
PSVPSCALE
350
2B2
  3
PUCSBASE
350
2B6
  3
PUCSORGBACK
350
2BC
  3
PUCSORGBOTTOM
350
2B8
  3
PUCSORGFRONT
350
2BB
  3
PUCSORGLEFT
350
2B9
  3
PUCSORGRIGHT
350
2BA
  3
PUCSORGTOP
350
2B7
  3
PUCSORTHOREF
350
2B4
  3
PUCSORTHOVIEW
350
2B5
  3
STYLESHEET
350
2A9
  3
TSTACKALIGN
350
2A6
  3
TSTACKSIZE
350
2A7
  3
UCSBASE
350
2BF
  3
UCSORGBACK
350
2C5
  3
UCSORGBOTTOM
350
2C1
  3
UCSORGFRONT
350
2C4
  3
UCSORGLEFT
350
2C2
  3
UCSORGRIGHT
350
2C3
  3
UCSORGTOP
350
2C0
  3
UCSORTHOREF
350
2BD
  3
UCSORTHOVIEW
350
2BE
  3
VERSIONGUID
350
2B1
  0
DICTIONARY
  5
149
102
{ACAD_REACTORS
330
C
102
}
330
C
100
AcDbDictionary
  3
DIMASSOC
350
14B
  3
HIDETEXT
350
14A
  0
XRECORD
  5
2C7
102
{ACAD_REACTORS
330
114
102
}
330
114
100
AcDbXrecord
340
1E
  0
XRECORD
  5
2C6
102
{ACAD_REACTORS
330
116
102
}
330
116
100
AcDbXrecord
340
1A
  0
MLINESTYLE
  5
17
102
{ACAD_REACTORS
330
16
102
}
330
16
100
AcDbMlineStyle
  2
STANDARD
 70
     0
  3

 62
   256
 51
90.0
 52
90.0
 71
     2
 49
0.5
 62
   256
  6
BYLAYER
 49
-0.5
 62
   256
  6
BYLAYER
  0
ACDBPLACEHOLDER
  5
F
102
{ACAD_REACTORS
330
E
102
}
330
E
100
AcDbPlaceHolder
280
     0
  0
XRECORD
  5
2AF
102
{ACAD_REACTORS
330
2A5
102
}
330
2A5
100
AcDbXrecord
 90
        0
  0
XRECORD
  5
2B3
102
{ACAD_REACTORS
330
2A5
102
}
330
2A5
100
AcDbXrecord
1000
DSTYLE
1002
{
1070
   277
 70
     5
1070
   279
 70
     2
1002
}
  0
XRECORD
  5
2B0
102
{ACAD_REACTORS
330
2A5
102
}
330
2A5
100
AcDbXrecord
  1
{9B6F142F-365D-4938-ADC5-181188504810}
  0
XRECORD
  5
2A8
102
{ACAD_REACTORS
330
2A5
102
}
330
2A5
100
AcDbXrecord
  1

  0
XRECORD
  5
2AE
102
{ACAD_REACTORS
330
2A5
102
}
330
2A5
100
AcDbXrecord
 90
        0
  0
XRECORD
  5
2AA
102
{ACAD_REACTORS
330
2A5
102
}
330
2A5
100
AcDbXrecord
340
19
  0
XRECORD
  5
2AD
102
{ACAD_REACTORS
330
2A5
102
}
330
2A5
100
AcDbXrecord
 90
    14877
  0
XRECORD
  5
2AB
102
{ACAD_REACTORS
330
2A5
102
}
330
2A5
100
AcDbXrecord
340
18
  0
XRECORD
  5
2AC
102
{ACAD_REACTORS
330
2A5
102
}
330
2A5
100
AcDbXrecord
340
E
  0
XRECORD
  5
2B2
102
{ACAD_REACTORS
330
2A5
102
}
330
2A5
100
AcDbXrecord
 40
0.0
  0
XRECORD
  5
2B6
102
{ACAD_REACTORS
330
2A5
102
}
330
2A5
100
AcDbXrecord
340
0
  0
XRECORD
  5
2BC
102
{ACAD_REACTORS
330
2A5
102
}
330
2A5
100
AcDbXrecord
 10
0.0
 20
0.0
 30
0.0
  0
XRECORD
  5
2B8
102
{ACAD_REACTORS
330
2A5
102
}
330
2A5
100
AcDbXrecord
 10
0.0
 20
0.0
 30
0.0
  0
XRECORD
  5
2BB
102
{ACAD_REACTORS
330
2A5
102
}
330
2A5
100
AcDbXrecord
 10
0.0
 20
0.0
 30
0.0
  0
XRECORD
  5
2B9
102
{ACAD_REACTORS
330
2A5
102
}
330
2A5
100
AcDbXrecord
 10
0.0
 20
0.0
 30
0.0
  0
XRECORD
  5
2BA
102
{ACAD_REACTORS
330
2A5
102
}
330
2A5
100
AcDbXrecord
 10
0.0
 20
0.0
 30
0.0
  0
XRECORD
  5
2B7
102
{ACAD_REACTORS
330
2A5
102
}
330
2A5
100
AcDbXrecord
 10
0.0
 20
0.0
 30
0.0
  0
XRECORD
  5
2B4
102
{ACAD_REACTORS
330
2A5
102
}
330
2A5
100
AcDbXrecord
340
0
  0
XRECORD
  5
2B5
102
{ACAD_REACTORS
330
2A5
102
}
330
2A5
100
AcDbXrecord
 70
     0
  0
XRECORD
  5
2A9
102
{ACAD_REACTORS
330
2A5
102
}
330
2A5
100
AcDbXrecord
  1

  0
XRECORD
  5
2A6
102
{ACAD_REACTORS
330
2A5
102
}
330
2A5
100
AcDbXrecord
 90
        1
  0
XRECORD
  5
2A7
102
{ACAD_REACTORS
330
2A5
102
}
330
2A5
100
AcDbXrecord
 90
       70
  0
XRECORD
  5
2BF
102
{ACAD_REACTORS
330
2A5
102
}
330
2A5
100
AcDbXrecord
340
0
  0
XRECORD
  5
2C5
102
{ACAD_REACTORS
330
2A5
102
}
330
2A5
100
AcDbXrecord
 10
0.0
 20
0.0
 30
0.0
  0
XRECORD
  5
2C1
102
{ACAD_REACTORS
330
2A5
102
}
330
2A5
100
AcDbXrecord
 10
0.0
 20
0.0
 30
0.0
  0
XRECORD
  5
2C4
102
{ACAD_REACTORS
330
2A5
102
}
330
2A5
100
AcDbXrecord
 10
0.0
 20
0.0
 30
0.0
  0
XRECORD
  5
2C2
102
{ACAD_REACTORS
330
2A5
102
}
330
2A5
100
AcDbXrecord
 10
0.0
 20
0.0
 30
0.0
  0
XRECORD
  5
2C3
102
{ACAD_REACTORS
330
2A5
102
}
330
2A5
100
AcDbXrecord
 10
0.0
 20
0.0
 30
0.0
  0
XRECORD
  5
2C0
102
{ACAD_REACTORS
330
2A5
102
}
330
2A5
100
AcDbXrecord
 10
0.0
 20
0.0
 30
0.0
  0
XRECORD
  5
2BD
102
{ACAD_REACTORS
330
2A5
102
}
330
2A5
100
AcDbXrecord
340
0
  0
XRECORD
  5
2BE
102
{ACAD_REACTORS
330
2A5
102
}
330
2A5
100
AcDbXrecord
 70
     0
  0
XRECORD
  5
2B1
102
{ACAD_REACTORS
330
2A5
102
}
330
2A5
100
AcDbXrecord
  1
{5394D5A9-ABD1-4424-9B09-F03C3CDBF50D}
  0
DICTIONARYVAR
  5
14B
102
{ACAD_REACTORS
330
149
102
}
330
149
100
DictionaryVariables
280
     0
  1
2
  0
DICTIONARYVAR
  5
14A
102
{ACAD_REACTORS
330
149
102
}
330
149
100
DictionaryVariables
280
     0
  1
1
  0
ENDSEC
  0
EOF
