  0
SECTION
  2
HEADER
  9
$ACADVER
  1
AC1014
  9
$ACADMAINTVER
 70
     9
  9
$DWGCODEPAGE
  3
ANSI_1252
  9
$INSBASE
 10
12.79776829694332
 20
3.092060578418545
 30
0.0
  9
$EXTMIN
 10
3.010809790866201
 20
1.684043881841494
 30
0.0
  9
$EXTMAX
 10
19.32513235225774
 20
8.603709776489393
 30
0.0
  9
$LIMMIN
 10
0.0
 20
0.0
  9
$LIMMAX
 10
36.0
 20
36.0
  9
$ORTHOMODE
 70
     1
  9
$REGENMODE
 70
     1
  9
$FILLMODE
 70
     1
  9
$QTEXTMODE
 70
     0
  9
$MIRRTEXT
 70
     1
  9
$DRAGMODE
 70
     0
  9
$LTSCALE
 40
1.0
  9
$OSMODE
 70
    37
  9
$ATTMODE
 70
     1
  9
$TEXTSIZE
 40
0.2
  9
$TRACEWID
 40
0.05
  9
$TEXTSTYLE
  7
STANDARD
  9
$CLAYER
  8
ADP1DETAIL
  9
$CELTYPE
  6
BYLAYER
  9
$CECOLOR
 62
   256
  9
$CELTSCALE
 40
1.0
  9
$DELOBJ
 70
     1
  9
$DISPSILH
 70
     0
  9
$DIMSCALE
 40
1.0
  9
$DIMASZ
 40
0.125
  9
$DIMEXO
 40
0.0625
  9
$DIMDLI
 40
0.38
  9
$DIMRND
 40
0.0
  9
$DIMDLE
 40
0.0
  9
$DIMEXE
 40
0.18
  9
$DIMTP
 40
0.0
  9
$DIMTM
 40
0.0
  9
$DIMTXT
 40
0.125
  9
$DIMCEN
 40
0.1875
  9
$DIMTSZ
 40
0.125
  9
$DIMTOL
 70
     0
  9
$DIMLIM
 70
     0
  9
$DIMTIH
 70
     0
  9
$DIMTOH
 70
     0
  9
$DIMSE1
 70
     0
  9
$DIMSE2
 70
     0
  9
$DIMTAD
 70
     0
  9
$DIMZIN
 70
     3
  9
$DIMBLK
  1

  9
$DIMASO
 70
     1
  9
$DIMSHO
 70
     1
  9
$DIMPOST
  1

  9
$DIMAPOST
  1

  9
$DIMALT
 70
     0
  9
$DIMALTD
 70
     1
  9
$DIMALTF
 40
25.4
  9
$DIMLFAC
 40
1.0
  9
$DIMTOFL
 70
     0
  9
$DIMTVP
 40
0.0
  9
$DIMTIX
 70
     0
  9
$DIMSOXD
 70
     0
  9
$DIMSAH
 70
     0
  9
$DIMBLK1
  1

  9
$DIMBLK2
  1

  9
$DIMSTYLE
  2
STANDARD
  9
$DIMCLRD
 70
     0
  9
$DIMCLRE
 70
     0
  9
$DIMCLRT
 70
     0
  9
$DIMTFAC
 40
1.0
  9
$DIMGAP
 40
0.125
  9
$DIMJUST
 70
     0
  9
$DIMSD1
 70
     0
  9
$DIMSD2
 70
     0
  9
$DIMTOLJ
 70
     1
  9
$DIMTZIN
 70
     3
  9
$DIMALTZ
 70
     3
  9
$DIMALTTZ
 70
     3
  9
$DIMFIT
 70
     5
  9
$DIMUPT
 70
     0
  9
$DIMUNIT
 70
     5
  9
$DIMDEC
 70
     4
  9
$DIMTDEC
 70
     4
  9
$DIMALTU
 70
     5
  9
$DIMALTTD
 70
     1
  9
$DIMTXSTY
  7
STANDARD
  9
$DIMAUNIT
 70
     0
  9
$LUNITS
 70
     5
  9
$LUPREC
 70
     4
  9
$SKETCHINC
 40
0.1
  9
$FILLETRAD
 40
0.0
  9
$AUNITS
 70
     0
  9
$AUPREC
 70
     0
  9
$MENU
  1
acad
  9
$ELEVATION
 40
0.0
  9
$PELEVATION
 40
0.0
  9
$THICKNESS
 40
0.0
  9
$LIMCHECK
 70
     0
  9
$BLIPMODE
 70
     0
  9
$CHAMFERA
 40
0.0
  9
$CHAMFERB
 40
0.0
  9
$CHAMFERC
 40
0.0
  9
$CHAMFERD
 40
0.0
  9
$SKPOLY
 70
     0
  9
$TDCREATE
 40
2450374.528530277
  9
$TDUPDATE
 40
2452297.079978472
  9
$TDINDWG
 40
0.0168332292
  9
$TDUSRTIMER
 40
0.0168332292
  9
$USRTIMER
 70
     1
  9
$ANGBASE
 50
0.0
  9
$ANGDIR
 70
     0
  9
$PDMODE
 70
     0
  9
$PDSIZE
 40
0.0
  9
$PLINEWID
 40
0.0
  9
$COORDS
 70
     2
  9
$SPLFRAME
 70
     0
  9
$SPLINETYPE
 70
     6
  9
$SPLINESEGS
 70
     8
  9
$ATTDIA
 70
     0
  9
$ATTREQ
 70
     1
  9
$HANDLING
 70
 22529
  9
$HANDSEED
  5
2FB
  9
$SURFTAB1
 70
     6
  9
$SURFTAB2
 70
     6
  9
$SURFTYPE
 70
     6
  9
$SURFU
 70
     6
  9
$SURFV
 70
     6
  9
$UCSNAME
  2

  9
$UCSORG
 10
0.0
 20
0.0
 30
0.0
  9
$UCSXDIR
 10
1.0
 20
0.0
 30
0.0
  9
$UCSYDIR
 10
0.0
 20
1.0
 30
0.0
  9
$PUCSNAME
  2

  9
$PUCSORG
 10
0.0
 20
0.0
 30
0.0
  9
$PUCSXDIR
 10
1.0
 20
0.0
 30
0.0
  9
$PUCSYDIR
 10
0.0
 20
1.0
 30
0.0
  9
$USERI1
 70
     0
  9
$USERI2
 70
     0
  9
$USERI3
 70
     0
  9
$USERI4
 70
     0
  9
$USERI5
 70
     0
  9
$USERR1
 40
0.0
  9
$USERR2
 40
0.0
  9
$USERR3
 40
0.0
  9
$USERR4
 40
0.0
  9
$USERR5
 40
0.0
  9
$WORLDVIEW
 70
     1
  9
$SHADEDGE
 70
     3
  9
$SHADEDIF
 70
    70
  9
$TILEMODE
 70
     1
  9
$MAXACTVP
 70
    15
  9
$PINSBASE
 10
0.0
 20
0.0
 30
0.0
  9
$PLIMCHECK
 70
     0
  9
$PEXTMIN
 10
1.000000000000000E+20
 20
1.000000000000000E+20
 30
1.000000000000000E+20
  9
$PEXTMAX
 10
-1.000000000000000E+20
 20
-1.000000000000000E+20
 30
-1.000000000000000E+20
  9
$PLIMMIN
 10
0.0
 20
0.0
  9
$PLIMMAX
 10
12.0
 20
9.0
  9
$UNITMODE
 70
     0
  9
$VISRETAIN
 70
     0
  9
$PLINEGEN
 70
     0
  9
$PSLTSCALE
 70
     1
  9
$TREEDEPTH
 70
  3020
  9
$PICKSTYLE
 70
     1
  9
$CMLSTYLE
  2
STANDARD
  9
$CMLJUST
 70
     0
  9
$CMLSCALE
 40
1.0
  9
$PROXYGRAPHICS
 70
     1
  9
$MEASUREMENT
 70
     0
  0
ENDSEC
  0
SECTION
  2
CLASSES
  0
CLASS
  1
ACDBDICTIONARYWDFLT
  2
AcDbDictionaryWithDefault
  3
AutoCAD 2000
 90
        0
280
     0
281
     0
  0
CLASS
  1
ACDBPLACEHOLDER
  2
AcDbPlaceHolder
  3
AutoCAD 2000
 90
        0
280
     0
281
     0
  0
CLASS
  1
LAYOUT
  2
AcDbLayout
  3
AutoCAD 2000
 90
        0
280
     0
281
     0
  0
CLASS
  1
DICTIONARYVAR
  2
AcDbDictionaryVar
  3
AutoCAD 2000
 90
        0
280
     0
281
     0
  0
CLASS
  1
LONG_TRANSACTION
  2
AcDbLongTransaction
  3
AutoCAD 2000
 90
        0
280
     0
281
     0
  0
CLASS
  1
LWPOLYLINE
  2
AcDbPolyline
  3
AutoCAD 2000
 90
        0
280
     0
281
     1
  0
CLASS
  1
HATCH
  2
AcDbHatch
  3
AutoCAD 2000
 90
        0
280
     0
281
     1
  0
CLASS
  1
XRECORD
  2
AcDbXrecord
  3
AutoCAD 2000
 90
        0
280
     0
281
     0
  0
CLASS
  1
LONG_TRANSACTION
  2
AcDbLongTransaction
  3
AutoCAD 2000
 90
        0
280
     0
281
     0
  0
CLASS
  1
LWPOLYLINE
  2
AcDbPolyline
  3
AutoCAD 2000
 90
        0
280
     0
281
     1
  0
CLASS
  1
HATCH
  2
AcDbHatch
  3
AutoCAD 2000
 90
        0
280
     0
281
     1
  0
CLASS
  1
XRECORD
  2
AcDbXrecord
  3
AutoCAD 2000
 90
        0
280
     0
281
     0
  0
CLASS
  1
LONG_TRANSACTION
  2
AcDbLongTransaction
  3
AutoCAD 2000
 90
        0
280
     0
281
     0
  0
CLASS
  1
LWPOLYLINE
  2
AcDbPolyline
  3
AutoCAD 2000
 90
        0
280
     0
281
     1
  0
CLASS
  1
HATCH
  2
AcDbHatch
  3
AutoCAD 2000
 90
        0
280
     0
281
     1
  0
CLASS
  1
XRECORD
  2
AcDbXrecord
  3
AutoCAD 2000
 90
        0
280
     0
281
     0
  0
CLASS
  1
LONG_TRANSACTION
  2
AcDbLongTransaction
  3
AutoCAD 2000
 90
        0
280
     0
281
     0
  0
CLASS
  1
LWPOLYLINE
  2
AcDbPolyline
  3
AutoCAD 2000
 90
        0
280
     0
281
     1
  0
CLASS
  1
HATCH
  2
AcDbHatch
  3
AutoCAD 2000
 90
        0
280
     0
281
     1
  0
CLASS
  1
XRECORD
  2
AcDbXrecord
  3
AutoCAD 2000
 90
        0
280
     0
281
     0
  0
CLASS
  1
LONG_TRANSACTION
  2
AcDbLongTransaction
  3
AutoCAD 2000
 90
        0
280
     0
281
     0
  0
CLASS
  1
LWPOLYLINE
  2
AcDbPolyline
  3
AutoCAD 2000
 90
        0
280
     0
281
     1
  0
CLASS
  1
HATCH
  2
AcDbHatch
  3
AutoCAD 2000
 90
        0
280
     0
281
     1
  0
CLASS
  1
XRECORD
  2
AcDbXrecord
  3
AutoCAD 2000
 90
        0
280
     0
281
     0
  0
CLASS
  1
LONG_TRANSACTION
  2
AcDbLongTransaction
  3
AutoCAD 2000
 90
        0
280
     0
281
     0
  0
CLASS
  1
LWPOLYLINE
  2
AcDbPolyline
  3
AutoCAD 2000
 90
        0
280
     0
281
     1
  0
CLASS
  1
HATCH
  2
AcDbHatch
  3
AutoCAD 2000
 90
        0
280
     0
281
     1
  0
CLASS
  1
XRECORD
  2
AcDbXrecord
  3
AutoCAD 2000
 90
        0
280
     0
281
     0
  0
CLASS
  1
LONG_TRANSACTION
  2
AcDbLongTransaction
  3
AutoCAD 2000
 90
        0
280
     0
281
     0
  0
CLASS
  1
LWPOLYLINE
  2
AcDbPolyline
  3
AutoCAD 2000
 90
        0
280
     0
281
     1
  0
CLASS
  1
HATCH
  2
AcDbHatch
  3
AutoCAD 2000
 90
        0
280
     0
281
     1
  0
CLASS
  1
XRECORD
  2
AcDbXrecord
  3
AutoCAD 2000
 90
        0
280
     0
281
     0
  0
ENDSEC
  0
SECTION
  2
TABLES
  0
TABLE
  2
VPORT
  5
8
330
0
100
AcDbSymbolTable
 70
     2
  0
VPORT
  5
2D7
330
8
100
AcDbSymbolTableRecord
100
AcDbViewportTableRecord
  2
*ACTIVE
 70
     0
 10
0.0
 20
0.0
 11
1.0
 21
1.0
 12
11.18104673754239
 22
5.143249580570557
 13
0.0
 23
0.0
 14
0.5740882589684922
 24
0.5740882589684922
 15
0.5
 25
0.5
 16
0.0
 26
0.0
 36
1.0
 17
0.0
 27
0.0
 37
0.0
 40
10.45655474262775
 41
1.570528967254408
 42
50.0
 43
0.0
 44
0.0
 50
0.0
 51
0.0
 71
     0
 72
   100
 73
     1
 74
     0
 75
     0
 76
     0
 77
     0
 78
     0
  0
ENDTAB
  0
TABLE
  2
LTYPE
  5
5
330
0
100
AcDbSymbolTable
 70
     2
  0
LTYPE
  5
13
330
5
100
AcDbSymbolTableRecord
100
AcDbLinetypeTableRecord
  2
BYBLOCK
 70
     0
  3

 72
    65
 73
     0
 40
0.0
  0
LTYPE
  5
14
330
5
100
AcDbSymbolTableRecord
100
AcDbLinetypeTableRecord
  2
BYLAYER
 70
     0
  3

 72
    65
 73
     0
 40
0.0
  0
LTYPE
  5
15
330
5
100
AcDbSymbolTableRecord
100
AcDbLinetypeTableRecord
  2
CONTINUOUS
 70
     0
  3
Solid line
 72
    65
 73
     0
 40
0.0
  0
LTYPE
  5
68
330
5
100
AcDbSymbolTableRecord
100
AcDbLinetypeTableRecord
  2
HIDDEN2
 70
     0
  3
_ _ _ _ _ _ _ _ _ _ _ _ _ _ _ _ _ _ _ _ _ _ _ _
 72
    65
 73
     2
 40
0.1875
 49
0.125
 74
     0
 49
-0.0625
 74
     0
  0
ENDTAB
  0
TABLE
  2
LAYER
  5
2
330
0
100
AcDbSymbolTable
 70
     5
  0
LAYER
  5
10
330
2
100
AcDbSymbolTableRecord
100
AcDbLayerTableRecord
  2
0
 70
     0
 62
     7
  6
CONTINUOUS
  0
LAYER
  5
69
330
2
100
AcDbSymbolTableRecord
100
AcDbLayerTableRecord
  2
ADP2DETAIL
 70
     0
 62
     5
  6
CONTINUOUS
  0
LAYER
  5
6A
330
2
100
AcDbSymbolTableRecord
100
AcDbLayerTableRecord
  2
ADPDIM
 70
     0
 62
     3
  6
CONTINUOUS
  0
LAYER
  5
6C
330
2
100
AcDbSymbolTableRecord
100
AcDbLayerTableRecord
  2
ADP1DETAIL
 70
     0
 62
     7
  6
CONTINUOUS
  0
LAYER
  5
6E
330
2
100
AcDbSymbolTableRecord
100
AcDbLayerTableRecord
  2
DEFPOINTS
 70
     0
 62
     7
  6
CONTINUOUS
  0
ENDTAB
  0
TABLE
  2
STYLE
  5
3
330
0
100
AcDbSymbolTable
 70
     2
  0
STYLE
  5
11
330
3
100
AcDbSymbolTableRecord
100
AcDbTextStyleTableRecord
  2
STANDARD
 70
     0
 40
0.0
 41
1.0
 50
0.0
 71
     0
 42
0.2
  3
txt
  4

  0
STYLE
  5
D0
330
3
100
AcDbSymbolTableRecord
100
AcDbTextStyleTableRecord
  2
ARIAL_WIDE
 70
     0
 40
0.0
 41
1.25
 50
0.0
 71
     0
 42
0.2
  3
ARIAL.TTF
  4

1001
ACAD
1000
Arial
1071
       34
  0
ENDTAB
  0
TABLE
  2
VIEW
  5
6
330
0
100
AcDbSymbolTable
 70
     0
  0
ENDTAB
  0
TABLE
  2
UCS
  5
7
330
0
100
AcDbSymbolTable
 70
     0
  0
ENDTAB
  0
TABLE
  2
APPID
  5
9
330
0
100
AcDbSymbolTable
 70
     1
  0
APPID
  5
12
330
9
100
AcDbSymbolTableRecord
100
AcDbRegAppTableRecord
  2
ACAD
 70
     0
  0
ENDTAB
  0
TABLE
  2
DIMSTYLE
  5
A
330
0
100
AcDbSymbolTable
 70
     1
  0
DIMSTYLE
105
CE
330
A
100
AcDbSymbolTableRecord
100
AcDbDimStyleTableRecord
  2
STANDARD
 70
     0
  3

  4

  5

  6

  7

 40
1.0
 41
0.18
 42
0.0625
 43
0.38
 44
0.18
 45
0.0
 46
0.0
 47
0.0
 48
0.0
140
0.18
141
0.09
142
0.0
143
25.4
144
1.0
145
0.0
146
1.0
147
0.09
 71
     0
 72
     0
 73
     1
 74
     1
 75
     0
 76
     0
 77
     0
 78
     0
170
     0
171
     2
172
     0
173
     0
174
     0
175
     0
176
     0
177
     0
178
     0
270
     2
271
     4
272
     4
273
     2
274
     2
340
11
275
     0
280
     0
281
     0
282
     0
283
     1
284
     0
285
     0
286
     0
287
     3
288
     0
  0
ENDTAB
  0
TABLE
  2
BLOCK_RECORD
  5
1
330
0
100
AcDbSymbolTable
 70
     3
  0
BLOCK_RECORD
  5
1E
102
{ACAD_XDICTIONARY
360
10D
102
}
330
1
100
AcDbSymbolTableRecord
100
AcDbBlockTableRecord
  2
*MODEL_SPACE
  0
BLOCK_RECORD
  5
1A
102
{ACAD_XDICTIONARY
360
10F
102
}
330
1
100
AcDbSymbolTableRecord
100
AcDbBlockTableRecord
  2
*PAPER_SPACE
  0
BLOCK_RECORD
  5
64
330
1
100
AcDbSymbolTableRecord
100
AcDbBlockTableRecord
  2
*D0
  0
BLOCK_RECORD
  5
65
330
1
100
AcDbSymbolTableRecord
100
AcDbBlockTableRecord
  2
*D1
  0
BLOCK_RECORD
  5
66
330
1
100
AcDbSymbolTableRecord
100
AcDbBlockTableRecord
  2
*D2
  0
ENDTAB
  0
ENDSEC
  0
SECTION
  2
BLOCKS
  0
BLOCK
  5
71
330
1E
100
AcDbEntity
  8
0
100
AcDbBlockBegin
  2
*MODEL_SPACE
 70
     0
 10
0.0
 20
0.0
 30
0.0
  3
*MODEL_SPACE
  1

  0
ENDBLK
  5
72
330
1E
100
AcDbEntity
  8
0
100
AcDbBlockEnd
  0
BLOCK
  5
6F
330
1A
100
AcDbEntity
 67
     1
  8
0
100
AcDbBlockBegin
  2
*PAPER_SPACE
 70
     0
 10
0.0
 20
0.0
 30
0.0
  3
*PAPER_SPACE
  1

  0
ENDBLK
  5
70
330
1A
100
AcDbEntity
 67
     1
  8
0
100
AcDbBlockEnd
  0
BLOCK
  5
74
330
64
100
AcDbEntity
  8
0
100
AcDbBlockBegin
  2
*D0
 70
     1
 10
0.0
 20
0.0
 30
0.0
  3
*D0
  1

  0
LINE
  5
75
330
64
100
AcDbEntity
  8
0
  6
BYBLOCK
 62
     0
100
AcDbLine
 10
10.52130803342977
 20
4.630534087427581
 30
0.0
 11
10.52130803342977
 21
5.053553842581848
 31
0.0
  0
LINE
  5
76
330
64
100
AcDbEntity
  8
0
  6
BYBLOCK
 62
     0
100
AcDbLine
 10
11.81797810352835
 20
4.630534087427581
 30
0.0
 11
11.81797810352835
 21
5.053553842581848
 31
0.0
  0
LINE
  5
77
330
64
100
AcDbEntity
  8
0
  6
BYBLOCK
 62
     0
100
AcDbLine
 10
10.52130803342977
 20
4.873553842581848
 30
0.0
 11
10.79464306847906
 21
4.873553842581848
 31
0.0
  0
LINE
  5
78
330
64
100
AcDbEntity
  8
0
  6
BYBLOCK
 62
     0
100
AcDbLine
 10
11.81797810352835
 20
4.873553842581848
 30
0.0
 11
11.54464306847906
 21
4.873553842581848
 31
0.0
  0
LINE
  5
79
330
64
100
AcDbEntity
  8
0
  6
BYBLOCK
 62
     0
100
AcDbLine
 10
10.39630803342977
 20
4.748553842581848
 30
0.0
 11
10.64630803342976
 21
4.998553842581848
 31
0.0
  0
LINE
  5
7A
330
64
100
AcDbEntity
  8
0
  6
BYBLOCK
 62
     0
100
AcDbLine
 10
11.69297810352835
 20
4.748553842581848
 30
0.0
 11
11.94297810352835
 21
4.998553842581848
 31
0.0
  0
TEXT
  5
7B
330
64
100
AcDbEntity
  8
0
  6
BYBLOCK
 62
     0
100
AcDbText
 10
10.91964306847906
 20
4.811053842581848
 30
0.0
 40
0.125
  1
1 1/4
 72
     1
 11
11.16964306847906
 21
4.873553842581848
 31
0.0
100
AcDbText
 73
     2
  0
POINT
  5
7D
330
64
100
AcDbEntity
  8
DEFPOINTS
  6
BYBLOCK
 62
     0
100
AcDbPoint
 10
10.52130803342977
 20
4.568034087427581
 30
0.0
  0
POINT
  5
7E
330
64
100
AcDbEntity
  8
DEFPOINTS
  6
BYBLOCK
 62
     0
100
AcDbPoint
 10
11.81797810352835
 20
4.568034087427581
 30
0.0
  0
POINT
  5
7F
330
64
100
AcDbEntity
  8
DEFPOINTS
  6
BYBLOCK
 62
     0
100
AcDbPoint
 10
11.81797810352835
 20
4.873553842581848
 30
0.0
  0
ENDBLK
  5
80
330
64
100
AcDbEntity
  8
0
100
AcDbBlockEnd
  0
BLOCK
  5
81
330
65
100
AcDbEntity
  8
0
100
AcDbBlockBegin
  2
*D1
 70
     1
 10
0.0
 20
0.0
 30
0.0
  3
*D1
  1

  0
LINE
  5
82
330
65
100
AcDbEntity
  8
0
  6
BYBLOCK
 62
     0
100
AcDbLine
 10
9.538173846180621
 20
3.029560578418545
 30
0.0
 11
9.538173846180621
 21
2.657084371381132
 31
0.0
  0
LINE
  5
83
330
65
100
AcDbEntity
  8
0
  6
BYBLOCK
 62
     0
100
AcDbLine
 10
12.79776829694332
 20
3.029560578418545
 30
0.0
 11
12.79776829694332
 21
2.657084371381132
 31
0.0
  0
LINE
  5
84
330
65
100
AcDbEntity
  8
0
  6
BYBLOCK
 62
     0
100
AcDbLine
 10
9.538173846180621
 20
2.837084371381132
 30
0.0
 11
10.77213773822863
 21
2.837084371381132
 31
0.0
  0
LINE
  5
85
330
65
100
AcDbEntity
  8
0
  6
BYBLOCK
 62
     0
100
AcDbLine
 10
12.79776829694332
 20
2.837084371381132
 30
0.0
 11
11.5638044048953
 21
2.837084371381132
 31
0.0
  0
LINE
  5
86
330
65
100
AcDbEntity
  8
0
  6
BYBLOCK
 62
     0
100
AcDbLine
 10
9.413173846180621
 20
2.712084371381132
 30
0.0
 11
9.663173846180621
 21
2.962084371381132
 31
0.0
  0
LINE
  5
87
330
65
100
AcDbEntity
  8
0
  6
BYBLOCK
 62
     0
100
AcDbLine
 10
12.67276829694332
 20
2.712084371381132
 30
0.0
 11
12.92276829694332
 21
2.962084371381132
 31
0.0
  0
TEXT
  5
88
330
65
100
AcDbEntity
  8
0
  6
BYBLOCK
 62
     0
100
AcDbText
 10
10.89713773822863
 20
2.774584371381132
 30
0.0
 40
0.125
  1
3 1/4
 72
     1
 11
11.16797107156197
 21
2.837084371381132
 31
0.0
100
AcDbText
 73
     2
  0
POINT
  5
89
330
65
100
AcDbEntity
  8
DEFPOINTS
  6
BYBLOCK
 62
     0
100
AcDbPoint
 10
9.538173846180621
 20
3.092060578418545
 30
0.0
  0
POINT
  5
8A
330
65
100
AcDbEntity
  8
DEFPOINTS
  6
BYBLOCK
 62
     0
100
AcDbPoint
 10
12.79776829694332
 20
3.092060578418545
 30
0.0
  0
POINT
  5
8B
330
65
100
AcDbEntity
  8
DEFPOINTS
  6
BYBLOCK
 62
     0
100
AcDbPoint
 10
12.79776829694332
 20
2.837084371381132
 30
0.0
  0
ENDBLK
  5
8C
330
65
100
AcDbEntity
  8
0
100
AcDbBlockEnd
  0
BLOCK
  5
8D
330
66
100
AcDbEntity
  8
0
100
AcDbBlockBegin
  2
*D2
 70
     1
 10
0.0
 20
0.0
 30
0.0
  3
*D2
  1

  0
LINE
  5
8E
330
66
100
AcDbEntity
  8
0
  6
BYBLOCK
 62
     0
100
AcDbLine
 10
12.86026829694332
 20
3.092060578418545
 30
0.0
 11
13.27862945843775
 21
3.092060578418545
 31
0.0
  0
LINE
  5
8F
330
66
100
AcDbEntity
  8
0
  6
BYBLOCK
 62
     0
100
AcDbLine
 10
11.92729401720688
 20
4.574722075095943
 30
0.0
 11
13.27862945843775
 21
4.574722075095943
 31
0.0
  0
LINE
  5
90
330
66
100
AcDbEntity
  8
0
  6
BYBLOCK
 62
     0
100
AcDbLine
 10
13.09862945843775
 20
3.092060578418545
 30
0.0
 11
13.09862945843775
 21
3.458391326757244
 31
0.0
  0
LINE
  5
91
330
66
100
AcDbEntity
  8
0
  6
BYBLOCK
 62
     0
100
AcDbLine
 10
13.09862945843775
 20
4.574722075095943
 30
0.0
 11
13.09862945843775
 21
4.208391326757244
 31
0.0
  0
LINE
  5
92
330
66
100
AcDbEntity
  8
0
  6
BYBLOCK
 62
     0
100
AcDbLine
 10
13.22362945843775
 20
2.967060578418545
 30
0.0
 11
12.97362945843775
 21
3.217060578418545
 31
0.0
  0
LINE
  5
93
330
66
100
AcDbEntity
  8
0
  6
BYBLOCK
 62
     0
100
AcDbLine
 10
13.22362945843775
 20
4.449722075095943
 30
0.0
 11
12.97362945843775
 21
4.699722075095943
 31
0.0
  0
TEXT
  5
94
330
66
100
AcDbEntity
  8
0
  6
BYBLOCK
 62
     0
100
AcDbText
 10
13.16112945843775
 20
3.583391326757244
 30
0.0
 40
0.125
  1
1 1/2
 50
90.0
 72
     1
 11
13.09862945843775
 21
3.833391326757244
 31
0.0
100
AcDbText
 73
     2
  0
POINT
  5
95
330
66
100
AcDbEntity
  8
DEFPOINTS
  6
BYBLOCK
 62
     0
100
AcDbPoint
 10
12.79776829694332
 20
3.092060578418545
 30
0.0
  0
POINT
  5
96
330
66
100
AcDbEntity
  8
DEFPOINTS
  6
BYBLOCK
 62
     0
100
AcDbPoint
 10
11.86479401720688
 20
4.574722075095943
 30
0.0
  0
POINT
  5
97
330
66
100
AcDbEntity
  8
DEFPOINTS
  6
BYBLOCK
 62
     0
100
AcDbPoint
 10
13.09862945843775
 20
4.574722075095943
 30
0.0
  0
ENDBLK
  5
98
330
66
100
AcDbEntity
  8
0
100
AcDbBlockEnd
  0
ENDSEC
  0
SECTION
  2
ENTITIES
  0
LWPOLYLINE
  5
99
330
1E
100
AcDbEntity
  8
ADP1DETAIL
100
AcDbPolyline
 90
        4
 70
     1
 43
0.0
 10
9.541840640310946
 20
5.353709776489393
 10
9.541840640310946
 20
8.603709776489393
 10
12.79184064031094
 20
8.603709776489393
 10
12.79184064031094
 20
5.353709776489393
  0
LWPOLYLINE
  5
9F
330
1E
100
AcDbEntity
  8
ADP1DETAIL
100
AcDbPolyline
 90
        4
 70
     1
 43
0.0
 10
10.47934064031094
 20
6.291209776489393
 10
10.47934064031094
 20
7.666209776489393
 10
11.85434064031094
 20
7.666209776489393
 10
11.85434064031094
 20
6.291209776489393
  0
LWPOLYLINE
  5
A5
330
1E
100
AcDbEntity
  8
ADP1DETAIL
100
AcDbPolyline
 90
        4
 70
     1
 43
0.0
 10
10.35434064031094
 20
6.166209776489393
 10
10.35434064031094
 20
7.810460811140753
 10
11.9985916749623
 20
7.810460811140753
 10
11.9985916749623
 20
6.166209776489393
  0
LWPOLYLINE
  5
AB
330
1E
100
AcDbEntity
  8
ADP1DETAIL
100
AcDbPolyline
 90
        4
 70
     1
 43
0.0
 10
10.16684064031094
 20
5.978709776489393
 10
10.16684064031094
 20
8.006023082208818
 10
12.19415394603037
 20
8.006023082208818
 10
12.19415394603037
 20
5.978709776489393
  0
LWPOLYLINE
  5
B1
330
1E
100
AcDbEntity
  8
ADP1DETAIL
100
AcDbPolyline
 90
        4
 70
     1
 43
0.0
 10
10.54184064031094
 20
6.353709776489393
 10
10.54184064031094
 20
7.603709776489393
 10
11.79184064031094
 20
7.603709776489393
 10
11.79184064031094
 20
6.353709776489393
  0
LINE
  5
B7
330
1E
100
AcDbEntity
  8
ADP1DETAIL
100
AcDbLine
 10
12.73576829694332
 20
3.342860115982103
 30
0.0
 11
9.60017384618062
 21
3.342860115982103
 31
0.0
  0
LINE
  5
B8
330
1E
100
AcDbEntity
  8
ADP1DETAIL
100
AcDbLine
 10
9.538173846180621
 20
3.092060578418545
 30
0.0
 11
12.79776829694332
 21
3.092060578418545
 31
0.0
  0
DIMENSION
  5
B9
330
1E
100
AcDbEntity
  8
ADPDIM
100
AcDbDimension
  2
*D1
 10
12.79776829694332
 20
2.837084371381132
 30
0.0
 11
11.16797107156197
 21
2.837084371381132
 31
0.0
100
AcDbAlignedDimension
 13
9.538173846180621
 23
3.092060578418545
 33
0.0
 14
12.79776829694332
 24
3.092060578418545
 34
0.0
100
AcDbRotatedDimension
  0
DIMENSION
  5
BA
330
1E
100
AcDbEntity
  8
ADPDIM
100
AcDbDimension
  2
*D2
 10
13.09862945843775
 20
4.574722075095943
 30
0.0
 11
13.09862945843775
 21
3.833391326757244
 31
0.0
100
AcDbAlignedDimension
 13
12.79776829694332
 23
3.092060578418545
 33
0.0
 14
11.86479401720688
 24
4.574722075095943
 34
0.0
 50
90.0
100
AcDbRotatedDimension
  0
ARC
  5
BB
330
1E
100
AcDbEntity
  8
ADP1DETAIL
100
AcDbCircle
 10
9.60017384618062
 20
3.280860115982103
 30
0.0
 40
0.062
100
AcDbArc
 50
90.0
 51
180.0
  0
LINE
  5
BC
330
1E
100
AcDbEntity
  8
ADP1DETAIL
100
AcDbLine
 10
9.538173846180621
 20
3.280860115982103
 30
0.0
 11
9.538173846180621
 21
3.092060578418545
 31
0.0
  0
LINE
  5
BD
330
1E
100
AcDbEntity
  8
ADP2DETAIL
  6
HIDDEN2
100
AcDbLine
 10
10.52130803342977
 20
4.568034087427581
 30
0.0
 11
10.52130803342977
 21
3.092060578418545
 31
0.0
  0
LINE
  5
BE
330
1E
100
AcDbEntity
  8
ADP2DETAIL
  6
HIDDEN2
100
AcDbLine
 10
11.81797810352835
 20
4.568034087427581
 30
0.0
 11
11.81797810352835
 21
3.092060578418545
 31
0.0
  0
LINE
  5
BF
330
1E
100
AcDbEntity
  8
ADP1DETAIL
100
AcDbLine
 10
12.03868169658428
 20
3.446523924841708
 30
0.0
 11
11.99855377057411
 21
4.407522383386904
 31
0.0
  0
LINE
  5
C0
330
1E
100
AcDbEntity
  8
ADP1DETAIL
100
AcDbLine
 10
10.340732366384
 20
4.407522383386904
 30
0.0
 11
10.29726044653965
 21
3.446523924841708
 31
0.0
  0
ARC
  5
C1
330
1E
100
AcDbEntity
  8
ADP1DETAIL
100
AcDbCircle
 10
10.13231038155967
 20
3.508918806720207
 30
0.0
 40
0.1763565854215041
100
AcDbArc
 50
285.2174510637984
 51
339.2801100397975
  0
ARC
  5
C2
330
1E
100
AcDbEntity
  8
ADP1DETAIL
100
AcDbCircle
 10
12.20505460012079
 20
3.514203340277913
 30
0.0
 40
0.1763565854215041
100
AcDbArc
 50
200.7198899602025
 51
254.7825489362015
  0
LINE
  5
C3
330
1E
100
AcDbEntity
  8
ADP1DETAIL
100
AcDbLine
 10
11.99855377057411
 20
4.407522383386904
 30
0.0
 11
10.340732366384
 21
4.407522383386904
 31
0.0
  0
LINE
  5
C4
330
1E
100
AcDbEntity
  8
ADP1DETAIL
100
AcDbLine
 10
11.04297107156197
 20
4.574722075095943
 30
0.0
 11
10.47114812591706
 21
4.574722075095943
 31
0.0
  0
DIMENSION
  5
C5
330
1E
100
AcDbEntity
  8
ADPDIM
100
AcDbDimension
  2
*D0
 10
11.81797810352835
 20
4.873553842581848
 30
0.0
 11
11.16964306847906
 21
4.873553842581848
 31
0.0
  1
1 1/4
100
AcDbAlignedDimension
 13
10.52130803342977
 23
4.568034087427581
 33
0.0
 14
11.81797810352835
 24
4.568034087427581
 34
0.0
100
AcDbRotatedDimension
  0
ARC
  5
C6
330
1E
100
AcDbEntity
  8
ADP1DETAIL
100
AcDbCircle
 10
10.24692346851083
 20
4.601963993056533
 30
0.0
 40
0.2258734581200502
100
AcDbArc
 50
297.8633497787834
 51
353.0728650058975
  0
LINE
  5
C7
330
1E
100
AcDbEntity
  8
ADP1DETAIL
100
AcDbLine
 10
11.86479401720688
 20
4.574722075095943
 30
0.0
 11
11.04297107156197
 21
4.574722075095943
 31
0.0
  0
ARC
  5
C8
330
1E
100
AcDbEntity
  8
ADP1DETAIL
100
AcDbCircle
 10
12.09173359165228
 20
4.606386230049245
 30
0.0
 40
0.2258734581200502
100
AcDbArc
 50
186.9271349941024
 51
242.1366502212165
  0
LINE
  5
C9
330
1E
100
AcDbEntity
  8
ADP1DETAIL
100
AcDbLine
 10
12.79776829694332
 20
3.092060578418545
 30
0.0
 11
12.79776829694332
 21
3.280860115982103
 31
0.0
  0
LINE
  5
CA
330
1E
100
AcDbEntity
  8
ADP1DETAIL
100
AcDbLine
 10
12.79776829694332
 20
3.279324233132669
 30
0.0
 11
12.79776829694332
 21
3.092060578418545
 31
0.0
  0
LINE
  5
CB
330
1E
100
AcDbEntity
  8
ADP1DETAIL
100
AcDbLine
 10
12.79776829694332
 20
3.092060578418545
 30
0.0
 11
12.79776829694332
 21
3.092060578418545
 31
0.0
  0
LINE
  5
CC
330
1E
100
AcDbEntity
  8
ADP1DETAIL
100
AcDbLine
 10
12.79776829694332
 20
3.092060578418545
 30
0.0
 11
12.79776829694332
 21
3.092060578418545
 31
0.0
  0
ARC
  5
CD
330
1E
100
AcDbEntity
  8
ADP1DETAIL
100
AcDbCircle
 10
12.73576829694332
 20
3.280860115982103
 30
0.0
 40
0.062
100
AcDbArc
 50
0.0
 51
90.0
  0
TEXT
  5
D1
330
1E
100
AcDbEntity
  8
ADPDIM
100
AcDbText
 10
3.010809790866201
 20
1.730300703123895
 30
0.0
 40
0.15625
  1
J U L I U S  B L U M  &  C O . ,  I N C .      ( 8 0 0 )  5 2 6 - 6 2 9 3        W W W . J U L I U S B L U M . C O M        P A R T  N o .  1 2 0 2
 41
1.25
  7
ARIAL_WIDE
 72
     1
 11
11.16797107156197
 21
1.886550703123895
 31
0.0
100
AcDbText
 73
     3
  0
ENDSEC
  0
SECTION
  2
OBJECTS
  0
DICTIONARY
  5
C
330
0
100
AcDbDictionary
  3
ACAD_GROUP
350
D
  3
ACAD_LAYOUT
350
19
  3
ACAD_MLINESTYLE
350
16
  3
ACAD_PLOTSETTINGS
350
18
  3
ACAD_PLOTSTYLENAME
350
E
  3
ACDBHEADERROUNDTRIPXREC
350
2D8
  3
ACDBVARIABLEDICTIONARY
350
142
  0
DICTIONARY
  5
10D
330
1E
100
AcDbDictionary
280
     1
  3
ACAD_LAYOUTSELFREF
360
2FA
  0
DICTIONARY
  5
10F
330
1A
100
AcDbDictionary
280
     1
  3
ACAD_LAYOUTSELFREF
360
2F9
  0
DICTIONARY
  5
D
102
{ACAD_REACTORS
330
C
102
}
330
C
100
AcDbDictionary
  0
DICTIONARY
  5
19
102
{ACAD_REACTORS
330
C
102
}
330
C
100
AcDbDictionary
  0
DICTIONARY
  5
16
102
{ACAD_REACTORS
330
C
102
}
330
C
100
AcDbDictionary
  3
STANDARD
350
17
  0
DICTIONARY
  5
18
102
{ACAD_REACTORS
330
C
102
}
330
C
100
AcDbDictionary
  0
ACDBDICTIONARYWDFLT
  5
E
102
{ACAD_REACTORS
330
C
102
}
330
C
100
AcDbDictionary
281
     1
  3
Normal
350
F
100
AcDbDictionaryWithDefault
340
F
  0
DICTIONARY
  5
2D8
102
{ACAD_REACTORS
330
C
102
}
330
C
100
AcDbDictionary
  3
CEPSNTYPE
350
2E2
  3
DIMSTYLEDATA
350
2E6
  3
FINGERPRINTGUID
350
2E3
  3
HYPERLINKBASE
350
2DB
  3
INSUNITS
350
2E1
  3
LAYOUTDICT
350
2DD
  3
LWETCUNION
350
2E0
  3
PLOTSETDICT
350
2DE
  3
PLOTSTYLNAMDICT
350
2DF
  3
PSVPSCALE
350
2E5
  3
PUCSBASE
350
2E9
  3
PUCSORGBACK
350
2EF
  3
PUCSORGBOTTOM
350
2EB
  3
PUCSORGFRONT
350
2EE
  3
PUCSORGLEFT
350
2EC
  3
PUCSORGRIGHT
350
2ED
  3
PUCSORGTOP
350
2EA
  3
PUCSORTHOREF
350
2E7
  3
PUCSORTHOVIEW
350
2E8
  3
STYLESHEET
350
2DC
  3
TSTACKALIGN
350
2D9
  3
TSTACKSIZE
350
2DA
  3
UCSBASE
350
2F2
  3
UCSORGBACK
350
2F8
  3
UCSORGBOTTOM
350
2F4
  3
UCSORGFRONT
350
2F7
  3
UCSORGLEFT
350
2F5
  3
UCSORGRIGHT
350
2F6
  3
UCSORGTOP
350
2F3
  3
UCSORTHOREF
350
2F0
  3
UCSORTHOVIEW
350
2F1
  3
VERSIONGUID
350
2E4
  0
DICTIONARY
  5
142
102
{ACAD_REACTORS
330
C
102
}
330
C
100
AcDbDictionary
  3
DIMASSOC
350
144
  3
HIDETEXT
350
143
  0
XRECORD
  5
2FA
102
{ACAD_REACTORS
330
10D
102
}
330
10D
100
AcDbXrecord
340
1E
  0
XRECORD
  5
2F9
102
{ACAD_REACTORS
330
10F
102
}
330
10F
100
AcDbXrecord
340
1A
  0
MLINESTYLE
  5
17
102
{ACAD_REACTORS
330
16
102
}
330
16
100
AcDbMlineStyle
  2
STANDARD
 70
     0
  3

 62
   256
 51
90.0
 52
90.0
 71
     2
 49
0.5
 62
   256
  6
BYLAYER
 49
-0.5
 62
   256
  6
BYLAYER
  0
ACDBPLACEHOLDER
  5
F
102
{ACAD_REACTORS
330
E
102
}
330
E
100
AcDbPlaceHolder
280
     0
  0
XRECORD
  5
2E2
102
{ACAD_REACTORS
330
2D8
102
}
330
2D8
100
AcDbXrecord
 90
        0
  0
XRECORD
  5
2E6
102
{ACAD_REACTORS
330
2D8
102
}
330
2D8
100
AcDbXrecord
1000
DSTYLE
1002
{
1070
   277
 70
     5
1070
   279
 70
     2
1002
}
  0
XRECORD
  5
2E3
102
{ACAD_REACTORS
330
2D8
102
}
330
2D8
100
AcDbXrecord
  1
{B357047C-8B0A-4A19-9D63-F2A48A92FEE1}
  0
XRECORD
  5
2DB
102
{ACAD_REACTORS
330
2D8
102
}
330
2D8
100
AcDbXrecord
  1

  0
XRECORD
  5
2E1
102
{ACAD_REACTORS
330
2D8
102
}
330
2D8
100
AcDbXrecord
 90
        0
  0
XRECORD
  5
2DD
102
{ACAD_REACTORS
330
2D8
102
}
330
2D8
100
AcDbXrecord
340
19
  0
XRECORD
  5
2E0
102
{ACAD_REACTORS
330
2D8
102
}
330
2D8
100
AcDbXrecord
 90
    14877
  0
XRECORD
  5
2DE
102
{ACAD_REACTORS
330
2D8
102
}
330
2D8
100
AcDbXrecord
340
18
  0
XRECORD
  5
2DF
102
{ACAD_REACTORS
330
2D8
102
}
330
2D8
100
AcDbXrecord
340
E
  0
XRECORD
  5
2E5
102
{ACAD_REACTORS
330
2D8
102
}
330
2D8
100
AcDbXrecord
 40
0.0
  0
XRECORD
  5
2E9
102
{ACAD_REACTORS
330
2D8
102
}
330
2D8
100
AcDbXrecord
340
0
  0
XRECORD
  5
2EF
102
{ACAD_REACTORS
330
2D8
102
}
330
2D8
100
AcDbXrecord
 10
0.0
 20
0.0
 30
0.0
  0
XRECORD
  5
2EB
102
{ACAD_REACTORS
330
2D8
102
}
330
2D8
100
AcDbXrecord
 10
0.0
 20
0.0
 30
0.0
  0
XRECORD
  5
2EE
102
{ACAD_REACTORS
330
2D8
102
}
330
2D8
100
AcDbXrecord
 10
0.0
 20
0.0
 30
0.0
  0
XRECORD
  5
2EC
102
{ACAD_REACTORS
330
2D8
102
}
330
2D8
100
AcDbXrecord
 10
0.0
 20
0.0
 30
0.0
  0
XRECORD
  5
2ED
102
{ACAD_REACTORS
330
2D8
102
}
330
2D8
100
AcDbXrecord
 10
0.0
 20
0.0
 30
0.0
  0
XRECORD
  5
2EA
102
{ACAD_REACTORS
330
2D8
102
}
330
2D8
100
AcDbXrecord
 10
0.0
 20
0.0
 30
0.0
  0
XRECORD
  5
2E7
102
{ACAD_REACTORS
330
2D8
102
}
330
2D8
100
AcDbXrecord
340
0
  0
XRECORD
  5
2E8
102
{ACAD_REACTORS
330
2D8
102
}
330
2D8
100
AcDbXrecord
 70
     0
  0
XRECORD
  5
2DC
102
{ACAD_REACTORS
330
2D8
102
}
330
2D8
100
AcDbXrecord
  1

  0
XRECORD
  5
2D9
102
{ACAD_REACTORS
330
2D8
102
}
330
2D8
100
AcDbXrecord
 90
        1
  0
XRECORD
  5
2DA
102
{ACAD_REACTORS
330
2D8
102
}
330
2D8
100
AcDbXrecord
 90
       70
  0
XRECORD
  5
2F2
102
{ACAD_REACTORS
330
2D8
102
}
330
2D8
100
AcDbXrecord
340
0
  0
XRECORD
  5
2F8
102
{ACAD_REACTORS
330
2D8
102
}
330
2D8
100
AcDbXrecord
 10
0.0
 20
0.0
 30
0.0
  0
XRECORD
  5
2F4
102
{ACAD_REACTORS
330
2D8
102
}
330
2D8
100
AcDbXrecord
 10
0.0
 20
0.0
 30
0.0
  0
XRECORD
  5
2F7
102
{ACAD_REACTORS
330
2D8
102
}
330
2D8
100
AcDbXrecord
 10
0.0
 20
0.0
 30
0.0
  0
XRECORD
  5
2F5
102
{ACAD_REACTORS
330
2D8
102
}
330
2D8
100
AcDbXrecord
 10
0.0
 20
0.0
 30
0.0
  0
XRECORD
  5
2F6
102
{ACAD_REACTORS
330
2D8
102
}
330
2D8
100
AcDbXrecord
 10
0.0
 20
0.0
 30
0.0
  0
XRECORD
  5
2F3
102
{ACAD_REACTORS
330
2D8
102
}
330
2D8
100
AcDbXrecord
 10
0.0
 20
0.0
 30
0.0
  0
XRECORD
  5
2F0
102
{ACAD_REACTORS
330
2D8
102
}
330
2D8
100
AcDbXrecord
340
0
  0
XRECORD
  5
2F1
102
{ACAD_REACTORS
330
2D8
102
}
330
2D8
100
AcDbXrecord
 70
     0
  0
XRECORD
  5
2E4
102
{ACAD_REACTORS
330
2D8
102
}
330
2D8
100
AcDbXrecord
  1
{95A1E967-F7C1-4FAD-8FF0-A2BD33F540D1}
  0
DICTIONARYVAR
  5
144
102
{ACAD_REACTORS
330
142
102
}
330
142
100
DictionaryVariables
280
     0
  1
2
  0
DICTIONARYVAR
  5
143
102
{ACAD_REACTORS
330
142
102
}
330
142
100
DictionaryVariables
280
     0
  1
1
  0
ENDSEC
  0
EOF
