  0
SECTION
  2
HEADER
  9
$ACADVER
  1
AC1014
  9
$ACADMAINTVER
 70
     9
  9
$DWGCODEPAGE
  3
ANSI_1252
  9
$INSBASE
 10
5.553238201636235
 20
4.359653264159277
 30
0.0
  9
$EXTMIN
 10
-0.5767684133371685
 20
3.669669681286975
 30
0.0
  9
$EXTMAX
 10
12.47468963577606
 20
7.051158905226305
 30
0.0
  9
$LIMMIN
 10
0.0
 20
0.0
  9
$LIMMAX
 10
36.0
 20
36.0
  9
$ORTHOMODE
 70
     1
  9
$REGENMODE
 70
     1
  9
$FILLMODE
 70
     1
  9
$QTEXTMODE
 70
     0
  9
$MIRRTEXT
 70
     1
  9
$DRAGMODE
 70
     0
  9
$LTSCALE
 40
1.0
  9
$OSMODE
 70
    37
  9
$ATTMODE
 70
     1
  9
$TEXTSIZE
 40
0.2
  9
$TRACEWID
 40
0.05
  9
$TEXTSTYLE
  7
STANDARD
  9
$CLAYER
  8
ADPDIM
  9
$CELTYPE
  6
BYLAYER
  9
$CECOLOR
 62
   256
  9
$CELTSCALE
 40
1.0
  9
$DELOBJ
 70
     1
  9
$DISPSILH
 70
     0
  9
$DIMSCALE
 40
1.0
  9
$DIMASZ
 40
0.125
  9
$DIMEXO
 40
0.0625
  9
$DIMDLI
 40
0.38
  9
$DIMRND
 40
0.0
  9
$DIMDLE
 40
0.0
  9
$DIMEXE
 40
0.18
  9
$DIMTP
 40
0.0
  9
$DIMTM
 40
0.0
  9
$DIMTXT
 40
0.125
  9
$DIMCEN
 40
0.1875
  9
$DIMTSZ
 40
0.125
  9
$DIMTOL
 70
     0
  9
$DIMLIM
 70
     0
  9
$DIMTIH
 70
     0
  9
$DIMTOH
 70
     0
  9
$DIMSE1
 70
     0
  9
$DIMSE2
 70
     0
  9
$DIMTAD
 70
     0
  9
$DIMZIN
 70
     3
  9
$DIMBLK
  1

  9
$DIMASO
 70
     1
  9
$DIMSHO
 70
     1
  9
$DIMPOST
  1

  9
$DIMAPOST
  1

  9
$DIMALT
 70
     0
  9
$DIMALTD
 70
     1
  9
$DIMALTF
 40
25.4
  9
$DIMLFAC
 40
1.0
  9
$DIMTOFL
 70
     0
  9
$DIMTVP
 40
0.0
  9
$DIMTIX
 70
     0
  9
$DIMSOXD
 70
     0
  9
$DIMSAH
 70
     0
  9
$DIMBLK1
  1

  9
$DIMBLK2
  1

  9
$DIMSTYLE
  2
STANDARD
  9
$DIMCLRD
 70
     0
  9
$DIMCLRE
 70
     0
  9
$DIMCLRT
 70
     0
  9
$DIMTFAC
 40
1.0
  9
$DIMGAP
 40
0.125
  9
$DIMJUST
 70
     0
  9
$DIMSD1
 70
     0
  9
$DIMSD2
 70
     0
  9
$DIMTOLJ
 70
     1
  9
$DIMTZIN
 70
     3
  9
$DIMALTZ
 70
     3
  9
$DIMALTTZ
 70
     3
  9
$DIMFIT
 70
     5
  9
$DIMUPT
 70
     0
  9
$DIMUNIT
 70
     5
  9
$DIMDEC
 70
     4
  9
$DIMTDEC
 70
     4
  9
$DIMALTU
 70
     5
  9
$DIMALTTD
 70
     1
  9
$DIMTXSTY
  7
STANDARD
  9
$DIMAUNIT
 70
     0
  9
$LUNITS
 70
     5
  9
$LUPREC
 70
     4
  9
$SKETCHINC
 40
0.1
  9
$FILLETRAD
 40
0.05
  9
$AUNITS
 70
     0
  9
$AUPREC
 70
     0
  9
$MENU
  1
acad
  9
$ELEVATION
 40
0.0
  9
$PELEVATION
 40
0.0
  9
$THICKNESS
 40
0.0
  9
$LIMCHECK
 70
     0
  9
$BLIPMODE
 70
     0
  9
$CHAMFERA
 40
0.0
  9
$CHAMFERB
 40
0.0
  9
$CHAMFERC
 40
0.0
  9
$CHAMFERD
 40
0.0
  9
$SKPOLY
 70
     0
  9
$TDCREATE
 40
2450415.461318866
  9
$TDUPDATE
 40
2452297.079761285
  9
$TDINDWG
 40
0.0305363889
  9
$TDUSRTIMER
 40
0.0305363889
  9
$USRTIMER
 70
     1
  9
$ANGBASE
 50
0.0
  9
$ANGDIR
 70
     0
  9
$PDMODE
 70
     0
  9
$PDSIZE
 40
0.0
  9
$PLINEWID
 40
0.0
  9
$COORDS
 70
     2
  9
$SPLFRAME
 70
     0
  9
$SPLINETYPE
 70
     6
  9
$SPLINESEGS
 70
     8
  9
$ATTDIA
 70
     0
  9
$ATTREQ
 70
     1
  9
$HANDLING
 70
 22529
  9
$HANDSEED
  5
421
  9
$SURFTAB1
 70
     6
  9
$SURFTAB2
 70
     6
  9
$SURFTYPE
 70
     6
  9
$SURFU
 70
     6
  9
$SURFV
 70
     6
  9
$UCSNAME
  2

  9
$UCSORG
 10
0.0
 20
0.0
 30
0.0
  9
$UCSXDIR
 10
1.0
 20
0.0
 30
0.0
  9
$UCSYDIR
 10
0.0
 20
1.0
 30
0.0
  9
$PUCSNAME
  2

  9
$PUCSORG
 10
0.0
 20
0.0
 30
0.0
  9
$PUCSXDIR
 10
1.0
 20
0.0
 30
0.0
  9
$PUCSYDIR
 10
0.0
 20
1.0
 30
0.0
  9
$USERI1
 70
     0
  9
$USERI2
 70
     0
  9
$USERI3
 70
     0
  9
$USERI4
 70
     0
  9
$USERI5
 70
     0
  9
$USERR1
 40
0.0
  9
$USERR2
 40
0.0
  9
$USERR3
 40
0.0
  9
$USERR4
 40
0.0
  9
$USERR5
 40
0.0
  9
$WORLDVIEW
 70
     1
  9
$SHADEDGE
 70
     3
  9
$SHADEDIF
 70
    70
  9
$TILEMODE
 70
     1
  9
$MAXACTVP
 70
    15
  9
$PINSBASE
 10
0.0004882961511612
 20
1.000276130627782
 30
0.0
  9
$PLIMCHECK
 70
     0
  9
$PEXTMIN
 10
1.000000000000000E+20
 20
1.000000000000000E+20
 30
1.000000000000000E+20
  9
$PEXTMAX
 10
-1.000000000000000E+20
 20
-1.000000000000000E+20
 30
-1.000000000000000E+20
  9
$PLIMMIN
 10
0.0
 20
0.0
  9
$PLIMMAX
 10
12.0
 20
9.0
  9
$UNITMODE
 70
     0
  9
$VISRETAIN
 70
     0
  9
$PLINEGEN
 70
     0
  9
$PSLTSCALE
 70
     1
  9
$TREEDEPTH
 70
  3020
  9
$PICKSTYLE
 70
     1
  9
$CMLSTYLE
  2
STANDARD
  9
$CMLJUST
 70
     0
  9
$CMLSCALE
 40
1.0
  9
$PROXYGRAPHICS
 70
     1
  9
$MEASUREMENT
 70
     0
  0
ENDSEC
  0
SECTION
  2
CLASSES
  0
CLASS
  1
ACDBDICTIONARYWDFLT
  2
AcDbDictionaryWithDefault
  3
AutoCAD 2000
 90
        0
280
     0
281
     0
  0
CLASS
  1
ACDBPLACEHOLDER
  2
AcDbPlaceHolder
  3
AutoCAD 2000
 90
        0
280
     0
281
     0
  0
CLASS
  1
LAYOUT
  2
AcDbLayout
  3
AutoCAD 2000
 90
        0
280
     0
281
     0
  0
CLASS
  1
DICTIONARYVAR
  2
AcDbDictionaryVar
  3
AutoCAD 2000
 90
        0
280
     0
281
     0
  0
CLASS
  1
LONG_TRANSACTION
  2
AcDbLongTransaction
  3
AutoCAD 2000
 90
        0
280
     0
281
     0
  0
CLASS
  1
LWPOLYLINE
  2
AcDbPolyline
  3
AutoCAD 2000
 90
        0
280
     0
281
     1
  0
CLASS
  1
HATCH
  2
AcDbHatch
  3
AutoCAD 2000
 90
        0
280
     0
281
     1
  0
CLASS
  1
XRECORD
  2
AcDbXrecord
  3
AutoCAD 2000
 90
        0
280
     0
281
     0
  0
CLASS
  1
LONG_TRANSACTION
  2
AcDbLongTransaction
  3
AutoCAD 2000
 90
        0
280
     0
281
     0
  0
CLASS
  1
LWPOLYLINE
  2
AcDbPolyline
  3
AutoCAD 2000
 90
        0
280
     0
281
     1
  0
CLASS
  1
HATCH
  2
AcDbHatch
  3
AutoCAD 2000
 90
        0
280
     0
281
     1
  0
CLASS
  1
XRECORD
  2
AcDbXrecord
  3
AutoCAD 2000
 90
        0
280
     0
281
     0
  0
CLASS
  1
LONG_TRANSACTION
  2
AcDbLongTransaction
  3
AutoCAD 2000
 90
        0
280
     0
281
     0
  0
CLASS
  1
LWPOLYLINE
  2
AcDbPolyline
  3
AutoCAD 2000
 90
        0
280
     0
281
     1
  0
CLASS
  1
HATCH
  2
AcDbHatch
  3
AutoCAD 2000
 90
        0
280
     0
281
     1
  0
CLASS
  1
XRECORD
  2
AcDbXrecord
  3
AutoCAD 2000
 90
        0
280
     0
281
     0
  0
CLASS
  1
LONG_TRANSACTION
  2
AcDbLongTransaction
  3
AutoCAD 2000
 90
        0
280
     0
281
     0
  0
CLASS
  1
LWPOLYLINE
  2
AcDbPolyline
  3
AutoCAD 2000
 90
        0
280
     0
281
     1
  0
CLASS
  1
HATCH
  2
AcDbHatch
  3
AutoCAD 2000
 90
        0
280
     0
281
     1
  0
CLASS
  1
XRECORD
  2
AcDbXrecord
  3
AutoCAD 2000
 90
        0
280
     0
281
     0
  0
CLASS
  1
LONG_TRANSACTION
  2
AcDbLongTransaction
  3
AutoCAD 2000
 90
        0
280
     0
281
     0
  0
CLASS
  1
LWPOLYLINE
  2
AcDbPolyline
  3
AutoCAD 2000
 90
        0
280
     0
281
     1
  0
CLASS
  1
HATCH
  2
AcDbHatch
  3
AutoCAD 2000
 90
        0
280
     0
281
     1
  0
CLASS
  1
XRECORD
  2
AcDbXrecord
  3
AutoCAD 2000
 90
        0
280
     0
281
     0
  0
CLASS
  1
LONG_TRANSACTION
  2
AcDbLongTransaction
  3
AutoCAD 2000
 90
        0
280
     0
281
     0
  0
CLASS
  1
LWPOLYLINE
  2
AcDbPolyline
  3
AutoCAD 2000
 90
        0
280
     0
281
     1
  0
CLASS
  1
HATCH
  2
AcDbHatch
  3
AutoCAD 2000
 90
        0
280
     0
281
     1
  0
CLASS
  1
XRECORD
  2
AcDbXrecord
  3
AutoCAD 2000
 90
        0
280
     0
281
     0
  0
ENDSEC
  0
SECTION
  2
TABLES
  0
TABLE
  2
VPORT
  5
8
330
0
100
AcDbSymbolTable
 70
     2
  0
VPORT
  5
3FD
330
8
100
AcDbSymbolTableRecord
100
AcDbViewportTableRecord
  2
*ACTIVE
 70
     0
 10
0.0
 20
0.0
 11
1.0
 21
1.0
 12
5.959907422544888
 22
5.360229561291905
 13
0.0
 23
0.0
 14
0.5740882589684922
 24
0.5740882589684922
 15
0.5
 25
0.5
 16
0.0
 26
0.0
 36
1.0
 17
0.0
 27
0.0
 37
0.0
 40
8.365595802020571
 41
1.570528967254408
 42
50.0
 43
0.0
 44
0.0
 50
0.0
 51
0.0
 71
     0
 72
   100
 73
     1
 74
     0
 75
     0
 76
     0
 77
     0
 78
     0
  0
ENDTAB
  0
TABLE
  2
LTYPE
  5
5
330
0
100
AcDbSymbolTable
 70
     2
  0
LTYPE
  5
13
330
5
100
AcDbSymbolTableRecord
100
AcDbLinetypeTableRecord
  2
BYBLOCK
 70
     0
  3

 72
    65
 73
     0
 40
0.0
  0
LTYPE
  5
14
330
5
100
AcDbSymbolTableRecord
100
AcDbLinetypeTableRecord
  2
BYLAYER
 70
     0
  3

 72
    65
 73
     0
 40
0.0
  0
LTYPE
  5
15
330
5
100
AcDbSymbolTableRecord
100
AcDbLinetypeTableRecord
  2
CONTINUOUS
 70
     0
  3
Solid line
 72
    65
 73
     0
 40
0.0
  0
LTYPE
  5
2B
330
5
100
AcDbSymbolTableRecord
100
AcDbLinetypeTableRecord
  2
HIDDEN2
 70
     0
  3
_ _ _ _ _ _ _ _ _ _ _ _ _ _ _ _ _ _ _ _ _ _ _ _
 72
    65
 73
     2
 40
0.1875
 49
0.125
 74
     0
 49
-0.0625
 74
     0
  0
ENDTAB
  0
TABLE
  2
LAYER
  5
2
330
0
100
AcDbSymbolTable
 70
     5
  0
LAYER
  5
10
330
2
100
AcDbSymbolTableRecord
100
AcDbLayerTableRecord
  2
0
 70
     0
 62
     7
  6
CONTINUOUS
  0
LAYER
  5
2D
330
2
100
AcDbSymbolTableRecord
100
AcDbLayerTableRecord
  2
ADP2DETAIL
 70
     0
 62
     5
  6
CONTINUOUS
  0
LAYER
  5
2E
330
2
100
AcDbSymbolTableRecord
100
AcDbLayerTableRecord
  2
ADPDIM
 70
     0
 62
     3
  6
CONTINUOUS
  0
LAYER
  5
2F
330
2
100
AcDbSymbolTableRecord
100
AcDbLayerTableRecord
  2
ADP1DETAIL
 70
     0
 62
     7
  6
CONTINUOUS
  0
LAYER
  5
30
330
2
100
AcDbSymbolTableRecord
100
AcDbLayerTableRecord
  2
DEFPOINTS
 70
     0
 62
     7
  6
CONTINUOUS
  0
ENDTAB
  0
TABLE
  2
STYLE
  5
3
330
0
100
AcDbSymbolTable
 70
     2
  0
STYLE
  5
11
330
3
100
AcDbSymbolTableRecord
100
AcDbTextStyleTableRecord
  2
STANDARD
 70
     0
 40
0.0
 41
1.0
 50
0.0
 71
     0
 42
0.2
  3
txt
  4

  0
STYLE
  5
1FA
330
3
100
AcDbSymbolTableRecord
100
AcDbTextStyleTableRecord
  2
ARIAL_WIDE
 70
     0
 40
0.0
 41
1.25
 50
0.0
 71
     0
 42
0.2
  3
ARIAL.TTF
  4

1001
ACAD
1000
Arial
1071
       34
  0
ENDTAB
  0
TABLE
  2
VIEW
  5
6
330
0
100
AcDbSymbolTable
 70
     0
  0
ENDTAB
  0
TABLE
  2
UCS
  5
7
330
0
100
AcDbSymbolTable
 70
     0
  0
ENDTAB
  0
TABLE
  2
APPID
  5
9
330
0
100
AcDbSymbolTable
 70
     1
  0
APPID
  5
12
330
9
100
AcDbSymbolTableRecord
100
AcDbRegAppTableRecord
  2
ACAD
 70
     0
  0
ENDTAB
  0
TABLE
  2
DIMSTYLE
  5
A
330
0
100
AcDbSymbolTable
 70
     1
  0
DIMSTYLE
105
1F8
330
A
100
AcDbSymbolTableRecord
100
AcDbDimStyleTableRecord
  2
STANDARD
 70
     0
  3

  4

  5

  6

  7

 40
1.0
 41
0.18
 42
0.0625
 43
0.38
 44
0.18
 45
0.0
 46
0.0
 47
0.0
 48
0.0
140
0.18
141
0.09
142
0.0
143
25.4
144
1.0
145
0.0
146
1.0
147
0.09
 71
     0
 72
     0
 73
     1
 74
     1
 75
     0
 76
     0
 77
     0
 78
     0
170
     0
171
     2
172
     0
173
     0
174
     0
175
     0
176
     0
177
     0
178
     0
270
     2
271
     4
272
     4
273
     2
274
     2
340
11
275
     0
280
     0
281
     0
282
     0
283
     1
284
     0
285
     0
286
     0
287
     3
288
     0
  0
ENDTAB
  0
TABLE
  2
BLOCK_RECORD
  5
1
330
0
100
AcDbSymbolTable
 70
     2
  0
BLOCK_RECORD
  5
1E
102
{ACAD_XDICTIONARY
360
237
102
}
330
1
100
AcDbSymbolTableRecord
100
AcDbBlockTableRecord
  2
*MODEL_SPACE
  0
BLOCK_RECORD
  5
1A
102
{ACAD_XDICTIONARY
360
239
102
}
330
1
100
AcDbSymbolTableRecord
100
AcDbBlockTableRecord
  2
*PAPER_SPACE
  0
BLOCK_RECORD
  5
24
330
1
100
AcDbSymbolTableRecord
100
AcDbBlockTableRecord
  2
*D0
  0
BLOCK_RECORD
  5
2A
330
1
100
AcDbSymbolTableRecord
100
AcDbBlockTableRecord
  2
*D1
  0
ENDTAB
  0
ENDSEC
  0
SECTION
  2
BLOCKS
  0
BLOCK
  5
33
330
1E
100
AcDbEntity
  8
0
100
AcDbBlockBegin
  2
*MODEL_SPACE
 70
     0
 10
0.0
 20
0.0
 30
0.0
  3
*MODEL_SPACE
  1

  0
ENDBLK
  5
34
330
1E
100
AcDbEntity
  8
0
100
AcDbBlockEnd
  0
BLOCK
  5
31
330
1A
100
AcDbEntity
 67
     1
  8
0
100
AcDbBlockBegin
  2
*PAPER_SPACE
 70
     0
 10
0.0
 20
0.0
 30
0.0
  3
*PAPER_SPACE
  1

  0
ENDBLK
  5
32
330
1A
100
AcDbEntity
 67
     1
  8
0
100
AcDbBlockEnd
  0
BLOCK
  5
4E
330
24
100
AcDbEntity
  8
0
100
AcDbBlockBegin
  2
*D0
 70
     1
 10
0.0
 20
0.0
 30
0.0
  3
*D0
  1

  0
LINE
  5
4F
330
24
100
AcDbEntity
  8
0
  6
BYBLOCK
 62
     0
100
AcDbLine
 10
6.049475359496208
 20
11.47269113652163
 30
0.0
 11
6.049475359496208
 21
11.92755667454063
 31
0.0
  0
LINE
  5
50
330
24
100
AcDbEntity
  8
0
  6
BYBLOCK
 62
     0
100
AcDbLine
 10
11.0494753594962
 20
11.47269113652163
 30
0.0
 11
11.0494753594962
 21
11.92755667454063
 31
0.0
  0
LINE
  5
51
330
24
100
AcDbEntity
  8
0
  6
BYBLOCK
 62
     0
100
AcDbLine
 10
6.049475359496208
 20
11.74755667454063
 30
0.0
 11
8.382808692829541
 21
11.74755667454063
 31
0.0
  0
LINE
  5
52
330
24
100
AcDbEntity
  8
0
  6
BYBLOCK
 62
     0
100
AcDbLine
 10
11.0494753594962
 20
11.74755667454063
 30
0.0
 11
8.716142026162874
 21
11.74755667454063
 31
0.0
  0
LINE
  5
53
330
24
100
AcDbEntity
  8
0
  6
BYBLOCK
 62
     0
100
AcDbLine
 10
5.924475359496208
 20
11.62255667454063
 30
0.0
 11
6.174475359496208
 21
11.87255667454063
 31
0.0
  0
LINE
  5
54
330
24
100
AcDbEntity
  8
0
  6
BYBLOCK
 62
     0
100
AcDbLine
 10
10.9244753594962
 20
11.62255667454063
 30
0.0
 11
11.1744753594962
 21
11.87255667454063
 31
0.0
  0
TEXT
  5
55
330
24
100
AcDbEntity
  8
0
  6
BYBLOCK
 62
     0
100
AcDbText
 10
8.507808692829541
 20
11.68505667454063
 30
0.0
 40
0.125
  1
5
 72
     1
 11
8.549475359496208
 21
11.74755667454063
 31
0.0
100
AcDbText
 73
     2
  0
POINT
  5
56
330
24
100
AcDbEntity
  8
DEFPOINTS
  6
BYBLOCK
 62
     0
100
AcDbPoint
 10
6.049475359496208
 20
11.41019113652163
 30
0.0
  0
POINT
  5
57
330
24
100
AcDbEntity
  8
DEFPOINTS
  6
BYBLOCK
 62
     0
100
AcDbPoint
 10
11.0494753594962
 20
11.41019113652163
 30
0.0
  0
POINT
  5
58
330
24
100
AcDbEntity
  8
DEFPOINTS
  6
BYBLOCK
 62
     0
100
AcDbPoint
 10
11.0494753594962
 20
11.74755667454063
 30
0.0
  0
ENDBLK
  5
59
330
24
100
AcDbEntity
  8
0
100
AcDbBlockEnd
  0
BLOCK
  5
96
330
2A
100
AcDbEntity
  8
0
100
AcDbBlockBegin
  2
*D1
 70
     1
 10
0.0
 20
0.0
 30
0.0
  3
*D1
  1

  0
LINE
  5
97
330
2A
100
AcDbEntity
  8
0
  6
BYBLOCK
 62
     0
100
AcDbLine
 10
1.469435271796718
 20
5.470294004890122
 30
0.0
 11
1.469435271796718
 21
7.051158905226305
 31
0.0
  0
LINE
  5
98
330
2A
100
AcDbEntity
  8
0
  6
BYBLOCK
 62
     0
100
AcDbLine
 10
3.736303827793503
 20
5.430725667061464
 30
0.0
 11
3.736303827793503
 21
7.051158905226305
 31
0.0
  0
LINE
  5
99
330
2A
100
AcDbEntity
  8
0
  6
BYBLOCK
 62
     0
100
AcDbLine
 10
1.469435271796718
 20
6.871158905226305
 30
0.0
 11
2.238286216461777
 21
6.871158905226305
 31
0.0
  0
LINE
  5
9A
330
2A
100
AcDbEntity
  8
0
  6
BYBLOCK
 62
     0
100
AcDbLine
 10
3.736303827793503
 20
6.871158905226305
 30
0.0
 11
2.967452883128444
 21
6.871158905226305
 31
0.0
  0
LINE
  5
9B
330
2A
100
AcDbEntity
  8
0
  6
BYBLOCK
 62
     0
100
AcDbLine
 10
1.344435271796718
 20
6.746158905226305
 30
0.0
 11
1.594435271796718
 21
6.996158905226305
 31
0.0
  0
LINE
  5
9C
330
2A
100
AcDbEntity
  8
0
  6
BYBLOCK
 62
     0
100
AcDbLine
 10
3.611303827793503
 20
6.746158905226305
 30
0.0
 11
3.861303827793503
 21
6.996158905226305
 31
0.0
  0
TEXT
  5
9D
330
2A
100
AcDbEntity
  8
0
  6
BYBLOCK
 62
     0
100
AcDbText
 10
2.363286216461777
 20
6.808658905226305
 30
0.0
 40
0.125
  1
2.250
 72
     1
 11
2.60286954979511
 21
6.871158905226305
 31
0.0
100
AcDbText
 73
     2
  0
POINT
  5
9E
330
2A
100
AcDbEntity
  8
DEFPOINTS
  6
BYBLOCK
 62
     0
100
AcDbPoint
 10
1.469435271796718
 20
5.407794004890122
 30
0.0
  0
POINT
  5
9F
330
2A
100
AcDbEntity
  8
DEFPOINTS
  6
BYBLOCK
 62
     0
100
AcDbPoint
 10
3.736303827793503
 20
5.368225667061464
 30
0.0
  0
POINT
  5
A0
330
2A
100
AcDbEntity
  8
DEFPOINTS
  6
BYBLOCK
 62
     0
100
AcDbPoint
 10
3.736303827793503
 20
6.871158905226305
 30
0.0
  0
ENDBLK
  5
A1
330
2A
100
AcDbEntity
  8
0
100
AcDbBlockEnd
  0
ENDSEC
  0
SECTION
  2
ENTITIES
  0
LINE
  5
A2
330
1E
100
AcDbEntity
  8
ADP1DETAIL
100
AcDbLine
 10
5.511902054339706
 20
4.357483869909726
 30
0.0
 11
10.3869020543397
 21
4.357483869909726
 31
0.0
  0
LINE
  5
A3
330
1E
100
AcDbEntity
  8
ADP2DETAIL
  6
HIDDEN2
100
AcDbLine
 10
5.449402054339706
 20
4.467272674970937
 30
0.0
 11
10.4494020543397
 21
4.467272674970937
 31
0.0
  0
LINE
  5
A4
330
1E
100
AcDbEntity
  8
ADP1DETAIL
100
AcDbLine
 10
10.3869020543397
 20
6.470658359939472
 30
0.0
 11
5.511902054339706
 21
6.470658359939472
 31
0.0
  0
DIMENSION
  5
A5
330
1E
100
AcDbEntity
  8
ADPDIM
100
AcDbDimension
  2
*D0
 10
10.4494020543397
 20
6.745523897958477
 30
0.0
 11
7.949402054339705
 21
6.864419919388643
 31
0.0
 12
-0.6000733051565029
 22
-5.00203277658216
 32
0.0
100
AcDbAlignedDimension
 13
5.449402054339706
 23
6.408158359939472
 33
0.0
 14
10.4494020543397
 24
6.408158359939472
 34
0.0
100
AcDbRotatedDimension
  0
DIMENSION
  5
A6
330
1E
100
AcDbEntity
  8
ADPDIM
100
AcDbDimension
  2
*D1
 10
3.736303827793503
 20
6.871158905226305
 30
0.0
 11
2.60286954979511
 21
6.871158905226305
 31
0.0
  1
2.250
100
AcDbAlignedDimension
 13
1.469435271796718
 23
5.407794004890122
 33
0.0
 14
3.736303827793503
 24
5.368225667061464
 34
0.0
100
AcDbRotatedDimension
  0
LINE
  5
A7
330
1E
100
AcDbEntity
  8
ADP1DETAIL
100
AcDbLine
 10
1.734579621100251
 20
6.031623312784172
 30
0.0
 11
1.732247678574502
 21
6.058277537820517
 31
0.0
  0
LINE
  5
A8
330
1E
100
AcDbEntity
  8
ADP1DETAIL
100
AcDbLine
 10
1.732247678574502
 20
6.058277537820517
 30
0.0
 11
1.758901903610849
 21
6.060609480346267
 31
0.0
  0
LINE
  5
A9
330
1E
100
AcDbEntity
  8
ADP1DETAIL
100
AcDbLine
 10
1.70731234372919
 20
6.027484963722792
 30
0.0
 11
1.733868948111328
 21
6.030745704730926
 31
0.0
  0
LINE
  5
AA
330
1E
100
AcDbEntity
  8
ADP1DETAIL
100
AcDbLine
 10
1.733868948111328
 20
4.626472420274315
 30
0.0
 11
1.70731234372919
 21
4.629733161282447
 31
0.0
  0
LINE
  5
AB
330
1E
100
AcDbEntity
  8
ADP1DETAIL
100
AcDbLine
 10
1.758901903610847
 20
4.596608644658971
 30
0.0
 11
1.732247678574502
 21
4.598940587184721
 31
0.0
  0
LINE
  5
AC
330
1E
100
AcDbEntity
  8
ADP1DETAIL
100
AcDbLine
 10
1.732247678574502
 20
4.598940587184721
 30
0.0
 11
1.734579621100251
 21
4.625594812221066
 31
0.0
  0
ARC
  5
AD
330
1E
100
AcDbEntity
  8
ADP1DETAIL
100
AcDbCircle
 10
2.601832705437349
 20
5.304959840986766
 30
0.0
 40
1.016916525181696
100
AcDbArc
 50
304.5994721985026
 51
235.4005278014974
  0
LINE
  5
AE
330
1E
100
AcDbEntity
  8
ADP1DETAIL
100
AcDbLine
 10
1.467361583081196
 20
5.288992457943776
 30
0.0
 11
1.485609158377817
 21
5.308560586725691
 31
0.0
  0
LINE
  5
AF
330
1E
100
AcDbEntity
  8
ADP1DETAIL
100
AcDbLine
 10
1.70731234372919
 20
4.629733161282447
 30
0.0
 11
1.710573084737323
 21
4.656289765664586
 31
0.0
  0
LINE
  5
B0
330
1E
100
AcDbEntity
  8
ADP1DETAIL
100
AcDbLine
 10
1.472888612352676
 20
5.209952256941253
 30
0.0
 11
1.489726733811397
 21
5.230745605252019
 31
0.0
  0
LINE
  5
B1
330
1E
100
AcDbEntity
  8
ADP1DETAIL
100
AcDbLine
 10
1.513915602893012
 20
5.078023096449696
 30
0.0
 11
1.491476099759541
 21
5.09259548017215
 31
0.0
  0
LINE
  5
B2
330
1E
100
AcDbEntity
  8
ADP1DETAIL
100
AcDbLine
 10
1.523323656693303
 20
5.040207987316767
 30
0.0
 11
1.500389254241178
 21
5.05398836657118
 31
0.0
  0
LINE
  5
B3
330
1E
100
AcDbEntity
  8
ADP1DETAIL
100
AcDbLine
 10
1.500389254241178
 20
5.05398836657118
 30
0.0
 11
1.51416963349559
 21
5.076922769023305
 31
0.0
  0
LINE
  5
B4
330
1E
100
AcDbEntity
  8
ADP1DETAIL
100
AcDbLine
 10
1.534045707637906
 20
5.002744250469175
 30
0.0
 11
1.510644347903738
 21
5.015715835986126
 31
0.0
  0
LINE
  5
B5
330
1E
100
AcDbEntity
  8
ADP1DETAIL
100
AcDbLine
 10
1.510644347903738
 20
5.015715835986126
 30
0.0
 11
1.52361593342069
 21
5.039117195720294
 31
0.0
  0
LINE
  5
B6
330
1E
100
AcDbEntity
  8
ADP1DETAIL
100
AcDbLine
 10
1.493681960663443
 20
5.193114135482532
 30
0.0
 11
1.472888612352676
 21
5.209952256941253
 31
0.0
  0
LINE
  5
B7
330
1E
100
AcDbEntity
  8
ADP1DETAIL
100
AcDbLine
 10
1.483915743764602
 20
5.131490139968085
 30
0.0
 11
1.499262377750238
 21
5.153407404704872
 31
0.0
  0
LINE
  5
B8
330
1E
100
AcDbEntity
  8
ADP1DETAIL
100
AcDbLine
 10
1.505833008501388
 20
5.116143505982448
 30
0.0
 11
1.483915743764602
 21
5.131490139968085
 31
0.0
  0
LINE
  5
B9
330
1E
100
AcDbEntity
  8
ADP1DETAIL
100
AcDbLine
 10
1.491476099759541
 20
5.09259548017215
 30
0.0
 11
1.506048483481997
 21
5.115034983305622
 31
0.0
  0
LINE
  5
BA
330
1E
100
AcDbEntity
  8
ADP1DETAIL
100
AcDbLine
 10
1.50583300850139
 20
5.116143505982448
 30
0.0
 11
1.483915743764602
 21
5.131490139968083
 31
0.0
  0
LINE
  5
BB
330
1E
100
AcDbEntity
  8
ADP1DETAIL
100
AcDbLine
 10
1.499085720914671
 20
5.15452277206801
 30
0.0
 11
1.477717397385553
 21
5.170624958807284
 31
0.0
  0
LINE
  5
BC
330
1E
100
AcDbEntity
  8
ADP1DETAIL
100
AcDbLine
 10
1.477717397385553
 20
5.170624958807284
 30
0.0
 11
1.493819584124828
 21
5.191993282336402
 31
0.0
  0
LINE
  5
BD
330
1E
100
AcDbEntity
  8
ADP1DETAIL
100
AcDbLine
 10
1.483915743764602
 20
5.131490139968083
 30
0.0
 11
1.499262377750237
 21
5.153407404704871
 31
0.0
  0
LINE
  5
BE
330
1E
100
AcDbEntity
  8
ADP1DETAIL
100
AcDbLine
 10
1.618753028039527
 20
4.761027746122138
 30
0.0
 11
1.625678000723151
 21
4.786872096018444
 31
0.0
  0
LINE
  5
BF
330
1E
100
AcDbEntity
  8
ADP1DETAIL
100
AcDbLine
 10
1.644597377935833
 20
4.754102773438516
 30
0.0
 11
1.618753028039527
 21
4.761027746122138
 31
0.0
  0
LINE
  5
C0
330
1E
100
AcDbEntity
  8
ADP1DETAIL
100
AcDbLine
 10
1.644597377935833
 20
4.754102773438518
 30
0.0
 11
1.618753028039529
 21
4.761027746122138
 31
0.0
  0
LINE
  5
C1
330
1E
100
AcDbEntity
  8
ADP1DETAIL
100
AcDbLine
 10
1.618753028039529
 20
4.761027746122138
 30
0.0
 11
1.625678000723149
 21
4.786872096018442
 31
0.0
  0
LINE
  5
C2
330
1E
100
AcDbEntity
  8
ADP1DETAIL
100
AcDbLine
 10
1.546068692559349
 20
4.965677529699418
 30
0.0
 11
1.522228886495272
 21
4.977824517600075
 31
0.0
  0
LINE
  5
C3
330
1E
100
AcDbEntity
  8
ADP1DETAIL
100
AcDbLine
 10
1.522228886495272
 20
4.977824517600075
 30
0.0
 11
1.534375874395931
 21
5.001664323664152
 31
0.0
  0
LINE
  5
C4
330
1E
100
AcDbEntity
  8
ADP1DETAIL
100
AcDbLine
 10
1.559377963302504
 20
4.929052985097062
 30
0.0
 11
1.535128756039967
 21
4.940360576147773
 31
0.0
  0
LINE
  5
C5
330
1E
100
AcDbEntity
  8
ADP1DETAIL
100
AcDbLine
 10
1.535128756039967
 20
4.940360576147773
 30
0.0
 11
1.546436347090675
 21
4.96460978341031
 31
0.0
  0
LINE
  5
C6
330
1E
100
AcDbEntity
  8
ADP1DETAIL
100
AcDbLine
 10
1.573957304571108
 20
4.892915238028132
 30
0.0
 11
1.549328240033855
 21
4.903369655670997
 31
0.0
  0
LINE
  5
C7
330
1E
100
AcDbEntity
  8
ADP1DETAIL
100
AcDbLine
 10
1.549328240033855
 20
4.903369655670997
 30
0.0
 11
1.559782657676721
 21
4.927998720208248
 31
0.0
  0
LINE
  5
C8
330
1E
100
AcDbEntity
  8
ADP1DETAIL
100
AcDbLine
 10
1.589788953683599
 20
4.857308316770837
 30
0.0
 11
1.564810038592954
 21
4.866896823908339
 31
0.0
  0
LINE
  5
C9
330
1E
100
AcDbEntity
  8
ADP1DETAIL
100
AcDbLine
 10
1.564810038592954
 20
4.866896823908339
 30
0.0
 11
1.574398545730455
 21
4.891875738998983
 31
0.0
  0
LINE
  5
CA
330
1E
100
AcDbEntity
  8
ADP1DETAIL
100
AcDbLine
 10
1.606853622214213
 20
4.822275602873901
 30
0.0
 11
1.581555289530507
 21
4.830986517387089
 31
0.0
  0
LINE
  5
CB
330
1E
100
AcDbEntity
  8
ADP1DETAIL
100
AcDbLine
 10
1.625130519492954
 20
4.78785977830283
 30
0.0
 11
1.599543591337654
 21
4.795682487284184
 31
0.0
  0
LINE
  5
CC
330
1E
100
AcDbEntity
  8
ADP1DETAIL
100
AcDbLine
 10
1.599543591337654
 20
4.795682487284184
 30
0.0
 11
1.607366300319006
 21
4.821269415439485
 31
0.0
  0
LINE
  5
CD
330
1E
100
AcDbEntity
  8
ADP1DETAIL
100
AcDbLine
 10
1.581555289530507
 20
4.830986517387089
 30
0.0
 11
1.590266204043695
 21
4.856284850070794
 31
0.0
  0
LINE
  5
CE
330
1E
100
AcDbEntity
  8
ADP1DETAIL
100
AcDbLine
 10
1.486929711863112
 20
5.270744882647154
 30
0.0
 11
1.467361583081196
 21
5.288992457943776
 31
0.0
  0
LINE
  5
CF
330
1E
100
AcDbEntity
  8
ADP1DETAIL
100
AcDbLine
 10
1.489628311397186
 20
5.231870578594232
 30
0.0
 11
1.469435271796716
 21
5.249424120115118
 31
0.0
  0
LINE
  5
D0
330
1E
100
AcDbEntity
  8
ADP1DETAIL
100
AcDbLine
 10
1.469435271796716
 20
5.249424120115118
 30
0.0
 11
1.486988813317602
 21
5.269617159715587
 31
0.0
  0
LINE
  5
D1
330
1E
100
AcDbEntity
  8
ADP1DETAIL
100
AcDbLine
 10
1.66523048017447
 20
4.721045715991518
 30
0.0
 11
1.639160195896495
 21
4.727064515364903
 31
0.0
  0
LINE
  5
D2
330
1E
100
AcDbEntity
  8
ADP1DETAIL
100
AcDbLine
 10
1.687004687952082
 20
4.688728880894283
 30
0.0
 11
1.660740231918009
 21
4.693834173977521
 31
0.0
  0
LINE
  5
D3
330
1E
100
AcDbEntity
  8
ADP1DETAIL
100
AcDbLine
 10
1.660740231918009
 20
4.693834173977521
 30
0.0
 11
1.665845525001246
 21
4.720098630011593
 31
0.0
  0
LINE
  5
D4
330
1E
100
AcDbEntity
  8
ADP1DETAIL
100
AcDbLine
 10
1.683466844154321
 20
4.661377208012231
 30
0.0
 11
1.687652410934199
 21
4.687803836608452
 31
0.0
  0
LINE
  5
D5
330
1E
100
AcDbEntity
  8
ADP1DETAIL
100
AcDbLine
 10
1.639160195896495
 20
4.727064515364903
 30
0.0
 11
1.645178995269881
 21
4.753134799642879
 31
0.0
  0
LINE
  5
D6
330
1E
100
AcDbEntity
  8
ADP1DETAIL
100
AcDbLine
 10
1.709893472750545
 20
4.657191641232353
 30
0.0
 11
1.683466844154321
 21
4.661377208012231
 31
0.0
  0
LINE
  5
D7
330
1E
100
AcDbEntity
  8
ADP1DETAIL
100
AcDbLine
 10
1.665845525001246
 20
5.937119494993646
 30
0.0
 11
1.660740231918009
 21
5.96338395102772
 31
0.0
  0
LINE
  5
D8
330
1E
100
AcDbEntity
  8
ADP1DETAIL
100
AcDbLine
 10
1.618753028039529
 20
5.896190378883103
 30
0.0
 11
1.644597377935833
 21
5.903115351566724
 31
0.0
  0
LINE
  5
D9
330
1E
100
AcDbEntity
  8
ADP1DETAIL
100
AcDbLine
 10
1.618753028039529
 20
5.896190378883101
 30
0.0
 11
1.644597377935831
 21
5.903115351566724
 31
0.0
  0
LINE
  5
DA
330
1E
100
AcDbEntity
  8
ADP1DETAIL
100
AcDbLine
 10
1.52361593342069
 20
5.618100929284947
 30
0.0
 11
1.510644347903738
 21
5.641502289019117
 31
0.0
  0
LINE
  5
DB
330
1E
100
AcDbEntity
  8
ADP1DETAIL
100
AcDbLine
 10
1.510644347903738
 20
5.641502289019117
 30
0.0
 11
1.534045707637906
 21
5.654473874536068
 31
0.0
  0
LINE
  5
DC
330
1E
100
AcDbEntity
  8
ADP1DETAIL
100
AcDbLine
 10
1.51416963349559
 20
5.580295355981936
 30
0.0
 11
1.500389254241178
 21
5.603229758434061
 31
0.0
  0
LINE
  5
DD
330
1E
100
AcDbEntity
  8
ADP1DETAIL
100
AcDbLine
 10
1.491476099759541
 20
5.564622644833091
 30
0.0
 11
1.513915602893012
 21
5.579195028555547
 31
0.0
  0
LINE
  5
DE
330
1E
100
AcDbEntity
  8
ADP1DETAIL
100
AcDbLine
 10
1.500389254241178
 20
5.603229758434061
 30
0.0
 11
1.523323656693303
 21
5.617010137688474
 31
0.0
  0
LINE
  5
DF
330
1E
100
AcDbEntity
  8
ADP1DETAIL
100
AcDbLine
 10
1.483915743764602
 20
5.525727985037156
 30
0.0
 11
1.50583300850139
 21
5.541074619022792
 31
0.0
  0
LINE
  5
E0
330
1E
100
AcDbEntity
  8
ADP1DETAIL
100
AcDbLine
 10
1.499262377750238
 20
5.503810720300368
 30
0.0
 11
1.483915743764602
 21
5.525727985037156
 31
0.0
  0
LINE
  5
E1
330
1E
100
AcDbEntity
  8
ADP1DETAIL
100
AcDbLine
 10
1.493819584124828
 20
5.465224842668837
 30
0.0
 11
1.477717397385553
 21
5.486593166197955
 31
0.0
  0
LINE
  5
E2
330
1E
100
AcDbEntity
  8
ADP1DETAIL
100
AcDbLine
 10
1.477717397385553
 20
5.486593166197955
 30
0.0
 11
1.499085720914671
 21
5.50269535293723
 31
0.0
  0
LINE
  5
E3
330
1E
100
AcDbEntity
  8
ADP1DETAIL
100
AcDbLine
 10
1.489726733811397
 20
5.42647251975322
 30
0.0
 11
1.472888612352676
 21
5.447265868063988
 31
0.0
  0
LINE
  5
E4
330
1E
100
AcDbEntity
  8
ADP1DETAIL
100
AcDbLine
 10
1.472888612352676
 20
5.447265868063988
 30
0.0
 11
1.493681960663445
 21
5.464103989522707
 31
0.0
  0
LINE
  5
E5
330
1E
100
AcDbEntity
  8
ADP1DETAIL
100
AcDbLine
 10
1.499262377750238
 20
5.50381072030037
 30
0.0
 11
1.483915743764602
 21
5.525727985037156
 31
0.0
  0
LINE
  5
E6
330
1E
100
AcDbEntity
  8
ADP1DETAIL
100
AcDbLine
 10
1.506048483481997
 20
5.542183141699621
 30
0.0
 11
1.491476099759541
 21
5.564622644833091
 31
0.0
  0
LINE
  5
E7
330
1E
100
AcDbEntity
  8
ADP1DETAIL
100
AcDbLine
 10
1.483915743764602
 20
5.525727985037156
 30
0.0
 11
1.505833008501388
 21
5.541074619022793
 31
0.0
  0
LINE
  5
E8
330
1E
100
AcDbEntity
  8
ADP1DETAIL
100
AcDbLine
 10
1.625678000723151
 20
5.870346028986797
 30
0.0
 11
1.618753028039529
 21
5.896190378883103
 31
0.0
  0
LINE
  5
E9
330
1E
100
AcDbEntity
  8
ADP1DETAIL
100
AcDbLine
 10
1.625678000723151
 20
5.870346028986797
 30
0.0
 11
1.618753028039529
 21
5.896190378883101
 31
0.0
  0
LINE
  5
EA
330
1E
100
AcDbEntity
  8
ADP1DETAIL
100
AcDbLine
 10
1.607366300319008
 20
5.835948709565756
 30
0.0
 11
1.599543591337654
 21
5.861535637721057
 31
0.0
  0
LINE
  5
EB
330
1E
100
AcDbEntity
  8
ADP1DETAIL
100
AcDbLine
 10
1.599543591337654
 20
5.861535637721057
 30
0.0
 11
1.625130519492956
 21
5.869358346702411
 31
0.0
  0
LINE
  5
EC
330
1E
100
AcDbEntity
  8
ADP1DETAIL
100
AcDbLine
 10
1.590266204043695
 20
5.800933274934447
 30
0.0
 11
1.581555289530507
 21
5.826231607618153
 31
0.0
  0
LINE
  5
ED
330
1E
100
AcDbEntity
  8
ADP1DETAIL
100
AcDbLine
 10
1.581555289530507
 20
5.826231607618153
 30
0.0
 11
1.606853622214213
 21
5.83494252213134
 31
0.0
  0
LINE
  5
EE
330
1E
100
AcDbEntity
  8
ADP1DETAIL
100
AcDbLine
 10
1.574398545730456
 20
5.765342386006259
 30
0.0
 11
1.564810038592956
 21
5.790321301096901
 31
0.0
  0
LINE
  5
EF
330
1E
100
AcDbEntity
  8
ADP1DETAIL
100
AcDbLine
 10
1.564810038592956
 20
5.790321301096901
 30
0.0
 11
1.589788953683599
 21
5.799909808234404
 31
0.0
  0
LINE
  5
F0
330
1E
100
AcDbEntity
  8
ADP1DETAIL
100
AcDbLine
 10
1.559782657676721
 20
5.729219404796991
 30
0.0
 11
1.549328240033857
 21
5.753848469334243
 31
0.0
  0
LINE
  5
F1
330
1E
100
AcDbEntity
  8
ADP1DETAIL
100
AcDbLine
 10
1.549328240033857
 20
5.753848469334243
 30
0.0
 11
1.573957304571108
 21
5.764302886977108
 31
0.0
  0
LINE
  5
F2
330
1E
100
AcDbEntity
  8
ADP1DETAIL
100
AcDbLine
 10
1.546436347090675
 20
5.692608341594931
 30
0.0
 11
1.535128756039967
 21
5.716857548857468
 31
0.0
  0
LINE
  5
F3
330
1E
100
AcDbEntity
  8
ADP1DETAIL
100
AcDbLine
 10
1.535128756039967
 20
5.716857548857468
 30
0.0
 11
1.559377963302504
 21
5.728165139908178
 31
0.0
  0
LINE
  5
F4
330
1E
100
AcDbEntity
  8
ADP1DETAIL
100
AcDbLine
 10
1.534375874395931
 20
5.655553801341088
 30
0.0
 11
1.522228886495272
 21
5.679393607405166
 31
0.0
  0
LINE
  5
F5
330
1E
100
AcDbEntity
  8
ADP1DETAIL
100
AcDbLine
 10
1.522228886495272
 20
5.679393607405166
 30
0.0
 11
1.546068692559347
 21
5.691540595305824
 31
0.0
  0
LINE
  5
F6
330
1E
100
AcDbEntity
  8
ADP1DETAIL
100
AcDbLine
 10
1.645178995269882
 20
5.904083325362361
 30
0.0
 11
1.639160195896497
 21
5.930153609640337
 31
0.0
  0
LINE
  5
F7
330
1E
100
AcDbEntity
  8
ADP1DETAIL
100
AcDbLine
 10
1.639160195896497
 20
5.930153609640337
 30
0.0
 11
1.665230480174472
 21
5.936172409013722
 31
0.0
  0
LINE
  5
F8
330
1E
100
AcDbEntity
  8
ADP1DETAIL
100
AcDbLine
 10
1.486988813317602
 20
5.387600965289653
 30
0.0
 11
1.469435271796718
 21
5.407794004890122
 31
0.0
  0
LINE
  5
F9
330
1E
100
AcDbEntity
  8
ADP1DETAIL
100
AcDbLine
 10
1.485609158377817
 20
5.348657538279548
 30
0.0
 11
1.467361583081196
 21
5.368225667061462
 31
0.0
  0
LINE
  5
FA
330
1E
100
AcDbEntity
  8
ADP1DETAIL
100
AcDbLine
 10
1.467361583081196
 20
5.368225667061462
 30
0.0
 11
1.486929711863112
 21
5.386473242358086
 31
0.0
  0
LINE
  5
FB
330
1E
100
AcDbEntity
  8
ADP1DETAIL
100
AcDbLine
 10
1.485589449889068
 20
5.309689685289935
 30
0.0
 11
1.466670072676386
 21
5.32860906250262
 31
0.0
  0
LINE
  5
FC
330
1E
100
AcDbEntity
  8
ADP1DETAIL
100
AcDbLine
 10
1.466670072676386
 20
5.32860906250262
 30
0.0
 11
1.485589449889068
 21
5.347528439715302
 31
0.0
  0
LINE
  5
FD
330
1E
100
AcDbEntity
  8
ADP1DETAIL
100
AcDbLine
 10
1.469435271796718
 20
5.407794004890122
 30
0.0
 11
1.489628311397186
 21
5.425347546411007
 31
0.0
  0
LINE
  5
FE
330
1E
100
AcDbEntity
  8
ADP1DETAIL
100
AcDbLine
 10
1.710573084737323
 20
6.000928359340654
 30
0.0
 11
1.70731234372919
 21
6.027484963722792
 31
0.0
  0
LINE
  5
FF
330
1E
100
AcDbEntity
  8
ADP1DETAIL
100
AcDbLine
 10
1.687652410934199
 20
5.969414288396787
 30
0.0
 11
1.683466844154321
 21
5.99584091699301
 31
0.0
  0
LINE
  5
100
330
1E
100
AcDbEntity
  8
ADP1DETAIL
100
AcDbLine
 10
1.660740231918009
 20
5.96338395102772
 30
0.0
 11
1.687004687952082
 21
5.968489244110958
 31
0.0
  0
LINE
  5
101
330
1E
100
AcDbEntity
  8
ADP1DETAIL
100
AcDbLine
 10
1.683466844154321
 20
5.99584091699301
 30
0.0
 11
1.709893472750545
 21
6.000026483772888
 31
0.0
  0
LINE
  5
102
330
1E
100
AcDbEntity
  8
ADP1DETAIL
100
AcDbLine
 10
3.657596718315351
 20
5.691540595305822
 30
0.0
 11
3.681436524379427
 21
5.679393607405164
 31
0.0
  0
LINE
  5
103
330
1E
100
AcDbEntity
  8
ADP1DETAIL
100
AcDbLine
 10
3.644287447572195
 20
5.728165139908178
 30
0.0
 11
3.668536654834732
 21
5.716857548857467
 31
0.0
  0
LINE
  5
104
330
1E
100
AcDbEntity
  8
ADP1DETAIL
100
AcDbLine
 10
3.668536654834732
 20
5.716857548857467
 30
0.0
 11
3.657229063784023
 21
5.69260834159493
 31
0.0
  0
LINE
  5
105
330
1E
100
AcDbEntity
  8
ADP1DETAIL
100
AcDbLine
 10
3.657229063784023
 20
4.964609783410308
 30
0.0
 11
3.668536654834732
 21
4.940360576147771
 31
0.0
  0
LINE
  5
106
330
1E
100
AcDbEntity
  8
ADP1DETAIL
100
AcDbLine
 10
3.668536654834732
 20
4.940360576147771
 30
0.0
 11
3.644287447572193
 21
4.929052985097062
 31
0.0
  0
LINE
  5
107
330
1E
100
AcDbEntity
  8
ADP1DETAIL
100
AcDbLine
 10
3.681436524379427
 20
4.977824517600073
 30
0.0
 11
3.657596718315351
 21
4.965677529699416
 31
0.0
  0
LINE
  5
108
330
1E
100
AcDbEntity
  8
ADP1DETAIL
100
AcDbLine
 10
1.868980016285201
 20
4.486419128821621
 30
0.0
 11
1.842260644662086
 21
4.485018825891013
 31
0.0
  0
LINE
  5
109
330
1E
100
AcDbEntity
  8
ADP1DETAIL
100
AcDbLine
 10
1.813282480757671
 20
4.512041400900451
 30
0.0
 11
1.812815523475631
 21
4.538793365671815
 31
0.0
  0
LINE
  5
10A
330
1E
100
AcDbEntity
  8
ADP1DETAIL
100
AcDbLine
 10
1.840034445529035
 20
4.512508358182493
 30
0.0
 11
1.813282480757671
 21
4.512041400900451
 31
0.0
  0
LINE
  5
10B
330
1E
100
AcDbEntity
  8
ADP1DETAIL
100
AcDbLine
 10
1.842260644662086
 20
4.485018825891013
 30
0.0
 11
1.84086034173148
 21
4.511738197514128
 31
0.0
  0
LINE
  5
10C
330
1E
100
AcDbEntity
  8
ADP1DETAIL
100
AcDbLine
 10
1.784961840448856
 20
4.567636698796753
 30
0.0
 11
1.758242468825742
 21
4.569037001727358
 31
0.0
  0
LINE
  5
10D
330
1E
100
AcDbEntity
  8
ADP1DETAIL
100
AcDbLine
 10
1.758242468825742
 20
4.569037001727358
 30
0.0
 11
1.759642771756348
 21
4.595756373350472
 31
0.0
  0
LINE
  5
10E
330
1E
100
AcDbEntity
  8
ADP1DETAIL
100
AcDbLine
 10
1.812017008606543
 20
4.539591880540902
 30
0.0
 11
1.785265043835178
 21
4.540058837822944
 31
0.0
  0
LINE
  5
10F
330
1E
100
AcDbEntity
  8
ADP1DETAIL
100
AcDbLine
 10
1.785265043835178
 20
4.540058837822944
 30
0.0
 11
1.785732001117219
 21
4.566810802594308
 31
0.0
  0
LINE
  5
110
330
1E
100
AcDbEntity
  8
ADP1DETAIL
100
AcDbLine
 10
1.96102747954318
 20
4.414428767999471
 30
0.0
 11
1.934600850946956
 21
4.410243201219594
 31
0.0
  0
LINE
  5
111
330
1E
100
AcDbEntity
  8
ADP1DETAIL
100
AcDbLine
 10
1.872164230119449
 20
4.459024035639775
 30
0.0
 11
1.8698322875937
 21
4.485678260676119
 31
0.0
  0
LINE
  5
112
330
1E
100
AcDbEntity
  8
ADP1DETAIL
100
AcDbLine
 10
1.898818455155794
 20
4.461355978165523
 30
0.0
 11
1.872164230119449
 21
4.459024035639775
 31
0.0
  0
LINE
  5
113
330
1E
100
AcDbEntity
  8
ADP1DETAIL
100
AcDbLine
 10
1.929513408599311
 20
4.437349441802595
 30
0.0
 11
1.902956804217175
 21
4.434088700794463
 31
0.0
  0
LINE
  5
114
330
1E
100
AcDbEntity
  8
ADP1DETAIL
100
AcDbLine
 10
1.902956804217175
 20
4.434088700794463
 30
0.0
 11
1.899696063209041
 21
4.4606453051766
 31
0.0
  0
LINE
  5
115
330
1E
100
AcDbEntity
  8
ADP1DETAIL
100
AcDbLine
 10
1.934600850946956
 20
4.410243201219594
 30
0.0
 11
1.93041528416708
 21
4.436669829815815
 31
0.0
  0
LINE
  5
116
330
1E
100
AcDbEntity
  8
ADP1DETAIL
100
AcDbLine
 10
1.898818455155794
 20
4.461355978165525
 30
0.0
 11
1.872164230119449
 21
4.459024035639775
 31
0.0
  0
LINE
  5
117
330
1E
100
AcDbEntity
  8
ADP1DETAIL
100
AcDbLine
 10
1.872164230119449
 20
4.459024035639775
 30
0.0
 11
1.869832287593698
 21
4.485678260676119
 31
0.0
  0
ARC
  5
118
330
1E
100
AcDbEntity
  8
ADP1DETAIL
100
AcDbCircle
 10
1.99753296191782
 20
4.42896022994137
 30
0.0
 40
0.0472984430317068
100
AcDbArc
 50
328.6118335356509
 51
55.40052780149732
  0
LINE
  5
119
330
1E
100
AcDbEntity
  8
ADP1DETAIL
100
AcDbLine
 10
2.037909674426126
 20
4.404325624195688
 30
0.0
 11
2.035772561522036
 21
4.400822844641713
 31
0.0
  0
ARC
  5
11A
330
1E
100
AcDbEntity
  8
ADP1DETAIL
100
AcDbCircle
 10
1.995395849013729
 20
4.425457450387393
 30
0.0
 40
0.0472984430317068
100
AcDbArc
 50
236.1199271666716
 51
328.6118335356505
  0
LINE
  5
11B
330
1E
100
AcDbEntity
  8
ADP1DETAIL
100
AcDbLine
 10
1.967057816912247
 20
4.387516588983281
 30
0.0
 11
1.961952523829011
 21
4.413781045017353
 31
0.0
  0
LINE
  5
11C
330
1E
100
AcDbEntity
  8
ADP1DETAIL
100
AcDbLine
 10
3.469085789774446
 20
4.625594812221066
 30
0.0
 11
3.471417732300196
 21
4.598940587184721
 31
0.0
  0
ARC
  5
11D
330
1E
100
AcDbEntity
  8
ADP1DETAIL
100
AcDbCircle
 10
3.208269561860969
 20
4.425457450387395
 30
0.0
 40
0.0472984430317068
100
AcDbArc
 50
211.388166464349
 51
303.8800728333281
  0
LINE
  5
11E
330
1E
100
AcDbEntity
  8
ADP1DETAIL
100
AcDbLine
 10
3.165755736448573
 20
4.404325624195688
 30
0.0
 11
3.167892849352662
 21
4.400822844641713
 31
0.0
  0
ARC
  5
11F
330
1E
100
AcDbEntity
  8
ADP1DETAIL
100
AcDbCircle
 10
3.20613244895688
 20
4.42896022994137
 30
0.0
 40
0.0472984430317068
100
AcDbArc
 50
124.599472198504
 51
211.3881664643499
  0
LINE
  5
120
330
1E
100
AcDbEntity
  8
ADP1DETAIL
100
AcDbLine
 10
3.390849887399067
 20
4.538793365671815
 30
0.0
 11
3.390382930117024
 21
4.512041400900451
 31
0.0
  0
LINE
  5
121
330
1E
100
AcDbEntity
  8
ADP1DETAIL
100
AcDbLine
 10
3.300708606657524
 20
4.434088700794463
 30
0.0
 11
3.274152002275386
 21
4.437349441802595
 31
0.0
  0
LINE
  5
122
330
1E
100
AcDbEntity
  8
ADP1DETAIL
100
AcDbLine
 10
3.241712887045688
 20
4.413781045017353
 30
0.0
 11
3.236607593962451
 21
4.38751658898328
 31
0.0
  0
LINE
  5
123
330
1E
100
AcDbEntity
  8
ADP1DETAIL
100
AcDbLine
 10
3.273250126707619
 20
4.436669829815815
 30
0.0
 11
3.269064559927741
 21
4.410243201219594
 31
0.0
  0
LINE
  5
124
330
1E
100
AcDbEntity
  8
ADP1DETAIL
100
AcDbLine
 10
3.269064559927741
 20
4.410243201219594
 30
0.0
 11
3.242637931331518
 21
4.41442876799947
 31
0.0
  0
LINE
  5
125
330
1E
100
AcDbEntity
  8
ADP1DETAIL
100
AcDbLine
 10
3.331501180755248
 20
4.459024035639775
 30
0.0
 11
3.304846955718903
 21
4.461355978165523
 31
0.0
  0
LINE
  5
126
330
1E
100
AcDbEntity
  8
ADP1DETAIL
100
AcDbLine
 10
3.333833123280996
 20
4.485678260676119
 30
0.0
 11
3.331501180755248
 21
4.459024035639775
 31
0.0
  0
LINE
  5
127
330
1E
100
AcDbEntity
  8
ADP1DETAIL
100
AcDbLine
 10
3.362805069143216
 20
4.511738197514127
 30
0.0
 11
3.36140476621261
 21
4.485018825891013
 31
0.0
  0
LINE
  5
128
330
1E
100
AcDbEntity
  8
ADP1DETAIL
100
AcDbLine
 10
3.36140476621261
 20
4.485018825891013
 30
0.0
 11
3.334685394589497
 21
4.486419128821619
 31
0.0
  0
LINE
  5
129
330
1E
100
AcDbEntity
  8
ADP1DETAIL
100
AcDbLine
 10
3.390382930117024
 20
4.512041400900451
 30
0.0
 11
3.36363096534566
 21
4.512508358182492
 31
0.0
  0
LINE
  5
12A
330
1E
100
AcDbEntity
  8
ADP1DETAIL
100
AcDbLine
 10
3.333833123280998
 20
4.485678260676119
 30
0.0
 11
3.331501180755248
 21
4.459024035639775
 31
0.0
  0
LINE
  5
12B
330
1E
100
AcDbEntity
  8
ADP1DETAIL
100
AcDbLine
 10
3.303969347665657
 20
4.4606453051766
 30
0.0
 11
3.300708606657524
 21
4.434088700794463
 31
0.0
  0
LINE
  5
12C
330
1E
100
AcDbEntity
  8
ADP1DETAIL
100
AcDbLine
 10
3.331501180755248
 20
4.459024035639775
 30
0.0
 11
3.304846955718905
 21
4.461355978165522
 31
0.0
  0
LINE
  5
12D
330
1E
100
AcDbEntity
  8
ADP1DETAIL
100
AcDbLine
 10
3.417933409757476
 20
4.566810802594306
 30
0.0
 11
3.418400367039517
 21
4.540058837822944
 31
0.0
  0
LINE
  5
12E
330
1E
100
AcDbEntity
  8
ADP1DETAIL
100
AcDbLine
 10
3.418400367039517
 20
4.540058837822944
 30
0.0
 11
3.391648402268155
 21
4.539591880540902
 31
0.0
  0
LINE
  5
12F
330
1E
100
AcDbEntity
  8
ADP1DETAIL
100
AcDbLine
 10
3.444022639118349
 20
4.595756373350472
 30
0.0
 11
3.445422942048955
 21
4.569037001727358
 31
0.0
  0
LINE
  5
130
330
1E
100
AcDbEntity
  8
ADP1DETAIL
100
AcDbLine
 10
3.445422942048955
 20
4.569037001727358
 30
0.0
 11
3.41870357042584
 21
4.567636698796753
 31
0.0
  0
LINE
  5
131
330
1E
100
AcDbEntity
  8
ADP1DETAIL
100
AcDbLine
 10
3.471417732300196
 20
4.598940587184721
 30
0.0
 11
3.444763507263849
 21
4.596608644658973
 31
0.0
  0
LINE
  5
132
330
1E
100
AcDbEntity
  8
ADP1DETAIL
100
AcDbLine
 10
3.643882753197979
 20
4.927998720208248
 30
0.0
 11
3.654337170840842
 21
4.903369655670997
 31
0.0
  0
LINE
  5
133
330
1E
100
AcDbEntity
  8
ADP1DETAIL
100
AcDbLine
 10
3.613399206831002
 20
4.856284850070792
 30
0.0
 11
3.62211012134419
 21
4.830986517387088
 31
0.0
  0
LINE
  5
134
330
1E
100
AcDbEntity
  8
ADP1DETAIL
100
AcDbLine
 10
3.62211012134419
 20
4.830986517387088
 30
0.0
 11
3.596811788660485
 21
4.822275602873899
 31
0.0
  0
LINE
  5
135
330
1E
100
AcDbEntity
  8
ADP1DETAIL
100
AcDbLine
 10
3.584912382835168
 20
4.761027746122138
 30
0.0
 11
3.559068032938864
 21
4.754102773438514
 31
0.0
  0
LINE
  5
136
330
1E
100
AcDbEntity
  8
ADP1DETAIL
100
AcDbLine
 10
3.577987410151547
 20
4.786872096018442
 30
0.0
 11
3.584912382835168
 21
4.761027746122138
 31
0.0
  0
LINE
  5
137
330
1E
100
AcDbEntity
  8
ADP1DETAIL
100
AcDbLine
 10
3.59629911055569
 20
4.821269415439483
 30
0.0
 11
3.604121819537044
 21
4.795682487284183
 31
0.0
  0
LINE
  5
138
330
1E
100
AcDbEntity
  8
ADP1DETAIL
100
AcDbLine
 10
3.604121819537044
 20
4.795682487284183
 30
0.0
 11
3.578534891381743
 21
4.787859778302828
 31
0.0
  0
LINE
  5
139
330
1E
100
AcDbEntity
  8
ADP1DETAIL
100
AcDbLine
 10
3.577987410151547
 20
4.786872096018442
 30
0.0
 11
3.584912382835168
 21
4.761027746122138
 31
0.0
  0
LINE
  5
13A
330
1E
100
AcDbEntity
  8
ADP1DETAIL
100
AcDbLine
 10
3.584912382835168
 20
4.761027746122138
 30
0.0
 11
3.559068032938866
 21
4.754102773438514
 31
0.0
  0
LINE
  5
13B
330
1E
100
AcDbEntity
  8
ADP1DETAIL
100
AcDbLine
 10
3.520198566720377
 20
4.661377208012229
 30
0.0
 11
3.493771938124153
 21
4.657191641232351
 31
0.0
  0
LINE
  5
13C
330
1E
100
AcDbEntity
  8
ADP1DETAIL
100
AcDbLine
 10
3.493092326137375
 20
4.656289765664586
 30
0.0
 11
3.496353067145507
 21
4.629733161282447
 31
0.0
  0
LINE
  5
13D
330
1E
100
AcDbEntity
  8
ADP1DETAIL
100
AcDbLine
 10
3.496353067145507
 20
4.629733161282447
 30
0.0
 11
3.469796462763369
 21
4.626472420274313
 31
0.0
  0
LINE
  5
13E
330
1E
100
AcDbEntity
  8
ADP1DETAIL
100
AcDbLine
 10
3.516012999940499
 20
4.687803836608452
 30
0.0
 11
3.520198566720377
 21
4.661377208012229
 31
0.0
  0
LINE
  5
13F
330
1E
100
AcDbEntity
  8
ADP1DETAIL
100
AcDbLine
 10
3.537819885873451
 20
4.720098630011593
 30
0.0
 11
3.542925178956688
 21
4.693834173977519
 31
0.0
  0
LINE
  5
140
330
1E
100
AcDbEntity
  8
ADP1DETAIL
100
AcDbLine
 10
3.564505214978201
 20
4.727064515364903
 30
0.0
 11
3.538434930700225
 21
4.721045715991517
 31
0.0
  0
LINE
  5
141
330
1E
100
AcDbEntity
  8
ADP1DETAIL
100
AcDbLine
 10
3.542925178956688
 20
4.693834173977519
 30
0.0
 11
3.516660722922615
 21
4.688728880894282
 31
0.0
  0
LINE
  5
142
330
1E
100
AcDbEntity
  8
ADP1DETAIL
100
AcDbLine
 10
3.558486415604815
 20
4.753134799642878
 30
0.0
 11
3.564505214978201
 21
4.727064515364903
 31
0.0
  0
LINE
  5
143
330
1E
100
AcDbEntity
  8
ADP1DETAIL
100
AcDbLine
 10
3.638855372281743
 20
4.866896823908338
 30
0.0
 11
3.613876457191099
 21
4.857308316770835
 31
0.0
  0
LINE
  5
144
330
1E
100
AcDbEntity
  8
ADP1DETAIL
100
AcDbLine
 10
3.629266865144241
 20
4.89187573899898
 30
0.0
 11
3.638855372281743
 21
4.866896823908338
 31
0.0
  0
LINE
  5
145
330
1E
100
AcDbEntity
  8
ADP1DETAIL
100
AcDbLine
 10
3.654337170840842
 20
4.903369655670997
 30
0.0
 11
3.629708106303591
 21
4.89291523802813
 31
0.0
  0
LINE
  5
146
330
1E
100
AcDbEntity
  8
ADP1DETAIL
100
AcDbLine
 10
2.2135842190825
 20
6.395313011900002
 30
0.0
 11
2.237833426345037
 21
6.384005420849295
 31
0.0
  0
LINE
  5
147
330
1E
100
AcDbEntity
  8
ADP1DETAIL
100
AcDbLine
 10
2.2135842190825
 20
6.395313011900002
 30
0.0
 11
2.237833426345037
 21
6.384005420849295
 31
0.0
  0
LINE
  5
148
330
1E
100
AcDbEntity
  8
ADP1DETAIL
100
AcDbLine
 10
2.202276628031793
 20
6.371063804637466
 30
0.0
 11
2.2135842190825
 21
6.395313011900002
 31
0.0
  0
LINE
  5
149
330
1E
100
AcDbEntity
  8
ADP1DETAIL
100
AcDbLine
 10
2.202276628031793
 20
6.371063804637466
 30
0.0
 11
2.2135842190825
 21
6.395313011900002
 31
0.0
  0
LINE
  5
14A
330
1E
100
AcDbEntity
  8
ADP1DETAIL
100
AcDbLine
 10
1.842260644662087
 20
6.172199299114225
 30
0.0
 11
1.868980016285201
 21
6.17079899618362
 31
0.0
  0
LINE
  5
14B
330
1E
100
AcDbEntity
  8
ADP1DETAIL
100
AcDbLine
 10
1.840860341731481
 20
6.145479927491113
 30
0.0
 11
1.842260644662087
 21
6.172199299114225
 31
0.0
  0
LINE
  5
14C
330
1E
100
AcDbEntity
  8
ADP1DETAIL
100
AcDbLine
 10
1.812815523475631
 20
6.118424759333424
 30
0.0
 11
1.813282480757673
 21
6.145176724104788
 31
0.0
  0
LINE
  5
14D
330
1E
100
AcDbEntity
  8
ADP1DETAIL
100
AcDbLine
 10
1.813282480757673
 20
6.145176724104788
 30
0.0
 11
1.840034445529037
 21
6.144709766822748
 31
0.0
  0
LINE
  5
14E
330
1E
100
AcDbEntity
  8
ADP1DETAIL
100
AcDbLine
 10
1.785732001117221
 20
6.090407322410933
 30
0.0
 11
1.78526504383518
 21
6.117159287182295
 31
0.0
  0
LINE
  5
14F
330
1E
100
AcDbEntity
  8
ADP1DETAIL
100
AcDbLine
 10
1.78526504383518
 20
6.117159287182295
 30
0.0
 11
1.812017008606543
 21
6.117626244464338
 31
0.0
  0
LINE
  5
150
330
1E
100
AcDbEntity
  8
ADP1DETAIL
100
AcDbLine
 10
1.758242468825742
 20
6.08818112327788
 30
0.0
 11
1.784961840448858
 21
6.089581426208487
 31
0.0
  0
LINE
  5
151
330
1E
100
AcDbEntity
  8
ADP1DETAIL
100
AcDbLine
 10
2.166138880962864
 20
6.356484463368864
 30
0.0
 11
2.176593298605726
 21
6.381113527906115
 31
0.0
  0
LINE
  5
152
330
1E
100
AcDbEntity
  8
ADP1DETAIL
100
AcDbLine
 10
1.934600850946956
 20
6.246974923785649
 30
0.0
 11
1.96102747954318
 21
6.242789357005771
 31
0.0
  0
LINE
  5
153
330
1E
100
AcDbEntity
  8
ADP1DETAIL
100
AcDbLine
 10
1.872164230119449
 20
6.198194089365465
 30
0.0
 11
1.898818455155794
 21
6.195862146839715
 31
0.0
  0
LINE
  5
154
330
1E
100
AcDbEntity
  8
ADP1DETAIL
100
AcDbLine
 10
1.869832287593702
 20
6.171539864329119
 30
0.0
 11
1.872164230119449
 21
6.198194089365465
 31
0.0
  0
LINE
  5
155
330
1E
100
AcDbEntity
  8
ADP1DETAIL
100
AcDbLine
 10
1.869832287593702
 20
6.171539864329123
 30
0.0
 11
1.872164230119449
 21
6.198194089365467
 31
0.0
  0
LINE
  5
156
330
1E
100
AcDbEntity
  8
ADP1DETAIL
100
AcDbLine
 10
1.93041528416708
 20
6.220548295189425
 30
0.0
 11
1.934600850946956
 21
6.246974923785649
 31
0.0
  0
LINE
  5
157
330
1E
100
AcDbEntity
  8
ADP1DETAIL
100
AcDbLine
 10
1.899696063209042
 20
6.19657281982864
 30
0.0
 11
1.902956804217175
 21
6.223129424210778
 31
0.0
  0
LINE
  5
158
330
1E
100
AcDbEntity
  8
ADP1DETAIL
100
AcDbLine
 10
1.902956804217175
 20
6.223129424210778
 30
0.0
 11
1.929513408599313
 21
6.219868683202646
 31
0.0
  0
LINE
  5
159
330
1E
100
AcDbEntity
  8
ADP1DETAIL
100
AcDbLine
 10
1.872164230119449
 20
6.198194089365467
 30
0.0
 11
1.898818455155794
 21
6.195862146839719
 31
0.0
  0
LINE
  5
15A
330
1E
100
AcDbEntity
  8
ADP1DETAIL
100
AcDbLine
 10
2.130531959705565
 20
6.340652814256372
 30
0.0
 11
2.140120466843067
 21
6.365631729347016
 31
0.0
  0
LINE
  5
15B
330
1E
100
AcDbEntity
  8
ADP1DETAIL
100
AcDbLine
 10
2.140120466843067
 20
6.365631729347016
 30
0.0
 11
2.165099381933711
 21
6.356043222209514
 31
0.0
  0
LINE
  5
15C
330
1E
100
AcDbEntity
  8
ADP1DETAIL
100
AcDbLine
 10
2.09549924580863
 20
6.323588145725757
 30
0.0
 11
2.104210160321818
 21
6.348886478409463
 31
0.0
  0
LINE
  5
15D
330
1E
100
AcDbEntity
  8
ADP1DETAIL
100
AcDbLine
 10
2.104210160321818
 20
6.348886478409463
 30
0.0
 11
2.129508493005523
 21
6.340175563896274
 31
0.0
  0
LINE
  5
15E
330
1E
100
AcDbEntity
  8
ADP1DETAIL
100
AcDbLine
 10
2.061083421237559
 20
6.305311248447015
 30
0.0
 11
2.068906130218914
 21
6.330898176602317
 31
0.0
  0
LINE
  5
15F
330
1E
100
AcDbEntity
  8
ADP1DETAIL
100
AcDbLine
 10
2.068906130218914
 20
6.330898176602317
 30
0.0
 11
2.094493058374214
 21
6.323075467620962
 31
0.0
  0
LINE
  5
160
330
1E
100
AcDbEntity
  8
ADP1DETAIL
100
AcDbLine
 10
2.027326416373244
 20
6.285844390004137
 30
0.0
 11
2.034251389056867
 21
6.311688739900441
 31
0.0
  0
LINE
  5
161
330
1E
100
AcDbEntity
  8
ADP1DETAIL
100
AcDbLine
 10
2.034251389056867
 20
6.311688739900441
 30
0.0
 11
2.060095738953171
 21
6.304763767216819
 31
0.0
  0
LINE
  5
162
330
1E
100
AcDbEntity
  8
ADP1DETAIL
100
AcDbLine
 10
1.994269358926245
 20
6.265211287765498
 30
0.0
 11
2.00028815829963
 21
6.291281572043473
 31
0.0
  0
LINE
  5
163
330
1E
100
AcDbEntity
  8
ADP1DETAIL
100
AcDbLine
 10
2.00028815829963
 20
6.291281572043473
 30
0.0
 11
2.026358442577605
 21
6.285262772670088
 31
0.0
  0
LINE
  5
164
330
1E
100
AcDbEntity
  8
ADP1DETAIL
100
AcDbLine
 10
1.961952523829009
 20
6.243437079987888
 30
0.0
 11
1.967057816912248
 21
6.269701536021961
 31
0.0
  0
LINE
  5
165
330
1E
100
AcDbEntity
  8
ADP1DETAIL
100
AcDbLine
 10
1.967057816912248
 20
6.269701536021961
 30
0.0
 11
1.993322272946322
 21
6.264596242938724
 31
0.0
  0
LINE
  5
166
330
1E
100
AcDbEntity
  8
ADP1DETAIL
100
AcDbLine
 10
2.176593298605726
 20
6.381113527906115
 30
0.0
 11
2.201222363142979
 21
6.37065911026325
 31
0.0
  0
LINE
  5
167
330
1E
100
AcDbEntity
  8
ADP1DETAIL
100
AcDbLine
 10
1.759642771756348
 20
6.061461751654768
 30
0.0
 11
1.758242468825742
 21
6.08818112327788
 31
0.0
  0
LINE
  5
168
330
1E
100
AcDbEntity
  8
ADP1DETAIL
100
AcDbLine
 10
2.681017647824854
 20
6.461006496143252
 30
0.0
 11
2.698571189345738
 21
6.440813456542784
 31
0.0
  0
LINE
  5
169
330
1E
100
AcDbEntity
  8
ADP1DETAIL
100
AcDbLine
 10
2.505094221528961
 20
6.440813456542784
 30
0.0
 11
2.522647763049847
 21
6.461006496143252
 31
0.0
  0
LINE
  5
16A
330
1E
100
AcDbEntity
  8
ADP1DETAIL
100
AcDbLine
 10
2.288939478920853
 20
6.419797420036232
 30
0.0
 11
2.312340838655021
 21
6.406825834519279
 31
0.0
  0
LINE
  5
16B
330
1E
100
AcDbEntity
  8
ADP1DETAIL
100
AcDbLine
 10
2.251048160534803
 20
6.408212881444697
 30
0.0
 11
2.274887966598879
 21
6.39606589354404
 31
0.0
  0
LINE
  5
16C
330
1E
100
AcDbEntity
  8
ADP1DETAIL
100
AcDbLine
 10
2.238901172634145
 20
6.38437307538062
 30
0.0
 11
2.251048160534803
 21
6.408212881444697
 31
0.0
  0
LINE
  5
16D
330
1E
100
AcDbEntity
  8
ADP1DETAIL
100
AcDbLine
 10
2.275967893403902
 20
6.396396060302063
 30
0.0
 11
2.288939478920853
 21
6.419797420036232
 31
0.0
  0
LINE
  5
16E
330
1E
100
AcDbEntity
  8
ADP1DETAIL
100
AcDbLine
 10
2.327212009505907
 20
6.430052513698792
 30
0.0
 11
2.350146411958034
 21
6.41627213444438
 31
0.0
  0
LINE
  5
16F
330
1E
100
AcDbEntity
  8
ADP1DETAIL
100
AcDbLine
 10
2.313431630251495
 20
6.407118111246665
 30
0.0
 11
2.327212009505907
 21
6.430052513698792
 31
0.0
  0
LINE
  5
170
330
1E
100
AcDbEntity
  8
ADP1DETAIL
100
AcDbLine
 10
2.365819123106877
 20
6.438965668180427
 30
0.0
 11
2.388258626240348
 21
6.424393284457972
 31
0.0
  0
LINE
  5
171
330
1E
100
AcDbEntity
  8
ADP1DETAIL
100
AcDbLine
 10
2.351246739384422
 20
6.416526165046956
 30
0.0
 11
2.365819123106877
 21
6.438965668180427
 31
0.0
  0
LINE
  5
172
330
1E
100
AcDbEntity
  8
ADP1DETAIL
100
AcDbLine
 10
2.404713782902812
 20
6.446526024175367
 30
0.0
 11
2.4266310476396
 21
6.43117939018973
 31
0.0
  0
LINE
  5
173
330
1E
100
AcDbEntity
  8
ADP1DETAIL
100
AcDbLine
 10
2.389367148917175
 20
6.42460875943858
 30
0.0
 11
2.404713782902812
 21
6.446526024175367
 31
0.0
  0
LINE
  5
174
330
1E
100
AcDbEntity
  8
ADP1DETAIL
100
AcDbLine
 10
2.443848601742014
 20
6.452724370554417
 30
0.0
 11
2.465216925271132
 21
6.436622183815142
 31
0.0
  0
LINE
  5
175
330
1E
100
AcDbEntity
  8
ADP1DETAIL
100
AcDbLine
 10
2.42774641500274
 20
6.431356047025298
 30
0.0
 11
2.443848601742014
 21
6.452724370554417
 31
0.0
  0
LINE
  5
176
330
1E
100
AcDbEntity
  8
ADP1DETAIL
100
AcDbLine
 10
2.483175899875982
 20
6.457553155587293
 30
0.0
 11
2.503969248186749
 21
6.440715034128571
 31
0.0
  0
LINE
  5
177
330
1E
100
AcDbEntity
  8
ADP1DETAIL
100
AcDbLine
 10
2.466337778417261
 20
6.436759807276525
 30
0.0
 11
2.483175899875982
 21
6.457553155587293
 31
0.0
  0
LINE
  5
178
330
1E
100
AcDbEntity
  8
ADP1DETAIL
100
AcDbLine
 10
2.621881181214278
 20
6.444832609562153
 30
0.0
 11
2.641449309996194
 21
6.463080184858774
 31
0.0
  0
LINE
  5
179
330
1E
100
AcDbEntity
  8
ADP1DETAIL
100
AcDbLine
 10
2.58291332822467
 20
6.444852318050902
 30
0.0
 11
2.601832705437351
 21
6.463771695263584
 31
0.0
  0
LINE
  5
17A
330
1E
100
AcDbEntity
  8
ADP1DETAIL
100
AcDbLine
 10
2.601832705437351
 20
6.463771695263584
 30
0.0
 11
2.620752082650033
 21
6.444852318050903
 31
0.0
  0
LINE
  5
17B
330
1E
100
AcDbEntity
  8
ADP1DETAIL
100
AcDbLine
 10
2.522647763049847
 20
6.461006496143252
 30
0.0
 11
2.542840802650315
 21
6.443452954622367
 31
0.0
  0
LINE
  5
17C
330
1E
100
AcDbEntity
  8
ADP1DETAIL
100
AcDbLine
 10
2.562216100878505
 20
6.463080184858774
 30
0.0
 11
2.581784229660422
 21
6.444832609562153
 31
0.0
  0
LINE
  5
17D
330
1E
100
AcDbEntity
  8
ADP1DETAIL
100
AcDbLine
 10
2.543968525581885
 20
6.443512056076858
 30
0.0
 11
2.562216100878505
 21
6.463080184858774
 31
0.0
  0
LINE
  5
17E
330
1E
100
AcDbEntity
  8
ADP1DETAIL
100
AcDbLine
 10
2.582913328224667
 20
6.444852318050902
 30
0.0
 11
2.601832705437349
 21
6.463771695263584
 31
0.0
  0
LINE
  5
17F
330
1E
100
AcDbEntity
  8
ADP1DETAIL
100
AcDbLine
 10
2.601832705437349
 20
6.463771695263584
 30
0.0
 11
2.620752082650031
 21
6.444852318050902
 31
0.0
  0
LINE
  5
180
330
1E
100
AcDbEntity
  8
ADP1DETAIL
100
AcDbLine
 10
2.641449309996194
 20
6.463080184858774
 30
0.0
 11
2.659696885292816
 21
6.443512056076858
 31
0.0
  0
LINE
  5
181
330
1E
100
AcDbEntity
  8
ADP1DETAIL
100
AcDbLine
 10
2.660824608224384
 20
6.443452954622367
 30
0.0
 11
2.681017647824854
 21
6.461006496143252
 31
0.0
  0
LINE
  5
182
330
1E
100
AcDbEntity
  8
ADP1DETAIL
100
AcDbLine
 10
3.542925178956688
 20
5.963383951027718
 30
0.0
 11
3.537819885873451
 21
5.937119494993645
 31
0.0
  0
LINE
  5
183
330
1E
100
AcDbEntity
  8
ADP1DETAIL
100
AcDbLine
 10
3.654337170840842
 20
5.753848469334243
 30
0.0
 11
3.643882753197979
 21
5.729219404796991
 31
0.0
  0
LINE
  5
184
330
1E
100
AcDbEntity
  8
ADP1DETAIL
100
AcDbLine
 10
3.559068032938864
 20
5.903115351566722
 30
0.0
 11
3.58491238283517
 21
5.896190378883099
 31
0.0
  0
LINE
  5
185
330
1E
100
AcDbEntity
  8
ADP1DETAIL
100
AcDbLine
 10
3.559068032938866
 20
5.903115351566722
 30
0.0
 11
3.58491238283517
 21
5.896190378883101
 31
0.0
  0
LINE
  5
186
330
1E
100
AcDbEntity
  8
ADP1DETAIL
100
AcDbLine
 10
3.58491238283517
 20
5.896190378883099
 30
0.0
 11
3.577987410151547
 21
5.870346028986795
 31
0.0
  0
LINE
  5
187
330
1E
100
AcDbEntity
  8
ADP1DETAIL
100
AcDbLine
 10
3.58491238283517
 20
5.896190378883101
 30
0.0
 11
3.577987410151548
 21
5.870346028986797
 31
0.0
  0
LINE
  5
188
330
1E
100
AcDbEntity
  8
ADP1DETAIL
100
AcDbLine
 10
3.596811788660486
 20
5.834942522131338
 30
0.0
 11
3.622110121344192
 21
5.82623160761815
 31
0.0
  0
LINE
  5
189
330
1E
100
AcDbEntity
  8
ADP1DETAIL
100
AcDbLine
 10
3.622110121344192
 20
5.82623160761815
 30
0.0
 11
3.613399206831004
 21
5.800933274934445
 31
0.0
  0
LINE
  5
18A
330
1E
100
AcDbEntity
  8
ADP1DETAIL
100
AcDbLine
 10
3.578534891381743
 20
5.869358346702409
 30
0.0
 11
3.604121819537046
 21
5.861535637721055
 31
0.0
  0
LINE
  5
18B
330
1E
100
AcDbEntity
  8
ADP1DETAIL
100
AcDbLine
 10
3.604121819537046
 20
5.861535637721055
 30
0.0
 11
3.596299110555691
 21
5.835948709565754
 31
0.0
  0
LINE
  5
18C
330
1E
100
AcDbEntity
  8
ADP1DETAIL
100
AcDbLine
 10
3.538434930700225
 20
5.93617240901372
 30
0.0
 11
3.564505214978202
 21
5.930153609640335
 31
0.0
  0
LINE
  5
18D
330
1E
100
AcDbEntity
  8
ADP1DETAIL
100
AcDbLine
 10
3.564505214978202
 20
5.930153609640335
 30
0.0
 11
3.558486415604817
 21
5.904083325362358
 31
0.0
  0
LINE
  5
18E
330
1E
100
AcDbEntity
  8
ADP1DETAIL
100
AcDbLine
 10
3.613876457191101
 20
5.799909808234402
 30
0.0
 11
3.638855372281745
 21
5.790321301096899
 31
0.0
  0
LINE
  5
18F
330
1E
100
AcDbEntity
  8
ADP1DETAIL
100
AcDbLine
 10
3.629708106303591
 20
5.764302886977107
 30
0.0
 11
3.654337170840842
 21
5.753848469334243
 31
0.0
  0
LINE
  5
190
330
1E
100
AcDbEntity
  8
ADP1DETAIL
100
AcDbLine
 10
3.638855372281745
 20
5.790321301096899
 30
0.0
 11
3.629266865144243
 21
5.765342386006255
 31
0.0
  0
LINE
  5
191
330
1E
100
AcDbEntity
  8
ADP1DETAIL
100
AcDbLine
 10
3.177306968297094
 20
6.285262772670084
 30
0.0
 11
3.203377252575069
 21
6.29128157204347
 31
0.0
  0
LINE
  5
192
330
1E
100
AcDbEntity
  8
ADP1DETAIL
100
AcDbLine
 10
3.169414021817834
 20
6.311688739900439
 30
0.0
 11
3.176338994501455
 21
6.285844390004133
 31
0.0
  0
LINE
  5
193
330
1E
100
AcDbEntity
  8
ADP1DETAIL
100
AcDbLine
 10
2.837846287767822
 20
6.438965668180427
 30
0.0
 11
2.852418671490278
 21
6.416526165046954
 31
0.0
  0
LINE
  5
194
330
1E
100
AcDbEntity
  8
ADP1DETAIL
100
AcDbLine
 10
2.815406784634351
 20
6.424393284457972
 30
0.0
 11
2.837846287767822
 21
6.438965668180427
 31
0.0
  0
LINE
  5
195
330
1E
100
AcDbEntity
  8
ADP1DETAIL
100
AcDbLine
 10
2.777034363235099
 20
6.43117939018973
 30
0.0
 11
2.798951627971887
 21
6.446526024175366
 31
0.0
  0
LINE
  5
196
330
1E
100
AcDbEntity
  8
ADP1DETAIL
100
AcDbLine
 10
2.798951627971887
 20
6.446526024175366
 30
0.0
 11
2.814298261957523
 21
6.424608759438578
 31
0.0
  0
LINE
  5
197
330
1E
100
AcDbEntity
  8
ADP1DETAIL
100
AcDbLine
 10
2.738448485603567
 20
6.436622183815142
 30
0.0
 11
2.759816809132686
 21
6.452724370554417
 31
0.0
  0
LINE
  5
198
330
1E
100
AcDbEntity
  8
ADP1DETAIL
100
AcDbLine
 10
2.759816809132686
 20
6.452724370554417
 30
0.0
 11
2.775918995871959
 21
6.431356047025298
 31
0.0
  0
LINE
  5
199
330
1E
100
AcDbEntity
  8
ADP1DETAIL
100
AcDbLine
 10
2.69969616268795
 20
6.440715034128572
 30
0.0
 11
2.720489510998719
 21
6.457553155587293
 31
0.0
  0
LINE
  5
19A
330
1E
100
AcDbEntity
  8
ADP1DETAIL
100
AcDbLine
 10
2.720489510998719
 20
6.457553155587293
 30
0.0
 11
2.73732763245744
 21
6.436759807276525
 31
0.0
  0
LINE
  5
19B
330
1E
100
AcDbEntity
  8
ADP1DETAIL
100
AcDbLine
 10
2.952617250339896
 20
6.408212881444696
 30
0.0
 11
2.964764238240556
 21
6.38437307538062
 31
0.0
  0
LINE
  5
19C
330
1E
100
AcDbEntity
  8
ADP1DETAIL
100
AcDbLine
 10
2.928777444275822
 20
6.396065893544038
 30
0.0
 11
2.952617250339896
 21
6.408212881444696
 31
0.0
  0
LINE
  5
19D
330
1E
100
AcDbEntity
  8
ADP1DETAIL
100
AcDbLine
 10
2.891324572219678
 20
6.406825834519278
 30
0.0
 11
2.914725931953846
 21
6.41979742003623
 31
0.0
  0
LINE
  5
19E
330
1E
100
AcDbEntity
  8
ADP1DETAIL
100
AcDbLine
 10
2.914725931953846
 20
6.41979742003623
 30
0.0
 11
2.927697517470797
 21
6.396396060302063
 31
0.0
  0
LINE
  5
19F
330
1E
100
AcDbEntity
  8
ADP1DETAIL
100
AcDbLine
 10
2.853518998916667
 20
6.416272134444378
 30
0.0
 11
2.876453401368792
 21
6.43005251369879
 31
0.0
  0
LINE
  5
1A0
330
1E
100
AcDbEntity
  8
ADP1DETAIL
100
AcDbLine
 10
2.876453401368792
 20
6.43005251369879
 30
0.0
 11
2.890233780623205
 21
6.407118111246663
 31
0.0
  0
LINE
  5
1A1
330
1E
100
AcDbEntity
  8
ADP1DETAIL
100
AcDbLine
 10
2.990081191792199
 20
6.3953130119
 30
0.0
 11
3.001388782842908
 21
6.371063804637464
 31
0.0
  0
LINE
  5
1A2
330
1E
100
AcDbEntity
  8
ADP1DETAIL
100
AcDbLine
 10
2.965831984529662
 20
6.384005420849291
 30
0.0
 11
2.990081191792199
 21
6.3953130119
 31
0.0
  0
LINE
  5
1A3
330
1E
100
AcDbEntity
  8
ADP1DETAIL
100
AcDbLine
 10
2.965831984529664
 20
6.384005420849291
 30
0.0
 11
2.990081191792201
 21
6.3953130119
 31
0.0
  0
LINE
  5
1A4
330
1E
100
AcDbEntity
  8
ADP1DETAIL
100
AcDbLine
 10
3.109172352500485
 20
6.32307546762096
 30
0.0
 11
3.134759280655788
 21
6.330898176602315
 31
0.0
  0
LINE
  5
1A5
330
1E
100
AcDbEntity
  8
ADP1DETAIL
100
AcDbLine
 10
3.134759280655788
 20
6.330898176602315
 30
0.0
 11
3.142581989637142
 21
6.305311248447012
 31
0.0
  0
LINE
  5
1A6
330
1E
100
AcDbEntity
  8
ADP1DETAIL
100
AcDbLine
 10
3.074156917869177
 20
6.340175563896273
 30
0.0
 11
3.099455250552884
 21
6.348886478409461
 31
0.0
  0
LINE
  5
1A7
330
1E
100
AcDbEntity
  8
ADP1DETAIL
100
AcDbLine
 10
3.099455250552884
 20
6.348886478409461
 30
0.0
 11
3.108166165066073
 21
6.323588145725755
 31
0.0
  0
LINE
  5
1A8
330
1E
100
AcDbEntity
  8
ADP1DETAIL
100
AcDbLine
 10
3.03856602894099
 20
6.356043222209512
 30
0.0
 11
3.063544944031634
 21
6.365631729347014
 31
0.0
  0
LINE
  5
1A9
330
1E
100
AcDbEntity
  8
ADP1DETAIL
100
AcDbLine
 10
3.002443047731722
 20
6.370659110263247
 30
0.0
 11
3.027072112268974
 21
6.381113527906113
 31
0.0
  0
LINE
  5
1AA
330
1E
100
AcDbEntity
  8
ADP1DETAIL
100
AcDbLine
 10
3.027072112268974
 20
6.381113527906113
 30
0.0
 11
3.037526529911839
 21
6.356484463368862
 31
0.0
  0
LINE
  5
1AB
330
1E
100
AcDbEntity
  8
ADP1DETAIL
100
AcDbLine
 10
2.990081191792201
 20
6.3953130119
 30
0.0
 11
3.00138878284291
 21
6.371063804637466
 31
0.0
  0
LINE
  5
1AC
330
1E
100
AcDbEntity
  8
ADP1DETAIL
100
AcDbLine
 10
3.063544944031634
 20
6.365631729347014
 30
0.0
 11
3.073133451169134
 21
6.34065281425637
 31
0.0
  0
LINE
  5
1AD
330
1E
100
AcDbEntity
  8
ADP1DETAIL
100
AcDbLine
 10
3.143569671921528
 20
6.304763767216818
 30
0.0
 11
3.169414021817834
 21
6.311688739900439
 31
0.0
  0
LINE
  5
1AE
330
1E
100
AcDbEntity
  8
ADP1DETAIL
100
AcDbLine
 10
3.274152002275388
 20
6.219868683202642
 30
0.0
 11
3.300708606657524
 21
6.223129424210776
 31
0.0
  0
LINE
  5
1AF
330
1E
100
AcDbEntity
  8
ADP1DETAIL
100
AcDbLine
 10
3.24263793133152
 20
6.242789357005768
 30
0.0
 11
3.269064559927743
 21
6.246974923785646
 31
0.0
  0
LINE
  5
1B0
330
1E
100
AcDbEntity
  8
ADP1DETAIL
100
AcDbLine
 10
3.269064559927743
 20
6.246974923785646
 30
0.0
 11
3.273250126707619
 21
6.220548295189422
 31
0.0
  0
LINE
  5
1B1
330
1E
100
AcDbEntity
  8
ADP1DETAIL
100
AcDbLine
 10
3.210343137928379
 20
6.26459624293872
 30
0.0
 11
3.236607593962452
 21
6.269701536021957
 31
0.0
  0
LINE
  5
1B2
330
1E
100
AcDbEntity
  8
ADP1DETAIL
100
AcDbLine
 10
3.236607593962452
 20
6.269701536021957
 30
0.0
 11
3.241712887045688
 21
6.243437079987884
 31
0.0
  0
LINE
  5
1B3
330
1E
100
AcDbEntity
  8
ADP1DETAIL
100
AcDbLine
 10
3.203377252575069
 20
6.29128157204347
 30
0.0
 11
3.209396051948455
 21
6.265211287765494
 31
0.0
  0
LINE
  5
1B4
330
1E
100
AcDbEntity
  8
ADP1DETAIL
100
AcDbLine
 10
3.33150118075525
 20
6.198194089365465
 30
0.0
 11
3.333833123280999
 21
6.171539864329119
 31
0.0
  0
LINE
  5
1B5
330
1E
100
AcDbEntity
  8
ADP1DETAIL
100
AcDbLine
 10
3.304846955718905
 20
6.195862146839715
 30
0.0
 11
3.33150118075525
 21
6.198194089365465
 31
0.0
  0
LINE
  5
1B6
330
1E
100
AcDbEntity
  8
ADP1DETAIL
100
AcDbLine
 10
3.300708606657524
 20
6.223129424210776
 30
0.0
 11
3.303969347665658
 21
6.196572819828636
 31
0.0
  0
LINE
  5
1B7
330
1E
100
AcDbEntity
  8
ADP1DETAIL
100
AcDbLine
 10
3.304846955718905
 20
6.195862146839713
 30
0.0
 11
3.331501180755248
 21
6.198194089365465
 31
0.0
  0
LINE
  5
1B8
330
1E
100
AcDbEntity
  8
ADP1DETAIL
100
AcDbLine
 10
3.418703570425842
 20
6.089581426208487
 30
0.0
 11
3.445422942048955
 21
6.08818112327788
 31
0.0
  0
LINE
  5
1B9
330
1E
100
AcDbEntity
  8
ADP1DETAIL
100
AcDbLine
 10
3.391648402268155
 20
6.117626244464336
 30
0.0
 11
3.418400367039519
 21
6.117159287182293
 31
0.0
  0
LINE
  5
1BA
330
1E
100
AcDbEntity
  8
ADP1DETAIL
100
AcDbLine
 10
3.418400367039519
 20
6.117159287182293
 30
0.0
 11
3.417933409757478
 21
6.090407322410929
 31
0.0
  0
LINE
  5
1BB
330
1E
100
AcDbEntity
  8
ADP1DETAIL
100
AcDbLine
 10
3.363630965345662
 20
6.144709766822746
 30
0.0
 11
3.390382930117026
 21
6.145176724104786
 31
0.0
  0
LINE
  5
1BC
330
1E
100
AcDbEntity
  8
ADP1DETAIL
100
AcDbLine
 10
3.334685394589498
 20
6.170798996183618
 30
0.0
 11
3.361404766212612
 21
6.172199299114224
 31
0.0
  0
LINE
  5
1BD
330
1E
100
AcDbEntity
  8
ADP1DETAIL
100
AcDbLine
 10
3.361404766212612
 20
6.172199299114224
 30
0.0
 11
3.362805069143218
 21
6.145479927491111
 31
0.0
  0
LINE
  5
1BE
330
1E
100
AcDbEntity
  8
ADP1DETAIL
100
AcDbLine
 10
3.331501180755248
 20
6.198194089365465
 30
0.0
 11
3.333833123280999
 21
6.171539864329119
 31
0.0
  0
LINE
  5
1BF
330
1E
100
AcDbEntity
  8
ADP1DETAIL
100
AcDbLine
 10
3.390382930117026
 20
6.145176724104786
 30
0.0
 11
3.390849887399067
 21
6.118424759333424
 31
0.0
  0
LINE
  5
1C0
330
1E
100
AcDbEntity
  8
ADP1DETAIL
100
AcDbLine
 10
3.493771938124153
 20
6.000026483772886
 30
0.0
 11
3.520198566720377
 21
5.995840916993008
 31
0.0
  0
LINE
  5
1C1
330
1E
100
AcDbEntity
  8
ADP1DETAIL
100
AcDbLine
 10
3.469796462763369
 20
6.030745704730924
 30
0.0
 11
3.496353067145507
 21
6.027484963722792
 31
0.0
  0
LINE
  5
1C2
330
1E
100
AcDbEntity
  8
ADP1DETAIL
100
AcDbLine
 10
3.496353067145507
 20
6.027484963722792
 30
0.0
 11
3.493092326137375
 21
6.000928359340652
 31
0.0
  0
LINE
  5
1C3
330
1E
100
AcDbEntity
  8
ADP1DETAIL
100
AcDbLine
 10
3.44476350726385
 20
6.060609480346267
 30
0.0
 11
3.471417732300196
 21
6.058277537820517
 31
0.0
  0
LINE
  5
1C4
330
1E
100
AcDbEntity
  8
ADP1DETAIL
100
AcDbLine
 10
3.471417732300196
 20
6.058277537820517
 30
0.0
 11
3.469085789774446
 21
6.03162331278417
 31
0.0
  0
LINE
  5
1C5
330
1E
100
AcDbEntity
  8
ADP1DETAIL
100
AcDbLine
 10
3.516660722922615
 20
5.968489244110956
 30
0.0
 11
3.542925178956688
 21
5.963383951027718
 31
0.0
  0
LINE
  5
1C6
330
1E
100
AcDbEntity
  8
ADP1DETAIL
100
AcDbLine
 10
3.520198566720377
 20
5.995840916993008
 30
0.0
 11
3.516012999940499
 21
5.969414288396786
 31
0.0
  0
LINE
  5
1C7
330
1E
100
AcDbEntity
  8
ADP1DETAIL
100
AcDbLine
 10
3.445422942048955
 20
6.08818112327788
 30
0.0
 11
3.444022639118349
 21
6.061461751654766
 31
0.0
  0
LINE
  5
1C8
330
1E
100
AcDbEntity
  8
ADP1DETAIL
100
AcDbLine
 10
5.449402054339706
 20
6.408158359939472
 30
0.0
 11
5.449402054339706
 21
4.419983869909726
 31
0.0
  0
LINE
  5
1C9
330
1E
100
AcDbEntity
  8
ADP1DETAIL
100
AcDbLine
 10
5.511902054339706
 20
6.470658359939472
 30
0.0
 11
5.511902054339706
 21
4.357483869909726
 31
0.0
  0
LINE
  5
1CA
330
1E
100
AcDbEntity
  8
ADP1DETAIL
100
AcDbLine
 10
3.718056252496882
 20
5.308560586725691
 30
0.0
 11
3.736303827793503
 21
5.288992457943776
 31
0.0
  0
LINE
  5
1CB
330
1E
100
AcDbEntity
  8
ADP1DETAIL
100
AcDbLine
 10
3.7139386770633
 20
5.230745605252019
 30
0.0
 11
3.730776798522021
 21
5.209952256941251
 31
0.0
  0
LINE
  5
1CC
330
1E
100
AcDbEntity
  8
ADP1DETAIL
100
AcDbLine
 10
3.730776798522021
 20
5.209952256941251
 30
0.0
 11
3.709983450211255
 21
5.193114135482532
 31
0.0
  0
LINE
  5
1CD
330
1E
100
AcDbEntity
  8
ADP1DETAIL
100
AcDbLine
 10
3.719749667110095
 20
5.131490139968083
 30
0.0
 11
3.697832402373309
 21
5.116143505982448
 31
0.0
  0
LINE
  5
1CE
330
1E
100
AcDbEntity
  8
ADP1DETAIL
100
AcDbLine
 10
3.704403033124459
 20
5.153407404704871
 30
0.0
 11
3.719749667110095
 21
5.131490139968083
 31
0.0
  0
LINE
  5
1CF
330
1E
100
AcDbEntity
  8
ADP1DETAIL
100
AcDbLine
 10
3.709845826749872
 20
5.191993282336402
 30
0.0
 11
3.725948013489146
 21
5.170624958807284
 31
0.0
  0
LINE
  5
1D0
330
1E
100
AcDbEntity
  8
ADP1DETAIL
100
AcDbLine
 10
3.725948013489146
 20
5.170624958807284
 30
0.0
 11
3.704579689960027
 21
5.154522772068009
 31
0.0
  0
LINE
  5
1D1
330
1E
100
AcDbEntity
  8
ADP1DETAIL
100
AcDbLine
 10
3.704403033124459
 20
5.153407404704869
 30
0.0
 11
3.719749667110097
 21
5.131490139968083
 31
0.0
  0
LINE
  5
1D2
330
1E
100
AcDbEntity
  8
ADP1DETAIL
100
AcDbLine
 10
3.669289536478768
 20
5.00166432366415
 30
0.0
 11
3.681436524379427
 21
4.977824517600073
 31
0.0
  0
LINE
  5
1D3
330
1E
100
AcDbEntity
  8
ADP1DETAIL
100
AcDbLine
 10
3.68004947745401
 20
5.039117195720292
 30
0.0
 11
3.693021062970961
 21
5.015715835986124
 31
0.0
  0
LINE
  5
1D4
330
1E
100
AcDbEntity
  8
ADP1DETAIL
100
AcDbLine
 10
3.693021062970961
 20
5.015715835986124
 30
0.0
 11
3.669619703236793
 21
5.002744250469171
 31
0.0
  0
LINE
  5
1D5
330
1E
100
AcDbEntity
  8
ADP1DETAIL
100
AcDbLine
 10
3.689495777379109
 20
5.076922769023303
 30
0.0
 11
3.703276156633521
 21
5.053988366571178
 31
0.0
  0
LINE
  5
1D6
330
1E
100
AcDbEntity
  8
ADP1DETAIL
100
AcDbLine
 10
3.697616927392701
 20
5.115034983305618
 30
0.0
 11
3.712189311115156
 21
5.092595480172148
 31
0.0
  0
LINE
  5
1D7
330
1E
100
AcDbEntity
  8
ADP1DETAIL
100
AcDbLine
 10
3.712189311115156
 20
5.092595480172148
 30
0.0
 11
3.689749807981687
 21
5.078023096449692
 31
0.0
  0
LINE
  5
1D8
330
1E
100
AcDbEntity
  8
ADP1DETAIL
100
AcDbLine
 10
3.719749667110097
 20
5.131490139968083
 30
0.0
 11
3.697832402373309
 21
5.116143505982446
 31
0.0
  0
LINE
  5
1D9
330
1E
100
AcDbEntity
  8
ADP1DETAIL
100
AcDbLine
 10
3.703276156633521
 20
5.053988366571178
 30
0.0
 11
3.680341754181394
 21
5.040207987316765
 31
0.0
  0
LINE
  5
1DA
330
1E
100
AcDbEntity
  8
ADP1DETAIL
100
AcDbLine
 10
3.716676597557096
 20
5.269617159715585
 30
0.0
 11
3.734230139077981
 21
5.249424120115118
 31
0.0
  0
LINE
  5
1DB
330
1E
100
AcDbEntity
  8
ADP1DETAIL
100
AcDbLine
 10
3.734230139077981
 20
5.249424120115118
 30
0.0
 11
3.714037099477512
 21
5.231870578594232
 31
0.0
  0
LINE
  5
1DC
330
1E
100
AcDbEntity
  8
ADP1DETAIL
100
AcDbLine
 10
3.736303827793503
 20
5.288992457943776
 30
0.0
 11
3.716735699011586
 21
5.270744882647154
 31
0.0
  0
LINE
  5
1DD
330
1E
100
AcDbEntity
  8
ADP1DETAIL
100
AcDbLine
 10
5.449402054339706
 20
4.419983869909726
 30
0.0
 11
5.511902054339706
 21
4.357483869909726
 31
0.0
  0
LINE
  5
1DE
330
1E
100
AcDbEntity
  8
ADP1DETAIL
100
AcDbLine
 10
3.719749667110097
 20
5.525727985037154
 30
0.0
 11
3.704403033124459
 21
5.503810720300366
 31
0.0
  0
LINE
  5
1DF
330
1E
100
AcDbEntity
  8
ADP1DETAIL
100
AcDbLine
 10
3.697832402373309
 20
5.541074619022792
 30
0.0
 11
3.719749667110097
 21
5.525727985037154
 31
0.0
  0
LINE
  5
1E0
330
1E
100
AcDbEntity
  8
ADP1DETAIL
100
AcDbLine
 10
3.689749807981685
 20
5.579195028555544
 30
0.0
 11
3.712189311115156
 21
5.564622644833089
 31
0.0
  0
LINE
  5
1E1
330
1E
100
AcDbEntity
  8
ADP1DETAIL
100
AcDbLine
 10
3.712189311115156
 20
5.564622644833089
 30
0.0
 11
3.697616927392701
 21
5.542183141699617
 31
0.0
  0
LINE
  5
1E2
330
1E
100
AcDbEntity
  8
ADP1DETAIL
100
AcDbLine
 10
3.680341754181394
 20
5.617010137688472
 30
0.0
 11
3.703276156633521
 21
5.60322975843406
 31
0.0
  0
LINE
  5
1E3
330
1E
100
AcDbEntity
  8
ADP1DETAIL
100
AcDbLine
 10
3.703276156633521
 20
5.60322975843406
 30
0.0
 11
3.689495777379109
 21
5.580295355981935
 31
0.0
  0
LINE
  5
1E4
330
1E
100
AcDbEntity
  8
ADP1DETAIL
100
AcDbLine
 10
3.669619703236793
 20
5.654473874536065
 30
0.0
 11
3.693021062970961
 21
5.641502289019113
 31
0.0
  0
LINE
  5
1E5
330
1E
100
AcDbEntity
  8
ADP1DETAIL
100
AcDbLine
 10
3.693021062970961
 20
5.641502289019113
 30
0.0
 11
3.68004947745401
 21
5.618100929284945
 31
0.0
  0
LINE
  5
1E6
330
1E
100
AcDbEntity
  8
ADP1DETAIL
100
AcDbLine
 10
3.681436524379427
 20
5.679393607405164
 30
0.0
 11
3.669289536478767
 21
5.655553801341087
 31
0.0
  0
LINE
  5
1E7
330
1E
100
AcDbEntity
  8
ADP1DETAIL
100
AcDbLine
 10
3.697832402373309
 20
5.541074619022792
 30
0.0
 11
3.719749667110097
 21
5.525727985037156
 31
0.0
  0
LINE
  5
1E8
330
1E
100
AcDbEntity
  8
ADP1DETAIL
100
AcDbLine
 10
3.709983450211255
 20
5.464103989522707
 30
0.0
 11
3.730776798522021
 21
5.447265868063986
 31
0.0
  0
LINE
  5
1E9
330
1E
100
AcDbEntity
  8
ADP1DETAIL
100
AcDbLine
 10
3.704579689960027
 20
5.502695352937228
 30
0.0
 11
3.725948013489146
 21
5.486593166197956
 31
0.0
  0
LINE
  5
1EA
330
1E
100
AcDbEntity
  8
ADP1DETAIL
100
AcDbLine
 10
3.725948013489146
 20
5.486593166197956
 30
0.0
 11
3.709845826749872
 21
5.465224842668837
 31
0.0
  0
LINE
  5
1EB
330
1E
100
AcDbEntity
  8
ADP1DETAIL
100
AcDbLine
 10
3.719749667110097
 20
5.525727985037156
 30
0.0
 11
3.704403033124461
 21
5.503810720300368
 31
0.0
  0
LINE
  5
1EC
330
1E
100
AcDbEntity
  8
ADP1DETAIL
100
AcDbLine
 10
3.730776798522021
 20
5.447265868063986
 30
0.0
 11
3.7139386770633
 21
5.42647251975322
 31
0.0
  0
LINE
  5
1ED
330
1E
100
AcDbEntity
  8
ADP1DETAIL
100
AcDbLine
 10
3.718075960985631
 20
5.347528439715303
 30
0.0
 11
3.736995338198314
 21
5.32860906250262
 31
0.0
  0
LINE
  5
1EE
330
1E
100
AcDbEntity
  8
ADP1DETAIL
100
AcDbLine
 10
3.736995338198314
 20
5.32860906250262
 30
0.0
 11
3.718075960985631
 21
5.309689685289937
 31
0.0
  0
LINE
  5
1EF
330
1E
100
AcDbEntity
  8
ADP1DETAIL
100
AcDbLine
 10
3.716735699011588
 20
5.386473242358086
 30
0.0
 11
3.736303827793503
 21
5.368225667061464
 31
0.0
  0
LINE
  5
1F0
330
1E
100
AcDbEntity
  8
ADP1DETAIL
100
AcDbLine
 10
3.736303827793503
 20
5.368225667061464
 30
0.0
 11
3.718056252496882
 21
5.348657538279548
 31
0.0
  0
LINE
  5
1F1
330
1E
100
AcDbEntity
  8
ADP1DETAIL
100
AcDbLine
 10
3.734230139077981
 20
5.407794004890121
 30
0.0
 11
3.716676597557096
 21
5.387600965289653
 31
0.0
  0
LINE
  5
1F2
330
1E
100
AcDbEntity
  8
ADP1DETAIL
100
AcDbLine
 10
3.714037099477513
 20
5.425347546411007
 30
0.0
 11
3.734230139077981
 21
5.407794004890121
 31
0.0
  0
LINE
  5
1F3
330
1E
100
AcDbEntity
  8
ADP1DETAIL
100
AcDbLine
 10
5.449402054339706
 20
6.408158359939472
 30
0.0
 11
5.511902054339706
 21
6.470658359939472
 31
0.0
  0
LINE
  5
1F4
330
1E
100
AcDbEntity
  8
ADP1DETAIL
100
AcDbLine
 10
10.4494020543397
 20
4.419983869909726
 30
0.0
 11
10.4494020543397
 21
6.408158359939472
 31
0.0
  0
LINE
  5
1F5
330
1E
100
AcDbEntity
  8
ADP1DETAIL
100
AcDbLine
 10
10.3869020543397
 20
4.357483869909726
 30
0.0
 11
10.3869020543397
 21
6.470658359939472
 31
0.0
  0
LINE
  5
1F6
330
1E
100
AcDbEntity
  8
ADP1DETAIL
100
AcDbLine
 10
10.3869020543397
 20
4.357483869909726
 30
0.0
 11
10.4494020543397
 21
4.419983869909726
 31
0.0
  0
LINE
  5
1F7
330
1E
100
AcDbEntity
  8
ADP1DETAIL
100
AcDbLine
 10
10.3869020543397
 20
6.470658359939472
 30
0.0
 11
10.4494020543397
 21
6.408158359939472
 31
0.0
  0
TEXT
  5
1FB
330
1E
100
AcDbEntity
  8
ADPDIM
100
AcDbText
 10
-0.5767684133371685
 20
3.706675138312895
 30
0.0
 40
0.125
  1
J U L I U S  B L U M  &  C O . ,  I N C .      ( 8 0 0 )  5 2 6 - 6 2 9 3        W W W . J U L I U S B L U M . C O M        P A R T  N o .  1 1 6 3
 41
1.25
  7
ARIAL_WIDE
 72
     1
 11
5.948960611219447
 21
3.831675138312895
 31
0.0
100
AcDbText
 73
     3
  0
ENDSEC
  0
SECTION
  2
OBJECTS
  0
DICTIONARY
  5
C
330
0
100
AcDbDictionary
  3
ACAD_GROUP
350
D
  3
ACAD_LAYOUT
350
19
  3
ACAD_MLINESTYLE
350
16
  3
ACAD_PLOTSETTINGS
350
18
  3
ACAD_PLOTSTYLENAME
350
E
  3
ACDBHEADERROUNDTRIPXREC
350
3FE
  3
ACDBVARIABLEDICTIONARY
350
26C
  0
DICTIONARY
  5
237
330
1E
100
AcDbDictionary
280
     1
  3
ACAD_LAYOUTSELFREF
360
420
  0
DICTIONARY
  5
239
330
1A
100
AcDbDictionary
280
     1
  3
ACAD_LAYOUTSELFREF
360
41F
  0
DICTIONARY
  5
D
102
{ACAD_REACTORS
330
C
102
}
330
C
100
AcDbDictionary
  0
DICTIONARY
  5
19
102
{ACAD_REACTORS
330
C
102
}
330
C
100
AcDbDictionary
  0
DICTIONARY
  5
16
102
{ACAD_REACTORS
330
C
102
}
330
C
100
AcDbDictionary
  3
STANDARD
350
17
  0
DICTIONARY
  5
18
102
{ACAD_REACTORS
330
C
102
}
330
C
100
AcDbDictionary
  0
ACDBDICTIONARYWDFLT
  5
E
102
{ACAD_REACTORS
330
C
102
}
330
C
100
AcDbDictionary
281
     1
  3
Normal
350
F
100
AcDbDictionaryWithDefault
340
F
  0
DICTIONARY
  5
3FE
102
{ACAD_REACTORS
330
C
102
}
330
C
100
AcDbDictionary
  3
CEPSNTYPE
350
408
  3
DIMSTYLEDATA
350
40C
  3
FINGERPRINTGUID
350
409
  3
HYPERLINKBASE
350
401
  3
INSUNITS
350
407
  3
LAYOUTDICT
350
403
  3
LWETCUNION
350
406
  3
PLOTSETDICT
350
404
  3
PLOTSTYLNAMDICT
350
405
  3
PSVPSCALE
350
40B
  3
PUCSBASE
350
40F
  3
PUCSORGBACK
350
415
  3
PUCSORGBOTTOM
350
411
  3
PUCSORGFRONT
350
414
  3
PUCSORGLEFT
350
412
  3
PUCSORGRIGHT
350
413
  3
PUCSORGTOP
350
410
  3
PUCSORTHOREF
350
40D
  3
PUCSORTHOVIEW
350
40E
  3
STYLESHEET
350
402
  3
TSTACKALIGN
350
3FF
  3
TSTACKSIZE
350
400
  3
UCSBASE
350
418
  3
UCSORGBACK
350
41E
  3
UCSORGBOTTOM
350
41A
  3
UCSORGFRONT
350
41D
  3
UCSORGLEFT
350
41B
  3
UCSORGRIGHT
350
41C
  3
UCSORGTOP
350
419
  3
UCSORTHOREF
350
416
  3
UCSORTHOVIEW
350
417
  3
VERSIONGUID
350
40A
  0
DICTIONARY
  5
26C
102
{ACAD_REACTORS
330
C
102
}
330
C
100
AcDbDictionary
  3
DIMASSOC
350
26E
  3
HIDETEXT
350
26D
  0
XRECORD
  5
420
102
{ACAD_REACTORS
330
237
102
}
330
237
100
AcDbXrecord
340
1E
  0
XRECORD
  5
41F
102
{ACAD_REACTORS
330
239
102
}
330
239
100
AcDbXrecord
340
1A
  0
MLINESTYLE
  5
17
102
{ACAD_REACTORS
330
16
102
}
330
16
100
AcDbMlineStyle
  2
STANDARD
 70
     0
  3

 62
   256
 51
90.0
 52
90.0
 71
     2
 49
0.5
 62
   256
  6
BYLAYER
 49
-0.5
 62
   256
  6
BYLAYER
  0
ACDBPLACEHOLDER
  5
F
102
{ACAD_REACTORS
330
E
102
}
330
E
100
AcDbPlaceHolder
280
     0
  0
XRECORD
  5
408
102
{ACAD_REACTORS
330
3FE
102
}
330
3FE
100
AcDbXrecord
 90
        0
  0
XRECORD
  5
40C
102
{ACAD_REACTORS
330
3FE
102
}
330
3FE
100
AcDbXrecord
1000
DSTYLE
1002
{
1070
   277
 70
     5
1070
   279
 70
     2
1002
}
  0
XRECORD
  5
409
102
{ACAD_REACTORS
330
3FE
102
}
330
3FE
100
AcDbXrecord
  1
{37B3AE33-1514-4386-84D4-B7CECF4B66A0}
  0
XRECORD
  5
401
102
{ACAD_REACTORS
330
3FE
102
}
330
3FE
100
AcDbXrecord
  1

  0
XRECORD
  5
407
102
{ACAD_REACTORS
330
3FE
102
}
330
3FE
100
AcDbXrecord
 90
        0
  0
XRECORD
  5
403
102
{ACAD_REACTORS
330
3FE
102
}
330
3FE
100
AcDbXrecord
340
19
  0
XRECORD
  5
406
102
{ACAD_REACTORS
330
3FE
102
}
330
3FE
100
AcDbXrecord
 90
    14877
  0
XRECORD
  5
404
102
{ACAD_REACTORS
330
3FE
102
}
330
3FE
100
AcDbXrecord
340
18
  0
XRECORD
  5
405
102
{ACAD_REACTORS
330
3FE
102
}
330
3FE
100
AcDbXrecord
340
E
  0
XRECORD
  5
40B
102
{ACAD_REACTORS
330
3FE
102
}
330
3FE
100
AcDbXrecord
 40
0.0
  0
XRECORD
  5
40F
102
{ACAD_REACTORS
330
3FE
102
}
330
3FE
100
AcDbXrecord
340
0
  0
XRECORD
  5
415
102
{ACAD_REACTORS
330
3FE
102
}
330
3FE
100
AcDbXrecord
 10
0.0
 20
0.0
 30
0.0
  0
XRECORD
  5
411
102
{ACAD_REACTORS
330
3FE
102
}
330
3FE
100
AcDbXrecord
 10
0.0
 20
0.0
 30
0.0
  0
XRECORD
  5
414
102
{ACAD_REACTORS
330
3FE
102
}
330
3FE
100
AcDbXrecord
 10
0.0
 20
0.0
 30
0.0
  0
XRECORD
  5
412
102
{ACAD_REACTORS
330
3FE
102
}
330
3FE
100
AcDbXrecord
 10
0.0
 20
0.0
 30
0.0
  0
XRECORD
  5
413
102
{ACAD_REACTORS
330
3FE
102
}
330
3FE
100
AcDbXrecord
 10
0.0
 20
0.0
 30
0.0
  0
XRECORD
  5
410
102
{ACAD_REACTORS
330
3FE
102
}
330
3FE
100
AcDbXrecord
 10
0.0
 20
0.0
 30
0.0
  0
XRECORD
  5
40D
102
{ACAD_REACTORS
330
3FE
102
}
330
3FE
100
AcDbXrecord
340
0
  0
XRECORD
  5
40E
102
{ACAD_REACTORS
330
3FE
102
}
330
3FE
100
AcDbXrecord
 70
     0
  0
XRECORD
  5
402
102
{ACAD_REACTORS
330
3FE
102
}
330
3FE
100
AcDbXrecord
  1

  0
XRECORD
  5
3FF
102
{ACAD_REACTORS
330
3FE
102
}
330
3FE
100
AcDbXrecord
 90
        1
  0
XRECORD
  5
400
102
{ACAD_REACTORS
330
3FE
102
}
330
3FE
100
AcDbXrecord
 90
       70
  0
XRECORD
  5
418
102
{ACAD_REACTORS
330
3FE
102
}
330
3FE
100
AcDbXrecord
340
0
  0
XRECORD
  5
41E
102
{ACAD_REACTORS
330
3FE
102
}
330
3FE
100
AcDbXrecord
 10
0.0
 20
0.0
 30
0.0
  0
XRECORD
  5
41A
102
{ACAD_REACTORS
330
3FE
102
}
330
3FE
100
AcDbXrecord
 10
0.0
 20
0.0
 30
0.0
  0
XRECORD
  5
41D
102
{ACAD_REACTORS
330
3FE
102
}
330
3FE
100
AcDbXrecord
 10
0.0
 20
0.0
 30
0.0
  0
XRECORD
  5
41B
102
{ACAD_REACTORS
330
3FE
102
}
330
3FE
100
AcDbXrecord
 10
0.0
 20
0.0
 30
0.0
  0
XRECORD
  5
41C
102
{ACAD_REACTORS
330
3FE
102
}
330
3FE
100
AcDbXrecord
 10
0.0
 20
0.0
 30
0.0
  0
XRECORD
  5
419
102
{ACAD_REACTORS
330
3FE
102
}
330
3FE
100
AcDbXrecord
 10
0.0
 20
0.0
 30
0.0
  0
XRECORD
  5
416
102
{ACAD_REACTORS
330
3FE
102
}
330
3FE
100
AcDbXrecord
340
0
  0
XRECORD
  5
417
102
{ACAD_REACTORS
330
3FE
102
}
330
3FE
100
AcDbXrecord
 70
     0
  0
XRECORD
  5
40A
102
{ACAD_REACTORS
330
3FE
102
}
330
3FE
100
AcDbXrecord
  1
{6552DD93-D5A9-4E68-BE3D-7A59BD6B2B37}
  0
DICTIONARYVAR
  5
26E
102
{ACAD_REACTORS
330
26C
102
}
330
26C
100
DictionaryVariables
280
     0
  1
2
  0
DICTIONARYVAR
  5
26D
102
{ACAD_REACTORS
330
26C
102
}
330
26C
100
DictionaryVariables
280
     0
  1
1
  0
ENDSEC
  0
EOF
