  0
SECTION
  2
HEADER
  9
$ACADVER
  1
AC1014
  9
$ACADMAINTVER
 70
     9
  9
$DWGCODEPAGE
  3
ANSI_1252
  9
$INSBASE
 10
0.031
 20
-1.06
 30
0.0
  9
$EXTMIN
 10
-0.9949639783567301
 20
-2.048084124005192
 30
0.0
  9
$EXTMAX
 10
8.793629558478194
 20
0.9583333333333333
 30
0.0
  9
$LIMMIN
 10
0.0
 20
0.0
  9
$LIMMAX
 10
36.0
 20
36.0
  9
$ORTHOMODE
 70
     1
  9
$REGENMODE
 70
     1
  9
$FILLMODE
 70
     1
  9
$QTEXTMODE
 70
     0
  9
$MIRRTEXT
 70
     1
  9
$DRAGMODE
 70
     0
  9
$LTSCALE
 40
1.0
  9
$OSMODE
 70
    37
  9
$ATTMODE
 70
     1
  9
$TEXTSIZE
 40
0.2
  9
$TRACEWID
 40
0.05
  9
$TEXTSTYLE
  7
STANDARD
  9
$CLAYER
  8
ADPDIM
  9
$CELTYPE
  6
BYLAYER
  9
$CECOLOR
 62
   256
  9
$CELTSCALE
 40
1.0
  9
$DELOBJ
 70
     1
  9
$DISPSILH
 70
     0
  9
$DIMSCALE
 40
1.0
  9
$DIMASZ
 40
0.125
  9
$DIMEXO
 40
0.0625
  9
$DIMDLI
 40
0.38
  9
$DIMRND
 40
0.0
  9
$DIMDLE
 40
0.0
  9
$DIMEXE
 40
0.18
  9
$DIMTP
 40
0.0
  9
$DIMTM
 40
0.0
  9
$DIMTXT
 40
0.125
  9
$DIMCEN
 40
0.1875
  9
$DIMTSZ
 40
0.125
  9
$DIMTOL
 70
     0
  9
$DIMLIM
 70
     0
  9
$DIMTIH
 70
     0
  9
$DIMTOH
 70
     0
  9
$DIMSE1
 70
     0
  9
$DIMSE2
 70
     0
  9
$DIMTAD
 70
     0
  9
$DIMZIN
 70
     3
  9
$DIMBLK
  1

  9
$DIMASO
 70
     1
  9
$DIMSHO
 70
     1
  9
$DIMPOST
  1

  9
$DIMAPOST
  1

  9
$DIMALT
 70
     0
  9
$DIMALTD
 70
     1
  9
$DIMALTF
 40
25.4
  9
$DIMLFAC
 40
1.0
  9
$DIMTOFL
 70
     0
  9
$DIMTVP
 40
0.0
  9
$DIMTIX
 70
     0
  9
$DIMSOXD
 70
     0
  9
$DIMSAH
 70
     0
  9
$DIMBLK1
  1

  9
$DIMBLK2
  1

  9
$DIMSTYLE
  2
STANDARD
  9
$DIMCLRD
 70
     0
  9
$DIMCLRE
 70
     0
  9
$DIMCLRT
 70
     0
  9
$DIMTFAC
 40
1.0
  9
$DIMGAP
 40
0.125
  9
$DIMJUST
 70
     0
  9
$DIMSD1
 70
     0
  9
$DIMSD2
 70
     0
  9
$DIMTOLJ
 70
     1
  9
$DIMTZIN
 70
     3
  9
$DIMALTZ
 70
     3
  9
$DIMALTTZ
 70
     3
  9
$DIMFIT
 70
     5
  9
$DIMUPT
 70
     0
  9
$DIMUNIT
 70
     5
  9
$DIMDEC
 70
     4
  9
$DIMTDEC
 70
     4
  9
$DIMALTU
 70
     5
  9
$DIMALTTD
 70
     1
  9
$DIMTXSTY
  7
STANDARD
  9
$DIMAUNIT
 70
     0
  9
$LUNITS
 70
     5
  9
$LUPREC
 70
     4
  9
$SKETCHINC
 40
0.1
  9
$FILLETRAD
 40
0.031
  9
$AUNITS
 70
     0
  9
$AUPREC
 70
     0
  9
$MENU
  1
acad
  9
$ELEVATION
 40
0.0
  9
$PELEVATION
 40
0.0
  9
$THICKNESS
 40
0.0
  9
$LIMCHECK
 70
     0
  9
$BLIPMODE
 70
     0
  9
$CHAMFERA
 40
0.0
  9
$CHAMFERB
 40
0.0
  9
$CHAMFERC
 40
0.0
  9
$CHAMFERD
 40
0.0
  9
$SKPOLY
 70
     0
  9
$TDCREATE
 40
2450213.645880011
  9
$TDUPDATE
 40
2452297.079704675
  9
$TDINDWG
 40
0.0315500231
  9
$TDUSRTIMER
 40
0.0315500231
  9
$USRTIMER
 70
     1
  9
$ANGBASE
 50
0.0
  9
$ANGDIR
 70
     0
  9
$PDMODE
 70
     0
  9
$PDSIZE
 40
0.0
  9
$PLINEWID
 40
0.0
  9
$COORDS
 70
     2
  9
$SPLFRAME
 70
     0
  9
$SPLINETYPE
 70
     6
  9
$SPLINESEGS
 70
     8
  9
$ATTDIA
 70
     0
  9
$ATTREQ
 70
     1
  9
$HANDLING
 70
 22529
  9
$HANDSEED
  5
32B
  9
$SURFTAB1
 70
     6
  9
$SURFTAB2
 70
     6
  9
$SURFTYPE
 70
     6
  9
$SURFU
 70
     6
  9
$SURFV
 70
     6
  9
$UCSNAME
  2

  9
$UCSORG
 10
0.0
 20
0.0
 30
0.0
  9
$UCSXDIR
 10
1.0
 20
0.0
 30
0.0
  9
$UCSYDIR
 10
0.0
 20
1.0
 30
0.0
  9
$PUCSNAME
  2

  9
$PUCSORG
 10
0.0
 20
0.0
 30
0.0
  9
$PUCSXDIR
 10
1.0
 20
0.0
 30
0.0
  9
$PUCSYDIR
 10
0.0
 20
1.0
 30
0.0
  9
$USERI1
 70
     0
  9
$USERI2
 70
     0
  9
$USERI3
 70
     0
  9
$USERI4
 70
     0
  9
$USERI5
 70
     0
  9
$USERR1
 40
0.0
  9
$USERR2
 40
0.0
  9
$USERR3
 40
0.0
  9
$USERR4
 40
0.0
  9
$USERR5
 40
0.0
  9
$WORLDVIEW
 70
     1
  9
$SHADEDGE
 70
     3
  9
$SHADEDIF
 70
    70
  9
$TILEMODE
 70
     1
  9
$MAXACTVP
 70
    15
  9
$PINSBASE
 10
0.0004882947541773
 20
1.000276130627782
 30
0.0
  9
$PLIMCHECK
 70
     0
  9
$PEXTMIN
 10
1.000000000000000E+20
 20
1.000000000000000E+20
 30
1.000000000000000E+20
  9
$PEXTMAX
 10
-1.000000000000000E+20
 20
-1.000000000000000E+20
 30
-1.000000000000000E+20
  9
$PLIMMIN
 10
0.0
 20
0.0
  9
$PLIMMAX
 10
12.0
 20
9.0
  9
$UNITMODE
 70
     0
  9
$VISRETAIN
 70
     0
  9
$PLINEGEN
 70
     0
  9
$PSLTSCALE
 70
     1
  9
$TREEDEPTH
 70
  3020
  9
$PICKSTYLE
 70
     1
  9
$CMLSTYLE
  2
STANDARD
  9
$CMLJUST
 70
     0
  9
$CMLSCALE
 40
1.0
  9
$PROXYGRAPHICS
 70
     1
  9
$MEASUREMENT
 70
     0
  0
ENDSEC
  0
SECTION
  2
CLASSES
  0
CLASS
  1
ACDBDICTIONARYWDFLT
  2
AcDbDictionaryWithDefault
  3
AutoCAD 2000
 90
        0
280
     0
281
     0
  0
CLASS
  1
ACDBPLACEHOLDER
  2
AcDbPlaceHolder
  3
AutoCAD 2000
 90
        0
280
     0
281
     0
  0
CLASS
  1
LAYOUT
  2
AcDbLayout
  3
AutoCAD 2000
 90
        0
280
     0
281
     0
  0
CLASS
  1
DICTIONARYVAR
  2
AcDbDictionaryVar
  3
AutoCAD 2000
 90
        0
280
     0
281
     0
  0
CLASS
  1
LONG_TRANSACTION
  2
AcDbLongTransaction
  3
AutoCAD 2000
 90
        0
280
     0
281
     0
  0
CLASS
  1
LWPOLYLINE
  2
AcDbPolyline
  3
AutoCAD 2000
 90
        0
280
     0
281
     1
  0
CLASS
  1
HATCH
  2
AcDbHatch
  3
AutoCAD 2000
 90
        0
280
     0
281
     1
  0
CLASS
  1
XRECORD
  2
AcDbXrecord
  3
AutoCAD 2000
 90
        0
280
     0
281
     0
  0
CLASS
  1
LONG_TRANSACTION
  2
AcDbLongTransaction
  3
AutoCAD 2000
 90
        0
280
     0
281
     0
  0
CLASS
  1
LWPOLYLINE
  2
AcDbPolyline
  3
AutoCAD 2000
 90
        0
280
     0
281
     1
  0
CLASS
  1
HATCH
  2
AcDbHatch
  3
AutoCAD 2000
 90
        0
280
     0
281
     1
  0
CLASS
  1
XRECORD
  2
AcDbXrecord
  3
AutoCAD 2000
 90
        0
280
     0
281
     0
  0
CLASS
  1
LONG_TRANSACTION
  2
AcDbLongTransaction
  3
AutoCAD 2000
 90
        0
280
     0
281
     0
  0
CLASS
  1
LWPOLYLINE
  2
AcDbPolyline
  3
AutoCAD 2000
 90
        0
280
     0
281
     1
  0
CLASS
  1
HATCH
  2
AcDbHatch
  3
AutoCAD 2000
 90
        0
280
     0
281
     1
  0
CLASS
  1
XRECORD
  2
AcDbXrecord
  3
AutoCAD 2000
 90
        0
280
     0
281
     0
  0
CLASS
  1
LONG_TRANSACTION
  2
AcDbLongTransaction
  3
AutoCAD 2000
 90
        0
280
     0
281
     0
  0
CLASS
  1
LWPOLYLINE
  2
AcDbPolyline
  3
AutoCAD 2000
 90
        0
280
     0
281
     1
  0
CLASS
  1
HATCH
  2
AcDbHatch
  3
AutoCAD 2000
 90
        0
280
     0
281
     1
  0
CLASS
  1
XRECORD
  2
AcDbXrecord
  3
AutoCAD 2000
 90
        0
280
     0
281
     0
  0
CLASS
  1
LONG_TRANSACTION
  2
AcDbLongTransaction
  3
AutoCAD 2000
 90
        0
280
     0
281
     0
  0
CLASS
  1
LWPOLYLINE
  2
AcDbPolyline
  3
AutoCAD 2000
 90
        0
280
     0
281
     1
  0
CLASS
  1
HATCH
  2
AcDbHatch
  3
AutoCAD 2000
 90
        0
280
     0
281
     1
  0
CLASS
  1
XRECORD
  2
AcDbXrecord
  3
AutoCAD 2000
 90
        0
280
     0
281
     0
  0
CLASS
  1
LONG_TRANSACTION
  2
AcDbLongTransaction
  3
AutoCAD 2000
 90
        0
280
     0
281
     0
  0
CLASS
  1
LWPOLYLINE
  2
AcDbPolyline
  3
AutoCAD 2000
 90
        0
280
     0
281
     1
  0
CLASS
  1
HATCH
  2
AcDbHatch
  3
AutoCAD 2000
 90
        0
280
     0
281
     1
  0
CLASS
  1
XRECORD
  2
AcDbXrecord
  3
AutoCAD 2000
 90
        0
280
     0
281
     0
  0
ENDSEC
  0
SECTION
  2
TABLES
  0
TABLE
  2
VPORT
  5
8
330
0
100
AcDbSymbolTable
 70
     2
  0
VPORT
  5
307
330
8
100
AcDbSymbolTableRecord
100
AcDbViewportTableRecord
  2
*ACTIVE
 70
     0
 10
0.0
 20
0.0
 11
1.0
 21
1.0
 12
3.906348586100068
 22
-0.5455042351993078
 13
0.0
 23
0.0
 14
0.5740882589684922
 24
0.5740882589684922
 15
0.5
 25
0.5
 16
0.0
 26
0.0
 36
1.0
 17
0.0
 27
0.0
 37
0.0
 40
6.274628055264567
 41
1.570528967254408
 42
50.0
 43
0.0
 44
0.0
 50
0.0
 51
0.0
 71
     0
 72
   100
 73
     1
 74
     0
 75
     0
 76
     0
 77
     0
 78
     0
  0
ENDTAB
  0
TABLE
  2
LTYPE
  5
5
330
0
100
AcDbSymbolTable
 70
     2
  0
LTYPE
  5
13
330
5
100
AcDbSymbolTableRecord
100
AcDbLinetypeTableRecord
  2
BYBLOCK
 70
     0
  3

 72
    65
 73
     0
 40
0.0
  0
LTYPE
  5
14
330
5
100
AcDbSymbolTableRecord
100
AcDbLinetypeTableRecord
  2
BYLAYER
 70
     0
  3

 72
    65
 73
     0
 40
0.0
  0
LTYPE
  5
15
330
5
100
AcDbSymbolTableRecord
100
AcDbLinetypeTableRecord
  2
CONTINUOUS
 70
     0
  3
Solid line
 72
    65
 73
     0
 40
0.0
  0
LTYPE
  5
81
330
5
100
AcDbSymbolTableRecord
100
AcDbLinetypeTableRecord
  2
HIDDEN2
 70
     0
  3
_ _ _ _ _ _ _ _ _ _ _ _ _ _ _ _ _ _ _ _ _ _ _ _
 72
    65
 73
     2
 40
0.1875
 49
0.125
 74
     0
 49
-0.0625
 74
     0
  0
ENDTAB
  0
TABLE
  2
LAYER
  5
2
330
0
100
AcDbSymbolTable
 70
     5
  0
LAYER
  5
10
330
2
100
AcDbSymbolTableRecord
100
AcDbLayerTableRecord
  2
0
 70
     0
 62
     7
  6
CONTINUOUS
  0
LAYER
  5
82
330
2
100
AcDbSymbolTableRecord
100
AcDbLayerTableRecord
  2
ADP2DETAIL
 70
     0
 62
     5
  6
CONTINUOUS
  0
LAYER
  5
83
330
2
100
AcDbSymbolTableRecord
100
AcDbLayerTableRecord
  2
ADPDIM
 70
     0
 62
     3
  6
CONTINUOUS
  0
LAYER
  5
85
330
2
100
AcDbSymbolTableRecord
100
AcDbLayerTableRecord
  2
ADP1DETAIL
 70
     0
 62
     7
  6
CONTINUOUS
  0
LAYER
  5
87
330
2
100
AcDbSymbolTableRecord
100
AcDbLayerTableRecord
  2
DEFPOINTS
 70
     0
 62
     7
  6
CONTINUOUS
  0
ENDTAB
  0
TABLE
  2
STYLE
  5
3
330
0
100
AcDbSymbolTable
 70
     2
  0
STYLE
  5
11
330
3
100
AcDbSymbolTableRecord
100
AcDbTextStyleTableRecord
  2
STANDARD
 70
     0
 40
0.0
 41
1.0
 50
0.0
 71
     0
 42
0.2
  3
txt
  4

  0
STYLE
  5
13A
330
3
100
AcDbSymbolTableRecord
100
AcDbTextStyleTableRecord
  2
ARIAL_WIDE
 70
     0
 40
0.0
 41
1.25
 50
0.0
 71
     0
 42
0.2
  3
ARIAL.TTF
  4

1001
ACAD
1000
Arial
1071
       34
  0
ENDTAB
  0
TABLE
  2
VIEW
  5
6
330
0
100
AcDbSymbolTable
 70
     0
  0
ENDTAB
  0
TABLE
  2
UCS
  5
7
330
0
100
AcDbSymbolTable
 70
     0
  0
ENDTAB
  0
TABLE
  2
APPID
  5
9
330
0
100
AcDbSymbolTable
 70
     1
  0
APPID
  5
12
330
9
100
AcDbSymbolTableRecord
100
AcDbRegAppTableRecord
  2
ACAD
 70
     0
  0
ENDTAB
  0
TABLE
  2
DIMSTYLE
  5
A
330
0
100
AcDbSymbolTable
 70
     1
  0
DIMSTYLE
105
138
330
A
100
AcDbSymbolTableRecord
100
AcDbDimStyleTableRecord
  2
STANDARD
 70
     0
  3

  4

  5

  6

  7

 40
1.0
 41
0.18
 42
0.0625
 43
0.38
 44
0.18
 45
0.0
 46
0.0
 47
0.0
 48
0.0
140
0.18
141
0.09
142
0.0
143
25.4
144
1.0
145
0.0
146
1.0
147
0.09
 71
     0
 72
     0
 73
     1
 74
     1
 75
     0
 76
     0
 77
     0
 78
     0
170
     0
171
     2
172
     0
173
     0
174
     0
175
     0
176
     0
177
     0
178
     0
270
     2
271
     4
272
     4
273
     2
274
     2
340
11
275
     0
280
     0
281
     0
282
     0
283
     1
284
     0
285
     0
286
     0
287
     3
288
     0
  0
ENDTAB
  0
TABLE
  2
BLOCK_RECORD
  5
1
330
0
100
AcDbSymbolTable
 70
     3
  0
BLOCK_RECORD
  5
1E
102
{ACAD_XDICTIONARY
360
177
102
}
330
1
100
AcDbSymbolTableRecord
100
AcDbBlockTableRecord
  2
*MODEL_SPACE
  0
BLOCK_RECORD
  5
1A
102
{ACAD_XDICTIONARY
360
179
102
}
330
1
100
AcDbSymbolTableRecord
100
AcDbBlockTableRecord
  2
*PAPER_SPACE
  0
BLOCK_RECORD
  5
6B
330
1
100
AcDbSymbolTableRecord
100
AcDbBlockTableRecord
  2
*D0
  0
BLOCK_RECORD
  5
6C
330
1
100
AcDbSymbolTableRecord
100
AcDbBlockTableRecord
  2
*D1
  0
BLOCK_RECORD
  5
6D
330
1
100
AcDbSymbolTableRecord
100
AcDbBlockTableRecord
  2
*D2
  0
ENDTAB
  0
ENDSEC
  0
SECTION
  2
BLOCKS
  0
BLOCK
  5
8A
330
1E
100
AcDbEntity
  8
0
100
AcDbBlockBegin
  2
*MODEL_SPACE
 70
     0
 10
0.0
 20
0.0
 30
0.0
  3
*MODEL_SPACE
  1

  0
ENDBLK
  5
8B
330
1E
100
AcDbEntity
  8
0
100
AcDbBlockEnd
  0
BLOCK
  5
88
330
1A
100
AcDbEntity
 67
     1
  8
0
100
AcDbBlockBegin
  2
*PAPER_SPACE
 70
     0
 10
0.0
 20
0.0
 30
0.0
  3
*PAPER_SPACE
  1

  0
ENDBLK
  5
89
330
1A
100
AcDbEntity
 67
     1
  8
0
100
AcDbBlockEnd
  0
BLOCK
  5
8D
330
6B
100
AcDbEntity
  8
0
100
AcDbBlockBegin
  2
*D0
 70
     1
 10
0.0
 20
0.0
 30
0.0
  3
*D0
  1

  0
LINE
  5
8E
330
6B
100
AcDbEntity
  8
0
  6
BYBLOCK
 62
     0
100
AcDbLine
 10
2.0
 20
-1.1225
 30
0.0
 11
2.0
 21
-1.478043628431016
 31
0.0
  0
LINE
  5
8F
330
6B
100
AcDbEntity
  8
0
  6
BYBLOCK
 62
     0
100
AcDbLine
 10
8.0
 20
-1.1225
 30
0.0
 11
8.0
 21
-1.478043628431016
 31
0.0
  0
LINE
  5
90
330
6B
100
AcDbEntity
  8
0
  6
BYBLOCK
 62
     0
100
AcDbLine
 10
2.0
 20
-1.298043628431016
 30
0.0
 11
4.833333333333333
 21
-1.298043628431016
 31
0.0
  0
LINE
  5
91
330
6B
100
AcDbEntity
  8
0
  6
BYBLOCK
 62
     0
100
AcDbLine
 10
8.0
 20
-1.298043628431016
 30
0.0
 11
5.166666666666666
 21
-1.298043628431016
 31
0.0
  0
LINE
  5
92
330
6B
100
AcDbEntity
  8
0
  6
BYBLOCK
 62
     0
100
AcDbLine
 10
1.875
 20
-1.423043628431016
 30
0.0
 11
2.125
 21
-1.173043628431016
 31
0.0
  0
LINE
  5
93
330
6B
100
AcDbEntity
  8
0
  6
BYBLOCK
 62
     0
100
AcDbLine
 10
7.875
 20
-1.423043628431016
 30
0.0
 11
8.125
 21
-1.173043628431016
 31
0.0
  0
TEXT
  5
94
330
6B
100
AcDbEntity
  8
0
  6
BYBLOCK
 62
     0
100
AcDbText
 10
4.958333333333333
 20
-1.360543628431016
 30
0.0
 40
0.125
  1
6
 72
     1
 11
5.0
 21
-1.298043628431016
 31
0.0
100
AcDbText
 73
     2
  0
POINT
  5
96
330
6B
100
AcDbEntity
  8
DEFPOINTS
  6
BYBLOCK
 62
     0
100
AcDbPoint
 10
2.0
 20
-1.06
 30
0.0
  0
POINT
  5
97
330
6B
100
AcDbEntity
  8
DEFPOINTS
  6
BYBLOCK
 62
     0
100
AcDbPoint
 10
8.0
 20
-1.06
 30
0.0
  0
POINT
  5
98
330
6B
100
AcDbEntity
  8
DEFPOINTS
  6
BYBLOCK
 62
     0
100
AcDbPoint
 10
8.0
 20
-1.298043628431016
 30
0.0
  0
ENDBLK
  5
99
330
6B
100
AcDbEntity
  8
0
100
AcDbBlockEnd
  0
BLOCK
  5
9A
330
6C
100
AcDbEntity
  8
0
100
AcDbBlockBegin
  2
*D1
 70
     1
 10
0.0
 20
0.0
 30
0.0
  3
*D1
  1

  0
LINE
  5
9B
330
6C
100
AcDbEntity
  8
0
  6
BYBLOCK
 62
     0
100
AcDbLine
 10
0.0
 20
-1.0915
 30
0.0
 11
0.0
 21
-1.478043628431016
 31
0.0
  0
LINE
  5
9C
330
6C
100
AcDbEntity
  8
0
  6
BYBLOCK
 62
     0
100
AcDbLine
 10
1.0
 20
-1.0915
 30
0.0
 11
1.0
 21
-1.478043628431016
 31
0.0
  0
LINE
  5
9D
330
6C
100
AcDbEntity
  8
0
  6
BYBLOCK
 62
     0
100
AcDbLine
 10
0.0
 20
-1.298043628431016
 30
0.0
 11
0.3541666666666666
 21
-1.298043628431016
 31
0.0
  0
LINE
  5
9E
330
6C
100
AcDbEntity
  8
0
  6
BYBLOCK
 62
     0
100
AcDbLine
 10
1.0
 20
-1.298043628431016
 30
0.0
 11
0.6458333333333334
 21
-1.298043628431016
 31
0.0
  0
LINE
  5
9F
330
6C
100
AcDbEntity
  8
0
  6
BYBLOCK
 62
     0
100
AcDbLine
 10
-0.125
 20
-1.423043628431016
 30
0.0
 11
0.125
 21
-1.173043628431016
 31
0.0
  0
LINE
  5
A0
330
6C
100
AcDbEntity
  8
0
  6
BYBLOCK
 62
     0
100
AcDbLine
 10
0.875
 20
-1.423043628431016
 30
0.0
 11
1.125
 21
-1.173043628431016
 31
0.0
  0
TEXT
  5
A1
330
6C
100
AcDbEntity
  8
0
  6
BYBLOCK
 62
     0
100
AcDbText
 10
0.4791666666666667
 20
-1.360543628431016
 30
0.0
 40
0.125
  1
1
 72
     1
 11
0.5
 21
-1.298043628431016
 31
0.0
100
AcDbText
 73
     2
  0
POINT
  5
A2
330
6C
100
AcDbEntity
  8
DEFPOINTS
  6
BYBLOCK
 62
     0
100
AcDbPoint
 10
0.0
 20
-1.029
 30
0.0
  0
POINT
  5
A3
330
6C
100
AcDbEntity
  8
DEFPOINTS
  6
BYBLOCK
 62
     0
100
AcDbPoint
 10
1.0
 20
-1.029
 30
0.0
  0
POINT
  5
A4
330
6C
100
AcDbEntity
  8
DEFPOINTS
  6
BYBLOCK
 62
     0
100
AcDbPoint
 10
1.0
 20
-1.298043628431016
 30
0.0
  0
ENDBLK
  5
A5
330
6C
100
AcDbEntity
  8
0
100
AcDbBlockEnd
  0
BLOCK
  5
A6
330
6D
100
AcDbEntity
  8
0
100
AcDbBlockBegin
  2
*D2
 70
     1
 10
0.0
 20
0.0
 30
0.0
  3
*D2
  1

  0
LINE
  5
A7
330
6D
100
AcDbEntity
  8
0
  6
BYBLOCK
 62
     0
100
AcDbLine
 10
-0.0315
 20
-1.06
 30
0.0
 11
-0.4776673354038705
 21
-1.06
 31
0.0
  0
LINE
  5
A8
330
6D
100
AcDbEntity
  8
0
  6
BYBLOCK
 62
     0
100
AcDbLine
 10
0.0899027489942863
 20
0.0
 30
0.0
 11
-0.4776673354038705
 21
0.0
 31
0.0
  0
LINE
  5
A9
330
6D
100
AcDbEntity
  8
0
  6
BYBLOCK
 62
     0
100
AcDbLine
 10
-0.2976673354038706
 20
-1.06
 30
0.0
 11
-0.2976673354038706
 21
-1.31
 31
0.0
  0
LINE
  5
AA
330
6D
100
AcDbEntity
  8
0
  6
BYBLOCK
 62
     0
100
AcDbLine
 10
-0.2976673354038705
 20
0.0
 30
0.0
 11
-0.2976673354038705
 21
0.25
 31
0.0
  0
LINE
  5
AB
330
6D
100
AcDbEntity
  8
0
  6
BYBLOCK
 62
     0
100
AcDbLine
 10
-0.1726673354038706
 20
-1.185
 30
0.0
 11
-0.4226673354038706
 21
-0.9350000000000001
 31
0.0
  0
LINE
  5
AC
330
6D
100
AcDbEntity
  8
0
  6
BYBLOCK
 62
     0
100
AcDbLine
 10
-0.1726673354038705
 20
-0.125
 30
0.0
 11
-0.4226673354038705
 21
0.125
 31
0.0
  0
TEXT
  5
AD
330
6D
100
AcDbEntity
  8
0
  6
BYBLOCK
 62
     0
100
AcDbText
 10
-0.2351673354038705
 20
0.375
 30
0.0
 40
0.125
  1
1 1/16
 50
90.0
 72
     1
 11
-0.2976673354038705
 21
0.6666666666666668
 31
0.0
100
AcDbText
 73
     2
  0
POINT
  5
AE
330
6D
100
AcDbEntity
  8
DEFPOINTS
  6
BYBLOCK
 62
     0
100
AcDbPoint
 10
0.031
 20
-1.06
 30
0.0
  0
POINT
  5
AF
330
6D
100
AcDbEntity
  8
DEFPOINTS
  6
BYBLOCK
 62
     0
100
AcDbPoint
 10
0.1524027489942863
 20
0.0
 30
0.0
  0
POINT
  5
B0
330
6D
100
AcDbEntity
  8
DEFPOINTS
  6
BYBLOCK
 62
     0
100
AcDbPoint
 10
-0.2976673354038705
 20
0.0
 30
0.0
  0
ENDBLK
  5
B1
330
6D
100
AcDbEntity
  8
0
100
AcDbBlockEnd
  0
ENDSEC
  0
SECTION
  2
ENTITIES
  0
LINE
  5
B2
330
1E
100
AcDbEntity
  8
ADP1DETAIL
100
AcDbLine
 10
8.0
 20
0.0
 30
0.0
 11
2.0
 21
0.0
 31
0.0
  0
LINE
  5
B3
330
1E
100
AcDbEntity
  8
ADP1DETAIL
100
AcDbLine
 10
2.0
 20
-1.06
 30
0.0
 11
8.0
 21
-1.06
 31
0.0
  0
LINE
  5
B4
330
1E
100
AcDbEntity
  8
ADP1DETAIL
100
AcDbLine
 10
2.0
 20
-1.002
 30
0.0
 11
8.0
 21
-1.002
 31
0.0
  0
LINE
  5
B5
330
1E
100
AcDbEntity
  8
ADP1DETAIL
100
AcDbLine
 10
2.0
 20
-0.9619999999999999
 30
0.0
 11
8.0
 21
-0.9619999999999999
 31
0.0
  0
LINE
  5
B6
330
1E
100
AcDbEntity
  8
ADP1DETAIL
100
AcDbLine
 10
2.0
 20
-0.4800000000000006
 30
0.0
 11
8.0
 21
-0.4800000000000006
 31
0.0
  0
LINE
  5
B7
330
1E
100
AcDbEntity
  8
ADP1DETAIL
100
AcDbLine
 10
2.0
 20
-0.982
 30
0.0
 11
8.0
 21
-0.982
 31
0.0
  0
LINE
  5
B8
330
1E
100
AcDbEntity
  8
ADP2DETAIL
  6
HIDDEN2
100
AcDbLine
 10
2.0
 20
-0.38
 30
0.0
 11
8.0
 21
-0.38
 31
0.0
  0
LINE
  5
B9
330
1E
100
AcDbEntity
  8
ADP2DETAIL
  6
HIDDEN2
100
AcDbLine
 10
2.0
 20
-0.63
 30
0.0
 11
8.0
 21
-0.63
 31
0.0
  0
DIMENSION
  5
BA
330
1E
100
AcDbEntity
  8
ADPDIM
100
AcDbDimension
  2
*D0
 10
8.0
 20
-1.298043628431016
 30
0.0
 11
5.0
 21
-1.298043628431016
 31
0.0
100
AcDbAlignedDimension
 13
2.0
 23
-1.06
 33
0.0
 14
8.0
 24
-1.06
 34
0.0
 50
180.0
100
AcDbRotatedDimension
  0
DIMENSION
  5
BB
330
1E
100
AcDbEntity
  8
ADPDIM
100
AcDbDimension
  2
*D1
 10
1.0
 20
-1.298043628431016
 30
0.0
 11
0.5
 21
-1.298043628431016
 31
0.0
100
AcDbAlignedDimension
 13
0.0
 23
-1.029
 33
0.0
 14
1.0
 24
-1.029
 34
0.0
 50
180.0
100
AcDbRotatedDimension
  0
LINE
  5
BC
330
1E
100
AcDbEntity
  8
ADP1DETAIL
100
AcDbLine
 10
0.7000000000000001
 20
-0.4800000000000001
 30
0.0
 11
0.3
 21
-0.4800000000000001
 31
0.0
  0
ARC
  5
BD
330
1E
100
AcDbEntity
  8
ADP1DETAIL
100
AcDbCircle
 10
0.7195000000000001
 20
-0.062
 30
0.0
 40
0.062
100
AcDbArc
 50
90.00000000000003
 51
180.0
  0
LINE
  5
BE
330
1E
100
AcDbEntity
  8
ADP1DETAIL
100
AcDbLine
 10
0.6069999999999999
 20
-0.63
 30
0.0
 11
0.7000000000000001
 21
-0.63
 31
0.0
  0
LINE
  5
BF
330
1E
100
AcDbEntity
  8
ADP1DETAIL
100
AcDbLine
 10
0.6689999999999998
 20
-1.059999999999999
 30
0.0
 11
0.5759999999999998
 21
-0.9669999999999999
 31
0.0
  0
DIMENSION
  5
C0
330
1E
100
AcDbEntity
  8
ADPDIM
100
AcDbDimension
  2
*D2
 10
-0.2976673354038705
 20
0.0
 30
0.0
 11
-0.2976673354038705
 21
0.6666666666666668
 31
0.0
100
AcDbAlignedDimension
 13
0.031
 23
-1.06
 33
0.0
 14
0.1524027489942863
 24
0.0
 34
0.0
 50
90.0
100
AcDbRotatedDimension
  0
LINE
  5
C1
330
1E
100
AcDbEntity
  8
ADP1DETAIL
100
AcDbLine
 10
0.3
 20
-0.4800000000000001
 30
0.0
 11
0.3
 21
-0.63
 31
0.0
  0
LINE
  5
C2
330
1E
100
AcDbEntity
  8
ADP1DETAIL
100
AcDbLine
 10
0.0
 20
-0.4799999999999997
 30
0.0
 11
0.0
 21
-0.962
 31
0.0
  0
LINE
  5
C3
330
1E
100
AcDbEntity
  8
ADP1DETAIL
100
AcDbLine
 10
0.031
 20
-1.06
 30
0.0
 11
0.3309999999999999
 21
-1.06
 31
0.0
  0
LINE
  5
C4
330
1E
100
AcDbEntity
  8
ADP1DETAIL
100
AcDbLine
 10
0.3
 20
-0.63
 30
0.0
 11
0.3929999999999999
 21
-0.63
 31
0.0
  0
ARC
  5
C5
330
1E
100
AcDbEntity
  8
ADP1DETAIL
100
AcDbCircle
 10
0.031
 20
-1.029
 30
0.0
 40
0.031
100
AcDbArc
 50
180.0
 51
270.0
  0
LINE
  5
C6
330
1E
100
AcDbEntity
  8
ADP1DETAIL
100
AcDbLine
 10
0.0
 20
-1.002
 30
0.0
 11
0.0
 21
-1.029
 31
0.0
  0
LWPOLYLINE
  5
C7
330
1E
100
AcDbEntity
  8
ADP1DETAIL
100
AcDbPolyline
 90
        3
 70
     0
 43
0.0
 10
0.0
 20
-0.962
 10
-0.02
 20
-0.982
 10
0.0
 20
-1.002
  0
LINE
  5
CC
330
1E
100
AcDbEntity
  8
ADP1DETAIL
100
AcDbLine
 10
0.3309999999999999
 20
-1.059999999999999
 30
0.0
 11
0.424
 21
-0.9669999999999998
 31
0.0
  0
LINE
  5
CD
330
1E
100
AcDbEntity
  8
ADP1DETAIL
100
AcDbLine
 10
0.424
 20
-0.9349999999999997
 30
0.0
 11
0.424
 21
-0.9319999999999996
 31
0.0
  0
LINE
  5
CE
330
1E
100
AcDbEntity
  8
ADP1DETAIL
100
AcDbLine
 10
0.424
 20
-0.9319999999999996
 30
0.0
 11
0.407
 21
-0.9189999999999997
 31
0.0
  0
LINE
  5
CF
330
1E
100
AcDbEntity
  8
ADP1DETAIL
100
AcDbLine
 10
0.424
 20
-0.9639999999999997
 30
0.0
 11
0.407
 21
-0.9509999999999998
 31
0.0
  0
LINE
  5
D0
330
1E
100
AcDbEntity
  8
ADP1DETAIL
100
AcDbLine
 10
0.424
 20
-0.9669999999999998
 30
0.0
 11
0.424
 21
-0.9639999999999997
 31
0.0
  0
LINE
  5
D1
330
1E
100
AcDbEntity
  8
ADP1DETAIL
100
AcDbLine
 10
0.407
 20
-0.9479999999999996
 30
0.0
 11
0.424
 21
-0.9349999999999997
 31
0.0
  0
LINE
  5
D2
330
1E
100
AcDbEntity
  8
ADP1DETAIL
100
AcDbLine
 10
0.407
 20
-0.9509999999999998
 30
0.0
 11
0.407
 21
-0.9479999999999996
 31
0.0
  0
LINE
  5
D3
330
1E
100
AcDbEntity
  8
ADP1DETAIL
100
AcDbLine
 10
0.5929999999999999
 20
-0.9347312074310359
 30
0.0
 11
0.5929999999999999
 21
-0.9317312074310359
 31
0.0
  0
LINE
  5
D4
330
1E
100
AcDbEntity
  8
ADP1DETAIL
100
AcDbLine
 10
0.5929999999999999
 20
-0.9317312074310359
 30
0.0
 11
0.5759999999999998
 21
-0.9187312074310359
 31
0.0
  0
LINE
  5
D5
330
1E
100
AcDbEntity
  8
ADP1DETAIL
100
AcDbLine
 10
0.5759999999999998
 20
-0.9507312074310359
 30
0.0
 11
0.5759999999999998
 21
-0.947731207431036
 31
0.0
  0
LINE
  5
D6
330
1E
100
AcDbEntity
  8
ADP1DETAIL
100
AcDbLine
 10
0.5759999999999998
 20
-0.947731207431036
 30
0.0
 11
0.5929999999999999
 21
-0.9347312074310359
 31
0.0
  0
LINE
  5
D7
330
1E
100
AcDbEntity
  8
ADP1DETAIL
100
AcDbLine
 10
0.5759999999999998
 20
-0.9669999999999998
 30
0.0
 11
0.5759999999999998
 21
-0.947731207431036
 31
0.0
  0
ARC
  5
D8
330
1E
100
AcDbEntity
  8
ADP1DETAIL
100
AcDbCircle
 10
0.6069999999999999
 20
-0.6610000000000001
 30
0.0
 40
0.031
100
AcDbArc
 50
90.00000000000003
 51
180.0
  0
ARC
  5
D9
330
1E
100
AcDbEntity
  8
ADP1DETAIL
100
AcDbCircle
 10
0.3929999999999999
 20
-0.6610000000000001
 30
0.0
 40
0.031
100
AcDbArc
 50
0.0
 51
90.00000000000003
  0
LINE
  5
DA
330
1E
100
AcDbEntity
  8
ADP1DETAIL
100
AcDbLine
 10
0.407
 20
-0.9159999999999996
 30
0.0
 11
0.424
 21
-0.9029999999999997
 31
0.0
  0
LINE
  5
DB
330
1E
100
AcDbEntity
  8
ADP1DETAIL
100
AcDbLine
 10
0.5759999999999998
 20
-0.9157312074310359
 30
0.0
 11
0.5929999999999999
 21
-0.9027312074310358
 31
0.0
  0
LINE
  5
DC
330
1E
100
AcDbEntity
  8
ADP1DETAIL
100
AcDbLine
 10
0.407
 20
-0.722599113518479
 30
0.0
 11
0.424
 21
-0.7095991135184791
 31
0.0
  0
LINE
  5
DD
330
1E
100
AcDbEntity
  8
ADP1DETAIL
100
AcDbLine
 10
0.424
 20
-0.677599113518479
 30
0.0
 11
0.424
 21
-0.674599113518479
 31
0.0
  0
LINE
  5
DE
330
1E
100
AcDbEntity
  8
ADP1DETAIL
100
AcDbLine
 10
0.424
 20
-0.706599113518479
 30
0.0
 11
0.407
 21
-0.693599113518479
 31
0.0
  0
LINE
  5
DF
330
1E
100
AcDbEntity
  8
ADP1DETAIL
100
AcDbLine
 10
0.424
 20
-0.7095991135184791
 30
0.0
 11
0.424
 21
-0.706599113518479
 31
0.0
  0
LINE
  5
E0
330
1E
100
AcDbEntity
  8
ADP1DETAIL
100
AcDbLine
 10
0.407
 20
-0.690599113518479
 30
0.0
 11
0.424
 21
-0.677599113518479
 31
0.0
  0
LINE
  5
E1
330
1E
100
AcDbEntity
  8
ADP1DETAIL
100
AcDbLine
 10
0.407
 20
-0.693599113518479
 30
0.0
 11
0.407
 21
-0.690599113518479
 31
0.0
  0
LINE
  5
E2
330
1E
100
AcDbEntity
  8
ADP1DETAIL
100
AcDbLine
 10
0.407
 20
-0.7575991135184791
 30
0.0
 11
0.407
 21
-0.7545991135184791
 31
0.0
  0
LINE
  5
E3
330
1E
100
AcDbEntity
  8
ADP1DETAIL
100
AcDbLine
 10
0.407
 20
-0.7545991135184791
 30
0.0
 11
0.424
 21
-0.7415991135184791
 31
0.0
  0
LINE
  5
E4
330
1E
100
AcDbEntity
  8
ADP1DETAIL
100
AcDbLine
 10
0.424
 20
-0.7735991135184791
 30
0.0
 11
0.424
 21
-0.7705991135184791
 31
0.0
  0
LINE
  5
E5
330
1E
100
AcDbEntity
  8
ADP1DETAIL
100
AcDbLine
 10
0.424
 20
-0.7705991135184791
 30
0.0
 11
0.407
 21
-0.7575991135184791
 31
0.0
  0
LINE
  5
E6
330
1E
100
AcDbEntity
  8
ADP1DETAIL
100
AcDbLine
 10
0.424
 20
-0.7385991135184791
 30
0.0
 11
0.407
 21
-0.7255991135184791
 31
0.0
  0
LINE
  5
E7
330
1E
100
AcDbEntity
  8
ADP1DETAIL
100
AcDbLine
 10
0.424
 20
-0.7415991135184791
 30
0.0
 11
0.424
 21
-0.7385991135184791
 31
0.0
  0
LINE
  5
E8
330
1E
100
AcDbEntity
  8
ADP1DETAIL
100
AcDbLine
 10
0.407
 20
-0.7255991135184791
 30
0.0
 11
0.407
 21
-0.722599113518479
 31
0.0
  0
LINE
  5
E9
330
1E
100
AcDbEntity
  8
ADP1DETAIL
100
AcDbLine
 10
0.407
 20
-0.7865991135184791
 30
0.0
 11
0.424
 21
-0.7735991135184791
 31
0.0
  0
LINE
  5
EA
330
1E
100
AcDbEntity
  8
ADP1DETAIL
100
AcDbLine
 10
0.407
 20
-0.8869999999999997
 30
0.0
 11
0.407
 21
-0.8839999999999996
 31
0.0
  0
LINE
  5
EB
330
1E
100
AcDbEntity
  8
ADP1DETAIL
100
AcDbLine
 10
0.407
 20
-0.8839999999999996
 30
0.0
 11
0.424
 21
-0.8709999999999997
 31
0.0
  0
LINE
  5
EC
330
1E
100
AcDbEntity
  8
ADP1DETAIL
100
AcDbLine
 10
0.424
 20
-0.9029999999999997
 30
0.0
 11
0.424
 21
-0.8999999999999996
 31
0.0
  0
LINE
  5
ED
330
1E
100
AcDbEntity
  8
ADP1DETAIL
100
AcDbLine
 10
0.424
 20
-0.8999999999999996
 30
0.0
 11
0.407
 21
-0.8869999999999997
 31
0.0
  0
LINE
  5
EE
330
1E
100
AcDbEntity
  8
ADP1DETAIL
100
AcDbLine
 10
0.407
 20
-0.8549999999999997
 30
0.0
 11
0.407
 21
-0.8519999999999996
 31
0.0
  0
LINE
  5
EF
330
1E
100
AcDbEntity
  8
ADP1DETAIL
100
AcDbLine
 10
0.407
 20
-0.8519999999999996
 30
0.0
 11
0.424
 21
-0.8389999999999997
 31
0.0
  0
LINE
  5
F0
330
1E
100
AcDbEntity
  8
ADP1DETAIL
100
AcDbLine
 10
0.424
 20
-0.8709999999999997
 30
0.0
 11
0.424
 21
-0.8679999999999996
 31
0.0
  0
LINE
  5
F1
330
1E
100
AcDbEntity
  8
ADP1DETAIL
100
AcDbLine
 10
0.424
 20
-0.8679999999999996
 30
0.0
 11
0.407
 21
-0.8549999999999997
 31
0.0
  0
LINE
  5
F2
330
1E
100
AcDbEntity
  8
ADP1DETAIL
100
AcDbLine
 10
0.407
 20
-0.8215991135184792
 30
0.0
 11
0.407
 21
-0.818599113518479
 31
0.0
  0
LINE
  5
F3
330
1E
100
AcDbEntity
  8
ADP1DETAIL
100
AcDbLine
 10
0.407
 20
-0.818599113518479
 30
0.0
 11
0.424
 21
-0.8055991135184791
 31
0.0
  0
LINE
  5
F4
330
1E
100
AcDbEntity
  8
ADP1DETAIL
100
AcDbLine
 10
0.424
 20
-0.8375991135184792
 30
0.0
 11
0.424
 21
-0.8345991135184791
 31
0.0
  0
LINE
  5
F5
330
1E
100
AcDbEntity
  8
ADP1DETAIL
100
AcDbLine
 10
0.424
 20
-0.8345991135184791
 30
0.0
 11
0.407
 21
-0.8215991135184792
 31
0.0
  0
LINE
  5
F6
330
1E
100
AcDbEntity
  8
ADP1DETAIL
100
AcDbLine
 10
0.407
 20
-0.7895991135184791
 30
0.0
 11
0.407
 21
-0.7865991135184791
 31
0.0
  0
LINE
  5
F7
330
1E
100
AcDbEntity
  8
ADP1DETAIL
100
AcDbLine
 10
0.424
 20
-0.8055991135184791
 30
0.0
 11
0.424
 21
-0.802599113518479
 31
0.0
  0
LINE
  5
F8
330
1E
100
AcDbEntity
  8
ADP1DETAIL
100
AcDbLine
 10
0.424
 20
-0.802599113518479
 30
0.0
 11
0.407
 21
-0.7895991135184791
 31
0.0
  0
LINE
  5
F9
330
1E
100
AcDbEntity
  8
ADP1DETAIL
100
AcDbLine
 10
0.5929999999999999
 20
-0.8997312074310359
 30
0.0
 11
0.5759999999999998
 21
-0.8867312074310358
 31
0.0
  0
LINE
  5
FA
330
1E
100
AcDbEntity
  8
ADP1DETAIL
100
AcDbLine
 10
0.5759999999999998
 20
-0.7863303209495154
 30
0.0
 11
0.5929999999999999
 21
-0.7733303209495154
 31
0.0
  0
LINE
  5
FB
330
1E
100
AcDbEntity
  8
ADP1DETAIL
100
AcDbLine
 10
0.5759999999999998
 20
-0.7893303209495154
 30
0.0
 11
0.5759999999999998
 21
-0.7863303209495154
 31
0.0
  0
LINE
  5
FC
330
1E
100
AcDbEntity
  8
ADP1DETAIL
100
AcDbLine
 10
0.5929999999999999
 20
-0.7733303209495154
 30
0.0
 11
0.5929999999999999
 21
-0.7703303209495154
 31
0.0
  0
LINE
  5
FD
330
1E
100
AcDbEntity
  8
ADP1DETAIL
100
AcDbLine
 10
0.5759999999999998
 20
-0.8183303209495154
 30
0.0
 11
0.5929999999999999
 21
-0.8053303209495153
 31
0.0
  0
LINE
  5
FE
330
1E
100
AcDbEntity
  8
ADP1DETAIL
100
AcDbLine
 10
0.5759999999999998
 20
-0.8213303209495153
 30
0.0
 11
0.5759999999999998
 21
-0.8183303209495154
 31
0.0
  0
LINE
  5
FF
330
1E
100
AcDbEntity
  8
ADP1DETAIL
100
AcDbLine
 10
0.5929999999999999
 20
-0.8023303209495153
 30
0.0
 11
0.5759999999999998
 21
-0.7893303209495154
 31
0.0
  0
LINE
  5
100
330
1E
100
AcDbEntity
  8
ADP1DETAIL
100
AcDbLine
 10
0.5929999999999999
 20
-0.8053303209495153
 30
0.0
 11
0.5929999999999999
 21
-0.8023303209495153
 31
0.0
  0
LINE
  5
101
330
1E
100
AcDbEntity
  8
ADP1DETAIL
100
AcDbLine
 10
0.5759999999999998
 20
-0.8517312074310359
 30
0.0
 11
0.5929999999999999
 21
-0.8387312074310358
 31
0.0
  0
LINE
  5
102
330
1E
100
AcDbEntity
  8
ADP1DETAIL
100
AcDbLine
 10
0.5759999999999998
 20
-0.8547312074310358
 30
0.0
 11
0.5759999999999998
 21
-0.8517312074310359
 31
0.0
  0
LINE
  5
103
330
1E
100
AcDbEntity
  8
ADP1DETAIL
100
AcDbLine
 10
0.5929999999999999
 20
-0.8357312074310359
 30
0.0
 11
0.5759999999999998
 21
-0.8227312074310358
 31
0.0
  0
LINE
  5
104
330
1E
100
AcDbEntity
  8
ADP1DETAIL
100
AcDbLine
 10
0.5929999999999999
 20
-0.8387312074310358
 30
0.0
 11
0.5929999999999999
 21
-0.8357312074310359
 31
0.0
  0
LINE
  5
105
330
1E
100
AcDbEntity
  8
ADP1DETAIL
100
AcDbLine
 10
0.5759999999999998
 20
-0.8837312074310359
 30
0.0
 11
0.5929999999999999
 21
-0.8707312074310358
 31
0.0
  0
LINE
  5
106
330
1E
100
AcDbEntity
  8
ADP1DETAIL
100
AcDbLine
 10
0.5759999999999998
 20
-0.8867312074310358
 30
0.0
 11
0.5759999999999998
 21
-0.8837312074310359
 31
0.0
  0
LINE
  5
107
330
1E
100
AcDbEntity
  8
ADP1DETAIL
100
AcDbLine
 10
0.5929999999999999
 20
-0.8677312074310359
 30
0.0
 11
0.5759999999999998
 21
-0.8547312074310358
 31
0.0
  0
LINE
  5
108
330
1E
100
AcDbEntity
  8
ADP1DETAIL
100
AcDbLine
 10
0.5929999999999999
 20
-0.8707312074310358
 30
0.0
 11
0.5929999999999999
 21
-0.8677312074310359
 31
0.0
  0
LINE
  5
109
330
1E
100
AcDbEntity
  8
ADP1DETAIL
100
AcDbLine
 10
0.5929999999999999
 20
-0.7703303209495154
 30
0.0
 11
0.5759999999999998
 21
-0.7573303209495154
 31
0.0
  0
LINE
  5
10A
330
1E
100
AcDbEntity
  8
ADP1DETAIL
100
AcDbLine
 10
0.5929999999999999
 20
-0.7093303209495154
 30
0.0
 11
0.5929999999999999
 21
-0.7063303209495154
 31
0.0
  0
LINE
  5
10B
330
1E
100
AcDbEntity
  8
ADP1DETAIL
100
AcDbLine
 10
0.5759999999999998
 20
-0.7253303209495154
 30
0.0
 11
0.5759999999999998
 21
-0.7223303209495154
 31
0.0
  0
LINE
  5
10C
330
1E
100
AcDbEntity
  8
ADP1DETAIL
100
AcDbLine
 10
0.5759999999999998
 20
-0.7223303209495154
 30
0.0
 11
0.5929999999999999
 21
-0.7093303209495154
 31
0.0
  0
LINE
  5
10D
330
1E
100
AcDbEntity
  8
ADP1DETAIL
100
AcDbLine
 10
0.5759999999999998
 20
-0.7543303209495154
 30
0.0
 11
0.5929999999999999
 21
-0.7413303209495154
 31
0.0
  0
LINE
  5
10E
330
1E
100
AcDbEntity
  8
ADP1DETAIL
100
AcDbLine
 10
0.5759999999999998
 20
-0.7573303209495154
 30
0.0
 11
0.5759999999999998
 21
-0.7543303209495154
 31
0.0
  0
LINE
  5
10F
330
1E
100
AcDbEntity
  8
ADP1DETAIL
100
AcDbLine
 10
0.5929999999999999
 20
-0.7383303209495154
 30
0.0
 11
0.5759999999999998
 21
-0.7253303209495154
 31
0.0
  0
LINE
  5
110
330
1E
100
AcDbEntity
  8
ADP1DETAIL
100
AcDbLine
 10
0.5929999999999999
 20
-0.7413303209495154
 30
0.0
 11
0.5929999999999999
 21
-0.7383303209495154
 31
0.0
  0
LINE
  5
111
330
1E
100
AcDbEntity
  8
ADP1DETAIL
100
AcDbLine
 10
0.5929999999999999
 20
-0.6773303209495153
 30
0.0
 11
0.5929999999999999
 21
-0.6743303209495153
 31
0.0
  0
LINE
  5
112
330
1E
100
AcDbEntity
  8
ADP1DETAIL
100
AcDbLine
 10
0.5929999999999999
 20
-0.6743303209495153
 30
0.0
 11
0.5759999999999998
 21
-0.6613303209495153
 31
0.0
  0
LINE
  5
113
330
1E
100
AcDbEntity
  8
ADP1DETAIL
100
AcDbLine
 10
0.5759999999999998
 20
-0.6933303209495154
 30
0.0
 11
0.5759999999999998
 21
-0.6903303209495153
 31
0.0
  0
LINE
  5
114
330
1E
100
AcDbEntity
  8
ADP1DETAIL
100
AcDbLine
 10
0.5759999999999998
 20
-0.6903303209495153
 30
0.0
 11
0.5929999999999999
 21
-0.6773303209495153
 31
0.0
  0
LINE
  5
115
330
1E
100
AcDbEntity
  8
ADP1DETAIL
100
AcDbLine
 10
0.5759999999999998
 20
-0.6613303209495153
 30
0.0
 11
0.5759999999999998
 21
-0.6583303209495153
 31
0.0
  0
LINE
  5
116
330
1E
100
AcDbEntity
  8
ADP1DETAIL
100
AcDbLine
 10
0.5929999999999999
 20
-0.7063303209495154
 30
0.0
 11
0.5759999999999998
 21
-0.6933303209495154
 31
0.0
  0
LINE
  5
117
330
1E
100
AcDbEntity
  8
ADP1DETAIL
100
AcDbLine
 10
0.5929999999999999
 20
-0.9027312074310358
 30
0.0
 11
0.5929999999999999
 21
-0.8997312074310359
 31
0.0
  0
LINE
  5
118
330
1E
100
AcDbEntity
  8
ADP1DETAIL
100
AcDbLine
 10
0.424
 20
-0.6610000000000001
 30
0.0
 11
0.424
 21
-0.677599113518479
 31
0.0
  0
LINE
  5
119
330
1E
100
AcDbEntity
  8
ADP1DETAIL
100
AcDbLine
 10
0.407
 20
-0.9189999999999997
 30
0.0
 11
0.407
 21
-0.9159999999999996
 31
0.0
  0
LINE
  5
11A
330
1E
100
AcDbEntity
  8
ADP1DETAIL
100
AcDbLine
 10
0.5759999999999998
 20
-0.9187312074310359
 30
0.0
 11
0.5759999999999998
 21
-0.9157312074310359
 31
0.0
  0
ARC
  5
11B
330
1E
100
AcDbEntity
  8
ADP1DETAIL
100
AcDbCircle
 10
0.2805
 20
-0.062
 30
0.0
 40
0.062
100
AcDbArc
 50
0.0
 51
90.00000000000003
  0
LINE
  5
11C
330
1E
100
AcDbEntity
  8
ADP1DETAIL
100
AcDbLine
 10
0.2805
 20
0.0
 30
0.0
 11
0.1524027489942863
 21
0.0
 31
0.0
  0
ARC
  5
11D
330
1E
100
AcDbEntity
  8
ADP1DETAIL
100
AcDbCircle
 10
0.1524027489942863
 20
-0.031
 30
0.0
 40
0.031
100
AcDbArc
 50
90.00000000000003
 51
165.0
  0
LINE
  5
11E
330
1E
100
AcDbEntity
  8
ADP1DETAIL
100
AcDbLine
 10
-0.0000000000000001
 20
-0.4800000000000001
 30
0.0
 11
0.1224590483793252
 21
-0.0229766096018219
 31
0.0
  0
LINE
  5
11F
330
1E
100
AcDbEntity
  8
ADP1DETAIL
100
AcDbLine
 10
0.3425
 20
-0.38
 30
0.0
 11
0.4850000000000001
 21
-0.3800000000000001
 31
0.0
  0
LINE
  5
120
330
1E
100
AcDbEntity
  8
ADP1DETAIL
100
AcDbLine
 10
0.5150000000000002
 20
-0.3800000000000001
 30
0.0
 11
0.6575
 21
-0.38
 31
0.0
  0
LWPOLYLINE
  5
121
330
1E
100
AcDbEntity
  8
ADP1DETAIL
100
AcDbPolyline
 90
        3
 70
     0
 43
0.0
 10
0.4850000000000001
 20
-0.3800000000000001
 10
0.5
 20
-0.395
 10
0.5150000000000002
 20
-0.3800000000000001
  0
LINE
  5
126
330
1E
100
AcDbEntity
  8
ADP1DETAIL
100
AcDbLine
 10
0.5759999999999998
 20
-0.4800000000000001
 30
0.0
 11
0.424
 21
-0.4800000000000001
 31
0.0
  0
LINE
  5
127
330
1E
100
AcDbEntity
  8
ADP1DETAIL
100
AcDbLine
 10
0.3425
 20
-0.062
 30
0.0
 11
0.3425
 21
-0.38
 31
0.0
  0
LINE
  5
128
330
1E
100
AcDbEntity
  8
ADP1DETAIL
100
AcDbLine
 10
0.6575
 20
-0.38
 30
0.0
 11
0.6575
 21
-0.062
 31
0.0
  0
LINE
  5
129
330
1E
100
AcDbEntity
  8
ADP1DETAIL
100
AcDbLine
 10
0.7000000000000001
 20
-0.63
 30
0.0
 11
0.7000000000000001
 21
-0.4800000000000001
 31
0.0
  0
LINE
  5
12A
330
1E
100
AcDbEntity
  8
ADP1DETAIL
100
AcDbLine
 10
0.9999999999999998
 20
-0.9619999999999999
 30
0.0
 11
1.0
 21
-0.4800000000000006
 31
0.0
  0
LWPOLYLINE
  5
12B
330
1E
100
AcDbEntity
  8
ADP1DETAIL
100
AcDbPolyline
 90
        3
 70
     0
 43
0.0
 10
1.0
 20
-1.002
 10
1.02
 20
-0.982
 10
0.9999999999999998
 20
-0.9619999999999999
  0
LINE
  5
130
330
1E
100
AcDbEntity
  8
ADP1DETAIL
100
AcDbLine
 10
0.6689999999999998
 20
-1.06
 30
0.0
 11
0.9689999999999999
 21
-1.06
 31
0.0
  0
ARC
  5
131
330
1E
100
AcDbEntity
  8
ADP1DETAIL
100
AcDbCircle
 10
0.9689999999999999
 20
-1.029
 30
0.0
 40
0.031
100
AcDbArc
 50
270.0
 51
0.0
  0
LINE
  5
132
330
1E
100
AcDbEntity
  8
ADP1DETAIL
100
AcDbLine
 10
1.0
 20
-1.029
 30
0.0
 11
1.0
 21
-1.002
 31
0.0
  0
LINE
  5
133
330
1E
100
AcDbEntity
  8
ADP1DETAIL
100
AcDbLine
 10
0.8475972510057133
 20
0.0
 30
0.0
 11
0.7195000000000001
 21
0.0
 31
0.0
  0
ARC
  5
134
330
1E
100
AcDbEntity
  8
ADP1DETAIL
100
AcDbCircle
 10
0.8475972510057133
 20
-0.031
 30
0.0
 40
0.031
100
AcDbArc
 50
14.99999999999999
 51
90.00000000000003
  0
LINE
  5
135
330
1E
100
AcDbEntity
  8
ADP1DETAIL
100
AcDbLine
 10
0.9999999999999998
 20
-0.4800000000000001
 30
0.0
 11
0.8775409516206744
 21
-0.0229766096018219
 31
0.0
  0
LINE
  5
136
330
1E
100
AcDbEntity
  8
ADP1DETAIL
100
AcDbLine
 10
2.0
 20
0.0
 30
0.0
 11
2.0
 21
-1.06
 31
0.0
  0
LINE
  5
137
330
1E
100
AcDbEntity
  8
ADP1DETAIL
100
AcDbLine
 10
8.0
 20
-1.06
 30
0.0
 11
8.0
 21
0.0
 31
0.0
  0
TEXT
  5
13B
330
1E
100
AcDbEntity
  8
ADPDIM
100
AcDbText
 10
-0.9949639783567301
 20
-2.020330031235751
 30
0.0
 40
0.09375
  1
J U L I U S  B L U M  &  C O . ,  I N C .      ( 8 0 0 )  5 2 6 - 6 2 9 3        W W W . J U L I U S B L U M . C O M        P A R T  N o .  1 1 6 1
 41
1.25
  7
ARIAL_WIDE
 72
     1
 11
3.899332790060732
 21
-1.926580031235751
 31
0.0
100
AcDbText
 73
     3
  0
ENDSEC
  0
SECTION
  2
OBJECTS
  0
DICTIONARY
  5
C
330
0
100
AcDbDictionary
  3
ACAD_GROUP
350
D
  3
ACAD_LAYOUT
350
19
  3
ACAD_MLINESTYLE
350
16
  3
ACAD_PLOTSETTINGS
350
18
  3
ACAD_PLOTSTYLENAME
350
E
  3
ACDBHEADERROUNDTRIPXREC
350
308
  3
ACDBVARIABLEDICTIONARY
350
1AC
  0
DICTIONARY
  5
177
330
1E
100
AcDbDictionary
280
     1
  3
ACAD_LAYOUTSELFREF
360
32A
  0
DICTIONARY
  5
179
330
1A
100
AcDbDictionary
280
     1
  3
ACAD_LAYOUTSELFREF
360
329
  0
DICTIONARY
  5
D
102
{ACAD_REACTORS
330
C
102
}
330
C
100
AcDbDictionary
  0
DICTIONARY
  5
19
102
{ACAD_REACTORS
330
C
102
}
330
C
100
AcDbDictionary
  0
DICTIONARY
  5
16
102
{ACAD_REACTORS
330
C
102
}
330
C
100
AcDbDictionary
  3
STANDARD
350
17
  0
DICTIONARY
  5
18
102
{ACAD_REACTORS
330
C
102
}
330
C
100
AcDbDictionary
  0
ACDBDICTIONARYWDFLT
  5
E
102
{ACAD_REACTORS
330
C
102
}
330
C
100
AcDbDictionary
281
     1
  3
Normal
350
F
100
AcDbDictionaryWithDefault
340
F
  0
DICTIONARY
  5
308
102
{ACAD_REACTORS
330
C
102
}
330
C
100
AcDbDictionary
  3
CEPSNTYPE
350
312
  3
DIMSTYLEDATA
350
316
  3
FINGERPRINTGUID
350
313
  3
HYPERLINKBASE
350
30B
  3
INSUNITS
350
311
  3
LAYOUTDICT
350
30D
  3
LWETCUNION
350
310
  3
PLOTSETDICT
350
30E
  3
PLOTSTYLNAMDICT
350
30F
  3
PSVPSCALE
350
315
  3
PUCSBASE
350
319
  3
PUCSORGBACK
350
31F
  3
PUCSORGBOTTOM
350
31B
  3
PUCSORGFRONT
350
31E
  3
PUCSORGLEFT
350
31C
  3
PUCSORGRIGHT
350
31D
  3
PUCSORGTOP
350
31A
  3
PUCSORTHOREF
350
317
  3
PUCSORTHOVIEW
350
318
  3
STYLESHEET
350
30C
  3
TSTACKALIGN
350
309
  3
TSTACKSIZE
350
30A
  3
UCSBASE
350
322
  3
UCSORGBACK
350
328
  3
UCSORGBOTTOM
350
324
  3
UCSORGFRONT
350
327
  3
UCSORGLEFT
350
325
  3
UCSORGRIGHT
350
326
  3
UCSORGTOP
350
323
  3
UCSORTHOREF
350
320
  3
UCSORTHOVIEW
350
321
  3
VERSIONGUID
350
314
  0
DICTIONARY
  5
1AC
102
{ACAD_REACTORS
330
C
102
}
330
C
100
AcDbDictionary
  3
DIMASSOC
350
1AE
  3
HIDETEXT
350
1AD
  0
XRECORD
  5
32A
102
{ACAD_REACTORS
330
177
102
}
330
177
100
AcDbXrecord
340
1E
  0
XRECORD
  5
329
102
{ACAD_REACTORS
330
179
102
}
330
179
100
AcDbXrecord
340
1A
  0
MLINESTYLE
  5
17
102
{ACAD_REACTORS
330
16
102
}
330
16
100
AcDbMlineStyle
  2
STANDARD
 70
     0
  3

 62
   256
 51
90.0
 52
90.0
 71
     2
 49
0.5
 62
   256
  6
BYLAYER
 49
-0.5
 62
   256
  6
BYLAYER
  0
ACDBPLACEHOLDER
  5
F
102
{ACAD_REACTORS
330
E
102
}
330
E
100
AcDbPlaceHolder
280
     0
  0
XRECORD
  5
312
102
{ACAD_REACTORS
330
308
102
}
330
308
100
AcDbXrecord
 90
        0
  0
XRECORD
  5
316
102
{ACAD_REACTORS
330
308
102
}
330
308
100
AcDbXrecord
1000
DSTYLE
1002
{
1070
   277
 70
     5
1070
   279
 70
     2
1002
}
  0
XRECORD
  5
313
102
{ACAD_REACTORS
330
308
102
}
330
308
100
AcDbXrecord
  1
{8525061F-DDAC-43A9-9E81-2B4FE541E3A2}
  0
XRECORD
  5
30B
102
{ACAD_REACTORS
330
308
102
}
330
308
100
AcDbXrecord
  1

  0
XRECORD
  5
311
102
{ACAD_REACTORS
330
308
102
}
330
308
100
AcDbXrecord
 90
        0
  0
XRECORD
  5
30D
102
{ACAD_REACTORS
330
308
102
}
330
308
100
AcDbXrecord
340
19
  0
XRECORD
  5
310
102
{ACAD_REACTORS
330
308
102
}
330
308
100
AcDbXrecord
 90
    14877
  0
XRECORD
  5
30E
102
{ACAD_REACTORS
330
308
102
}
330
308
100
AcDbXrecord
340
18
  0
XRECORD
  5
30F
102
{ACAD_REACTORS
330
308
102
}
330
308
100
AcDbXrecord
340
E
  0
XRECORD
  5
315
102
{ACAD_REACTORS
330
308
102
}
330
308
100
AcDbXrecord
 40
0.0
  0
XRECORD
  5
319
102
{ACAD_REACTORS
330
308
102
}
330
308
100
AcDbXrecord
340
0
  0
XRECORD
  5
31F
102
{ACAD_REACTORS
330
308
102
}
330
308
100
AcDbXrecord
 10
0.0
 20
0.0
 30
0.0
  0
XRECORD
  5
31B
102
{ACAD_REACTORS
330
308
102
}
330
308
100
AcDbXrecord
 10
0.0
 20
0.0
 30
0.0
  0
XRECORD
  5
31E
102
{ACAD_REACTORS
330
308
102
}
330
308
100
AcDbXrecord
 10
0.0
 20
0.0
 30
0.0
  0
XRECORD
  5
31C
102
{ACAD_REACTORS
330
308
102
}
330
308
100
AcDbXrecord
 10
0.0
 20
0.0
 30
0.0
  0
XRECORD
  5
31D
102
{ACAD_REACTORS
330
308
102
}
330
308
100
AcDbXrecord
 10
0.0
 20
0.0
 30
0.0
  0
XRECORD
  5
31A
102
{ACAD_REACTORS
330
308
102
}
330
308
100
AcDbXrecord
 10
0.0
 20
0.0
 30
0.0
  0
XRECORD
  5
317
102
{ACAD_REACTORS
330
308
102
}
330
308
100
AcDbXrecord
340
0
  0
XRECORD
  5
318
102
{ACAD_REACTORS
330
308
102
}
330
308
100
AcDbXrecord
 70
     0
  0
XRECORD
  5
30C
102
{ACAD_REACTORS
330
308
102
}
330
308
100
AcDbXrecord
  1

  0
XRECORD
  5
309
102
{ACAD_REACTORS
330
308
102
}
330
308
100
AcDbXrecord
 90
        1
  0
XRECORD
  5
30A
102
{ACAD_REACTORS
330
308
102
}
330
308
100
AcDbXrecord
 90
       70
  0
XRECORD
  5
322
102
{ACAD_REACTORS
330
308
102
}
330
308
100
AcDbXrecord
340
0
  0
XRECORD
  5
328
102
{ACAD_REACTORS
330
308
102
}
330
308
100
AcDbXrecord
 10
0.0
 20
0.0
 30
0.0
  0
XRECORD
  5
324
102
{ACAD_REACTORS
330
308
102
}
330
308
100
AcDbXrecord
 10
0.0
 20
0.0
 30
0.0
  0
XRECORD
  5
327
102
{ACAD_REACTORS
330
308
102
}
330
308
100
AcDbXrecord
 10
0.0
 20
0.0
 30
0.0
  0
XRECORD
  5
325
102
{ACAD_REACTORS
330
308
102
}
330
308
100
AcDbXrecord
 10
0.0
 20
0.0
 30
0.0
  0
XRECORD
  5
326
102
{ACAD_REACTORS
330
308
102
}
330
308
100
AcDbXrecord
 10
0.0
 20
0.0
 30
0.0
  0
XRECORD
  5
323
102
{ACAD_REACTORS
330
308
102
}
330
308
100
AcDbXrecord
 10
0.0
 20
0.0
 30
0.0
  0
XRECORD
  5
320
102
{ACAD_REACTORS
330
308
102
}
330
308
100
AcDbXrecord
340
0
  0
XRECORD
  5
321
102
{ACAD_REACTORS
330
308
102
}
330
308
100
AcDbXrecord
 70
     0
  0
XRECORD
  5
314
102
{ACAD_REACTORS
330
308
102
}
330
308
100
AcDbXrecord
  1
{E007B158-7F65-410E-8647-3CD6DD967E6B}
  0
DICTIONARYVAR
  5
1AE
102
{ACAD_REACTORS
330
1AC
102
}
330
1AC
100
DictionaryVariables
280
     0
  1
2
  0
DICTIONARYVAR
  5
1AD
102
{ACAD_REACTORS
330
1AC
102
}
330
1AC
100
DictionaryVariables
280
     0
  1
1
  0
ENDSEC
  0
EOF
