  0
SECTION
  2
HEADER
  9
$ACADVER
  1
AC1014
  9
$ACADMAINTVER
 70
     9
  9
$DWGCODEPAGE
  3
ANSI_1252
  9
$INSBASE
 10
-4.086620958592313
 20
-5.172672051506737
 30
0.0
  9
$EXTMIN
 10
-17.13807900770554
 20
-12.04786008270606
 30
0.0
  9
$EXTMAX
 10
8.964837090520919
 20
1.077327948493264
 30
0.0
  9
$LIMMIN
 10
0.0
 20
0.0
  9
$LIMMAX
 10
36.0
 20
36.0
  9
$ORTHOMODE
 70
     1
  9
$REGENMODE
 70
     1
  9
$FILLMODE
 70
     1
  9
$QTEXTMODE
 70
     0
  9
$MIRRTEXT
 70
     1
  9
$DRAGMODE
 70
     0
  9
$LTSCALE
 40
1.0
  9
$OSMODE
 70
    37
  9
$ATTMODE
 70
     1
  9
$TEXTSIZE
 40
0.2
  9
$TRACEWID
 40
0.05
  9
$TEXTSTYLE
  7
STANDARD
  9
$CLAYER
  8
0
  9
$CELTYPE
  6
BYLAYER
  9
$CECOLOR
 62
   256
  9
$CELTSCALE
 40
1.0
  9
$DELOBJ
 70
     1
  9
$DISPSILH
 70
     0
  9
$DIMSCALE
 40
1.0
  9
$DIMASZ
 40
0.125
  9
$DIMEXO
 40
0.0625
  9
$DIMDLI
 40
0.38
  9
$DIMRND
 40
0.0
  9
$DIMDLE
 40
0.0
  9
$DIMEXE
 40
0.18
  9
$DIMTP
 40
0.0
  9
$DIMTM
 40
0.0
  9
$DIMTXT
 40
0.125
  9
$DIMCEN
 40
0.1875
  9
$DIMTSZ
 40
0.125
  9
$DIMTOL
 70
     0
  9
$DIMLIM
 70
     0
  9
$DIMTIH
 70
     0
  9
$DIMTOH
 70
     0
  9
$DIMSE1
 70
     0
  9
$DIMSE2
 70
     0
  9
$DIMTAD
 70
     0
  9
$DIMZIN
 70
     3
  9
$DIMBLK
  1

  9
$DIMASO
 70
     1
  9
$DIMSHO
 70
     1
  9
$DIMPOST
  1

  9
$DIMAPOST
  1

  9
$DIMALT
 70
     0
  9
$DIMALTD
 70
     1
  9
$DIMALTF
 40
25.4
  9
$DIMLFAC
 40
1.0
  9
$DIMTOFL
 70
     0
  9
$DIMTVP
 40
0.0
  9
$DIMTIX
 70
     0
  9
$DIMSOXD
 70
     0
  9
$DIMSAH
 70
     0
  9
$DIMBLK1
  1

  9
$DIMBLK2
  1

  9
$DIMSTYLE
  2
STANDARD
  9
$DIMCLRD
 70
     0
  9
$DIMCLRE
 70
     0
  9
$DIMCLRT
 70
     0
  9
$DIMTFAC
 40
1.0
  9
$DIMGAP
 40
0.125
  9
$DIMJUST
 70
     0
  9
$DIMSD1
 70
     0
  9
$DIMSD2
 70
     0
  9
$DIMTOLJ
 70
     1
  9
$DIMTZIN
 70
     3
  9
$DIMALTZ
 70
     3
  9
$DIMALTTZ
 70
     3
  9
$DIMFIT
 70
     5
  9
$DIMUPT
 70
     0
  9
$DIMUNIT
 70
     5
  9
$DIMDEC
 70
     4
  9
$DIMTDEC
 70
     4
  9
$DIMALTU
 70
     5
  9
$DIMALTTD
 70
     1
  9
$DIMTXSTY
  7
STANDARD
  9
$DIMAUNIT
 70
     0
  9
$LUNITS
 70
     5
  9
$LUPREC
 70
     4
  9
$SKETCHINC
 40
0.1
  9
$FILLETRAD
 40
0.187
  9
$AUNITS
 70
     0
  9
$AUPREC
 70
     0
  9
$MENU
  1
acad
  9
$ELEVATION
 40
0.0
  9
$PELEVATION
 40
0.0
  9
$THICKNESS
 40
0.0
  9
$LIMCHECK
 70
     0
  9
$BLIPMODE
 70
     0
  9
$CHAMFERA
 40
0.0
  9
$CHAMFERB
 40
0.0
  9
$CHAMFERC
 40
0.0
  9
$CHAMFERD
 40
0.0
  9
$SKPOLY
 70
     0
  9
$TDCREATE
 40
2450406.482302847
  9
$TDUPDATE
 40
2452297.079104085
  9
$TDINDWG
 40
0.0431155787
  9
$TDUSRTIMER
 40
0.0431155787
  9
$USRTIMER
 70
     1
  9
$ANGBASE
 50
0.0
  9
$ANGDIR
 70
     0
  9
$PDMODE
 70
     0
  9
$PDSIZE
 40
0.0
  9
$PLINEWID
 40
0.0
  9
$COORDS
 70
     2
  9
$SPLFRAME
 70
     0
  9
$SPLINETYPE
 70
     6
  9
$SPLINESEGS
 70
     8
  9
$ATTDIA
 70
     0
  9
$ATTREQ
 70
     1
  9
$HANDLING
 70
 22529
  9
$HANDSEED
  5
2FD
  9
$SURFTAB1
 70
     6
  9
$SURFTAB2
 70
     6
  9
$SURFTYPE
 70
     6
  9
$SURFU
 70
     6
  9
$SURFV
 70
     6
  9
$UCSNAME
  2

  9
$UCSORG
 10
0.0
 20
0.0
 30
0.0
  9
$UCSXDIR
 10
1.0
 20
0.0
 30
0.0
  9
$UCSYDIR
 10
0.0
 20
1.0
 30
0.0
  9
$PUCSNAME
  2

  9
$PUCSORG
 10
0.0
 20
0.0
 30
0.0
  9
$PUCSXDIR
 10
1.0
 20
0.0
 30
0.0
  9
$PUCSYDIR
 10
0.0
 20
1.0
 30
0.0
  9
$USERI1
 70
     0
  9
$USERI2
 70
     0
  9
$USERI3
 70
     0
  9
$USERI4
 70
     0
  9
$USERI5
 70
     0
  9
$USERR1
 40
0.0
  9
$USERR2
 40
0.0
  9
$USERR3
 40
0.0
  9
$USERR4
 40
0.0
  9
$USERR5
 40
0.0
  9
$WORLDVIEW
 70
     1
  9
$SHADEDGE
 70
     3
  9
$SHADEDIF
 70
    70
  9
$TILEMODE
 70
     1
  9
$MAXACTVP
 70
    15
  9
$PINSBASE
 10
0.0008545024320483
 20
1.750284242913068
 30
0.0
  9
$PLIMCHECK
 70
     0
  9
$PEXTMIN
 10
1.000000000000000E+20
 20
1.000000000000000E+20
 30
1.000000000000000E+20
  9
$PEXTMAX
 10
-1.000000000000000E+20
 20
-1.000000000000000E+20
 30
-1.000000000000000E+20
  9
$PLIMMIN
 10
0.0
 20
0.0
  9
$PLIMMAX
 10
12.0
 20
9.0
  9
$UNITMODE
 70
     0
  9
$VISRETAIN
 70
     0
  9
$PLINEGEN
 70
     0
  9
$PSLTSCALE
 70
     1
  9
$TREEDEPTH
 70
  3020
  9
$PICKSTYLE
 70
     1
  9
$CMLSTYLE
  2
STANDARD
  9
$CMLJUST
 70
     0
  9
$CMLSCALE
 40
1.0
  9
$PROXYGRAPHICS
 70
     1
  9
$MEASUREMENT
 70
     0
  0
ENDSEC
  0
SECTION
  2
CLASSES
  0
CLASS
  1
ACDBDICTIONARYWDFLT
  2
AcDbDictionaryWithDefault
  3
AutoCAD 2000
 90
        0
280
     0
281
     0
  0
CLASS
  1
ACDBPLACEHOLDER
  2
AcDbPlaceHolder
  3
AutoCAD 2000
 90
        0
280
     0
281
     0
  0
CLASS
  1
LAYOUT
  2
AcDbLayout
  3
AutoCAD 2000
 90
        0
280
     0
281
     0
  0
CLASS
  1
DICTIONARYVAR
  2
AcDbDictionaryVar
  3
AutoCAD 2000
 90
        0
280
     0
281
     0
  0
CLASS
  1
LONG_TRANSACTION
  2
AcDbLongTransaction
  3
AutoCAD 2000
 90
        0
280
     0
281
     0
  0
CLASS
  1
LWPOLYLINE
  2
AcDbPolyline
  3
AutoCAD 2000
 90
        0
280
     0
281
     1
  0
CLASS
  1
HATCH
  2
AcDbHatch
  3
AutoCAD 2000
 90
        0
280
     0
281
     1
  0
CLASS
  1
XRECORD
  2
AcDbXrecord
  3
AutoCAD 2000
 90
        0
280
     0
281
     0
  0
CLASS
  1
LONG_TRANSACTION
  2
AcDbLongTransaction
  3
AutoCAD 2000
 90
        0
280
     0
281
     0
  0
CLASS
  1
LWPOLYLINE
  2
AcDbPolyline
  3
AutoCAD 2000
 90
        0
280
     0
281
     1
  0
CLASS
  1
HATCH
  2
AcDbHatch
  3
AutoCAD 2000
 90
        0
280
     0
281
     1
  0
CLASS
  1
XRECORD
  2
AcDbXrecord
  3
AutoCAD 2000
 90
        0
280
     0
281
     0
  0
CLASS
  1
LONG_TRANSACTION
  2
AcDbLongTransaction
  3
AutoCAD 2000
 90
        0
280
     0
281
     0
  0
CLASS
  1
LWPOLYLINE
  2
AcDbPolyline
  3
AutoCAD 2000
 90
        0
280
     0
281
     1
  0
CLASS
  1
HATCH
  2
AcDbHatch
  3
AutoCAD 2000
 90
        0
280
     0
281
     1
  0
CLASS
  1
XRECORD
  2
AcDbXrecord
  3
AutoCAD 2000
 90
        0
280
     0
281
     0
  0
CLASS
  1
LONG_TRANSACTION
  2
AcDbLongTransaction
  3
AutoCAD 2000
 90
        0
280
     0
281
     0
  0
CLASS
  1
LWPOLYLINE
  2
AcDbPolyline
  3
AutoCAD 2000
 90
        0
280
     0
281
     1
  0
CLASS
  1
HATCH
  2
AcDbHatch
  3
AutoCAD 2000
 90
        0
280
     0
281
     1
  0
CLASS
  1
XRECORD
  2
AcDbXrecord
  3
AutoCAD 2000
 90
        0
280
     0
281
     0
  0
CLASS
  1
LONG_TRANSACTION
  2
AcDbLongTransaction
  3
AutoCAD 2000
 90
        0
280
     0
281
     0
  0
CLASS
  1
LWPOLYLINE
  2
AcDbPolyline
  3
AutoCAD 2000
 90
        0
280
     0
281
     1
  0
CLASS
  1
HATCH
  2
AcDbHatch
  3
AutoCAD 2000
 90
        0
280
     0
281
     1
  0
CLASS
  1
XRECORD
  2
AcDbXrecord
  3
AutoCAD 2000
 90
        0
280
     0
281
     0
  0
CLASS
  1
LONG_TRANSACTION
  2
AcDbLongTransaction
  3
AutoCAD 2000
 90
        0
280
     0
281
     0
  0
CLASS
  1
LWPOLYLINE
  2
AcDbPolyline
  3
AutoCAD 2000
 90
        0
280
     0
281
     1
  0
CLASS
  1
HATCH
  2
AcDbHatch
  3
AutoCAD 2000
 90
        0
280
     0
281
     1
  0
CLASS
  1
XRECORD
  2
AcDbXrecord
  3
AutoCAD 2000
 90
        0
280
     0
281
     0
  0
ENDSEC
  0
SECTION
  2
TABLES
  0
TABLE
  2
VPORT
  5
8
330
0
100
AcDbSymbolTable
 70
     2
  0
VPORT
  5
2D9
330
8
100
AcDbSymbolTableRecord
100
AcDbViewportTableRecord
  2
*ACTIVE
 70
     0
 10
0.0
 20
0.0
 11
1.0
 21
1.0
 12
-4.06557709732691
 22
-5.486113497592548
 13
0.0
 23
0.0
 14
0.5740882589684922
 24
0.5740882589684922
 15
0.5
 25
0.5
 16
0.0
 26
0.0
 36
1.0
 17
0.0
 27
0.0
 37
0.0
 40
16.72793243811409
 41
1.570528967254408
 42
50.0
 43
0.0
 44
0.0
 50
0.0
 51
0.0
 71
     0
 72
   100
 73
     1
 74
     0
 75
     0
 76
     0
 77
     0
 78
     0
  0
ENDTAB
  0
TABLE
  2
LTYPE
  5
5
330
0
100
AcDbSymbolTable
 70
     2
  0
LTYPE
  5
13
330
5
100
AcDbSymbolTableRecord
100
AcDbLinetypeTableRecord
  2
BYBLOCK
 70
     0
  3

 72
    65
 73
     0
 40
0.0
  0
LTYPE
  5
14
330
5
100
AcDbSymbolTableRecord
100
AcDbLinetypeTableRecord
  2
BYLAYER
 70
     0
  3

 72
    65
 73
     0
 40
0.0
  0
LTYPE
  5
15
330
5
100
AcDbSymbolTableRecord
100
AcDbLinetypeTableRecord
  2
CONTINUOUS
 70
     0
  3
Solid line
 72
    65
 73
     0
 40
0.0
  0
LTYPE
  5
96
330
5
100
AcDbSymbolTableRecord
100
AcDbLinetypeTableRecord
  2
HIDDEN2
 70
     0
  3
_ _ _ _ _ _ _ _ _ _ _ _ _ _ _ _ _ _ _ _ _ _ _ _
 72
    65
 73
     2
 40
0.1875
 49
0.125
 74
     0
 49
-0.0625
 74
     0
  0
ENDTAB
  0
TABLE
  2
LAYER
  5
2
330
0
100
AcDbSymbolTable
 70
     5
  0
LAYER
  5
10
330
2
100
AcDbSymbolTableRecord
100
AcDbLayerTableRecord
  2
0
 70
     0
 62
     7
  6
CONTINUOUS
  0
LAYER
  5
9A
330
2
100
AcDbSymbolTableRecord
100
AcDbLayerTableRecord
  2
ADP1DETAIL
 70
     0
 62
     7
  6
CONTINUOUS
  0
LAYER
  5
9C
330
2
100
AcDbSymbolTableRecord
100
AcDbLayerTableRecord
  2
DEFPOINTS
 70
     0
 62
     7
  6
CONTINUOUS
  0
LAYER
  5
9D
330
2
100
AcDbSymbolTableRecord
100
AcDbLayerTableRecord
  2
ADPDIM
 70
     0
 62
     3
  6
CONTINUOUS
  0
LAYER
  5
9F
330
2
100
AcDbSymbolTableRecord
100
AcDbLayerTableRecord
  2
ADP2DETAIL
 70
     0
 62
     5
  6
CONTINUOUS
  0
ENDTAB
  0
TABLE
  2
STYLE
  5
3
330
0
100
AcDbSymbolTable
 70
     2
  0
STYLE
  5
11
330
3
100
AcDbSymbolTableRecord
100
AcDbTextStyleTableRecord
  2
STANDARD
 70
     0
 40
0.0
 41
1.0
 50
0.0
 71
     0
 42
0.2
  3
txt
  4

  0
STYLE
  5
10C
330
3
100
AcDbSymbolTableRecord
100
AcDbTextStyleTableRecord
  2
ARIAL_WIDE
 70
     0
 40
0.0
 41
1.25
 50
0.0
 71
     0
 42
0.2
  3
ARIAL.TTF
  4

1001
ACAD
1000
Arial
1071
       34
  0
ENDTAB
  0
TABLE
  2
VIEW
  5
6
330
0
100
AcDbSymbolTable
 70
     0
  0
ENDTAB
  0
TABLE
  2
UCS
  5
7
330
0
100
AcDbSymbolTable
 70
     0
  0
ENDTAB
  0
TABLE
  2
APPID
  5
9
330
0
100
AcDbSymbolTable
 70
     1
  0
APPID
  5
12
330
9
100
AcDbSymbolTableRecord
100
AcDbRegAppTableRecord
  2
ACAD
 70
     0
  0
ENDTAB
  0
TABLE
  2
DIMSTYLE
  5
A
330
0
100
AcDbSymbolTable
 70
     1
  0
DIMSTYLE
105
10A
330
A
100
AcDbSymbolTableRecord
100
AcDbDimStyleTableRecord
  2
STANDARD
 70
     0
  3

  4

  5

  6

  7

 40
1.0
 41
0.18
 42
0.0625
 43
0.38
 44
0.18
 45
0.0
 46
0.0
 47
0.0
 48
0.0
140
0.18
141
0.09
142
0.0
143
25.4
144
1.0
145
0.0
146
1.0
147
0.09
 71
     0
 72
     0
 73
     1
 74
     1
 75
     0
 76
     0
 77
     0
 78
     0
170
     0
171
     2
172
     0
173
     0
174
     0
175
     0
176
     0
177
     0
178
     0
270
     2
271
     4
272
     4
273
     2
274
     2
340
11
275
     0
280
     0
281
     0
282
     0
283
     1
284
     0
285
     0
286
     0
287
     3
288
     0
  0
ENDTAB
  0
TABLE
  2
BLOCK_RECORD
  5
1
330
0
100
AcDbSymbolTable
 70
     6
  0
BLOCK_RECORD
  5
1E
102
{ACAD_XDICTIONARY
360
149
102
}
330
1
100
AcDbSymbolTableRecord
100
AcDbBlockTableRecord
  2
*MODEL_SPACE
  0
BLOCK_RECORD
  5
1A
102
{ACAD_XDICTIONARY
360
14B
102
}
330
1
100
AcDbSymbolTableRecord
100
AcDbBlockTableRecord
  2
*PAPER_SPACE
  0
BLOCK_RECORD
  5
35
330
1
100
AcDbSymbolTableRecord
100
AcDbBlockTableRecord
  2
1135
  0
BLOCK_RECORD
  5
7E
330
1
100
AcDbSymbolTableRecord
100
AcDbBlockTableRecord
  2
*D1
  0
BLOCK_RECORD
  5
7F
330
1
100
AcDbSymbolTableRecord
100
AcDbBlockTableRecord
  2
*D2
  0
BLOCK_RECORD
  5
80
330
1
100
AcDbSymbolTableRecord
100
AcDbBlockTableRecord
  2
*D3
  0
BLOCK_RECORD
  5
81
330
1
100
AcDbSymbolTableRecord
100
AcDbBlockTableRecord
  2
*D4
  0
BLOCK_RECORD
  5
82
330
1
100
AcDbSymbolTableRecord
100
AcDbBlockTableRecord
  2
*D5
  0
ENDTAB
  0
ENDSEC
  0
SECTION
  2
BLOCKS
  0
BLOCK
  5
A2
330
1E
100
AcDbEntity
  8
0
100
AcDbBlockBegin
  2
*MODEL_SPACE
 70
     0
 10
0.0
 20
0.0
 30
0.0
  3
*MODEL_SPACE
  1

  0
ENDBLK
  5
A3
330
1E
100
AcDbEntity
  8
0
100
AcDbBlockEnd
  0
BLOCK
  5
A0
330
1A
100
AcDbEntity
 67
     1
  8
0
100
AcDbBlockBegin
  2
*PAPER_SPACE
 70
     0
 10
0.0
 20
0.0
 30
0.0
  3
*PAPER_SPACE
  1

  0
ENDBLK
  5
A1
330
1A
100
AcDbEntity
 67
     1
  8
0
100
AcDbBlockEnd
  0
BLOCK
  5
A5
330
35
100
AcDbEntity
  8
0
100
AcDbBlockBegin
  2
1135
 70
     0
 10
0.0
 20
0.0
 30
0.0
  3
1135
  1

  0
ARC
  5
A6
330
35
100
AcDbEntity
  8
0
100
AcDbCircle
 10
1.732920301949732
 20
0.0885968216431401
 30
0.0
 40
1.750530642760783
100
AcDbArc
 50
282.9381871427067
 51
256.9630509343482
  0
LINE
  5
A7
330
35
100
AcDbEntity
  8
0
100
AcDbLine
 10
1.371462772477762
 20
-0.3805612226151052
 30
0.0
 11
1.731462772477762
 21
-0.3805612226151069
 31
0.0
  0
LINE
  5
A8
330
35
100
AcDbEntity
  8
0
100
AcDbLine
 10
1.356462772477762
 20
-0.2555612226151069
 30
0.0
 11
1.84046277247776
 21
-0.2555612226151069
 31
0.0
  0
ARC
  5
A9
330
35
100
AcDbEntity
  8
0
100
AcDbCircle
 10
1.73439105877545
 20
0.0891268465552617
 30
0.0
 40
1.625
100
AcDbArc
 50
288.2990246214855
 51
251.4819946434075
  0
LINE
  5
AA
330
35
100
AcDbEntity
  8
0
100
AcDbLine
 10
1.356462772477762
 20
-1.349561222615108
 30
0.0
 11
1.356462772477762
 21
-0.3955612226151057
 31
0.0
  0
LINE
  5
AB
330
35
100
AcDbEntity
  8
0
100
AcDbLine
 10
1.231462772477762
 20
-1.442254743093675
 30
0.0
 11
1.231462772477762
 21
-0.3805612226151069
 31
0.0
  0
ARC
  5
AC
330
35
100
AcDbEntity
  8
0
100
AcDbCircle
 10
1.221462772477764
 20
-1.442254743093675
 30
0.0
 40
0.01
100
AcDbArc
 50
251.4819946434089
 51
0.0
  0
LINE
  5
AD
330
35
100
AcDbEntity
  8
0
100
AcDbLine
 10
1.325462772477763
 20
-1.380561222615106
 30
0.0
 11
1.356462772477762
 21
-1.411561222615107
 31
0.0
  0
LINE
  5
AE
330
35
100
AcDbEntity
  8
0
100
AcDbLine
 10
1.356462772477762
 20
-1.602210037647424
 30
0.0
 11
1.356462772477762
 21
-1.411561222615107
 31
0.0
  0
LINE
  5
AF
330
35
100
AcDbEntity
  8
0
100
AcDbLine
 10
1.356462772477762
 20
-1.349561222615108
 30
0.0
 11
1.325462772477763
 21
-1.380561222615106
 31
0.0
  0
ARC
  5
B0
330
35
100
AcDbEntity
  8
0
100
AcDbCircle
 10
1.341462772477761
 20
-1.602210037647424
 30
0.0
 40
0.015
100
AcDbArc
 50
256.7968881344715
 51
0.0
  0
ARC
  5
B1
330
35
100
AcDbEntity
  8
0
100
AcDbCircle
 10
1.356462772477762
 20
-0.3805612226151069
 30
0.0
 40
0.125
100
AcDbArc
 50
90.0
 51
180.0
  0
ARC
  5
B2
330
35
100
AcDbEntity
  8
0
100
AcDbCircle
 10
1.371462772477762
 20
-0.3955612226151057
 30
0.0
 40
0.015
100
AcDbArc
 50
90.0
 51
180.0
  0
LINE
  5
B3
330
35
100
AcDbEntity
  8
0
100
AcDbLine
 10
2.106462772477762
 20
-0.3955612226151075
 30
0.0
 11
2.106462772477762
 21
-1.349561222615108
 31
0.0
  0
LINE
  5
B4
330
35
100
AcDbEntity
  8
0
100
AcDbLine
 10
2.231462772477762
 20
-0.3805612226151087
 30
0.0
 11
2.231462772477762
 21
-1.444203932227644
 31
0.0
  0
LINE
  5
B5
330
35
100
AcDbEntity
  8
0
100
AcDbLine
 10
2.137462772477761
 20
-1.380561222615106
 30
0.0
 11
2.106462772477762
 21
-1.411561222615107
 31
0.0
  0
LINE
  5
B6
330
35
100
AcDbEntity
  8
0
100
AcDbLine
 10
2.106462772477762
 20
-1.349561222615108
 30
0.0
 11
2.137462772477761
 21
-1.380561222615106
 31
0.0
  0
LINE
  5
B7
330
35
100
AcDbEntity
  8
0
100
AcDbLine
 10
2.106462772477762
 20
-1.411561222615107
 30
0.0
 11
2.106462772477762
 21
-1.602882288898962
 31
0.0
  0
ARC
  5
B8
330
35
100
AcDbEntity
  8
0
100
AcDbCircle
 10
2.121462772477762
 20
-1.602882288898962
 30
0.0
 40
0.015
100
AcDbArc
 50
180.0
 51
283.1043499425814
  0
ARC
  5
B9
330
35
100
AcDbEntity
  8
0
100
AcDbCircle
 10
2.24146277247776
 20
-1.444203932227644
 30
0.0
 40
0.01
100
AcDbArc
 50
180.0
 51
288.2990246214822
  0
LINE
  5
BA
330
35
100
AcDbEntity
  8
0
100
AcDbLine
 10
1.731462772477762
 20
-0.3805612226151069
 30
0.0
 11
2.091462772477761
 21
-0.3805612226151069
 31
0.0
  0
LINE
  5
BB
330
35
100
AcDbEntity
  8
0
100
AcDbLine
 10
1.84046277247776
 20
-0.2555612226151069
 30
0.0
 11
2.106462772477762
 21
-0.2555612226151087
 31
0.0
  0
ARC
  5
BC
330
35
100
AcDbEntity
  8
0
100
AcDbCircle
 10
2.106462772477762
 20
-0.3805612226151087
 30
0.0
 40
0.125
100
AcDbArc
 50
0.0
 51
90.0
  0
ARC
  5
BD
330
35
100
AcDbEntity
  8
0
100
AcDbCircle
 10
2.091462772477761
 20
-0.3955612226151075
 30
0.0
 40
0.015
100
AcDbArc
 50
0.0
 51
90.0
  0
ENDBLK
  5
BE
330
35
100
AcDbEntity
  8
0
100
AcDbBlockEnd
  0
BLOCK
  5
BF
330
7E
100
AcDbEntity
  8
0
100
AcDbBlockBegin
  2
*D1
 70
     1
 10
0.0
 20
0.0
 30
0.0
  3
*D1
  1

  0
LINE
  5
C0
330
7E
100
AcDbEntity
  8
0
  6
BYBLOCK
 62
     0
100
AcDbLine
 10
-5.836620958592313
 20
-5.235172051506737
 30
0.0
 11
-5.836620958592313
 21
-5.991604437452222
 31
0.0
  0
LINE
  5
C1
330
7E
100
AcDbEntity
  8
0
  6
BYBLOCK
 62
     0
100
AcDbLine
 10
-1.336620958592313
 20
-2.485172051506737
 30
0.0
 11
-1.336620958592313
 21
-5.991604437452222
 31
0.0
  0
LINE
  5
C2
330
7E
100
AcDbEntity
  8
0
  6
BYBLOCK
 62
     0
100
AcDbLine
 10
-5.836620958592313
 20
-5.811604437452222
 30
0.0
 11
-3.982454291925647
 21
-5.811604437452222
 31
0.0
  0
LINE
  5
C3
330
7E
100
AcDbEntity
  8
0
  6
BYBLOCK
 62
     0
100
AcDbLine
 10
-1.336620958592313
 20
-5.811604437452222
 30
0.0
 11
-3.19078762525898
 21
-5.811604437452222
 31
0.0
  0
LINE
  5
C4
330
7E
100
AcDbEntity
  8
0
  6
BYBLOCK
 62
     0
100
AcDbLine
 10
-5.961620958592313
 20
-5.936604437452222
 30
0.0
 11
-5.711620958592313
 21
-5.686604437452222
 31
0.0
  0
LINE
  5
C5
330
7E
100
AcDbEntity
  8
0
  6
BYBLOCK
 62
     0
100
AcDbLine
 10
-1.461620958592313
 20
-5.936604437452222
 30
0.0
 11
-1.211620958592313
 21
-5.686604437452222
 31
0.0
  0
TEXT
  5
C6
330
7E
100
AcDbEntity
  8
0
  6
BYBLOCK
 62
     0
100
AcDbText
 10
-3.857454291925647
 20
-5.874104437452222
 30
0.0
 40
0.125
  1
4 1/2
 72
     1
 11
-3.586620958592313
 21
-5.811604437452222
 31
0.0
100
AcDbText
 73
     2
  0
POINT
  5
C8
330
7E
100
AcDbEntity
  8
DEFPOINTS
  6
BYBLOCK
 62
     0
100
AcDbPoint
 10
-5.836620958592313
 20
-5.172672051506737
 30
0.0
  0
POINT
  5
C9
330
7E
100
AcDbEntity
  8
DEFPOINTS
  6
BYBLOCK
 62
     0
100
AcDbPoint
 10
-1.336620958592313
 20
-2.422672051506737
 30
0.0
  0
POINT
  5
CA
330
7E
100
AcDbEntity
  8
DEFPOINTS
  6
BYBLOCK
 62
     0
100
AcDbPoint
 10
-1.336620958592313
 20
-5.811604437452222
 30
0.0
  0
ENDBLK
  5
CB
330
7E
100
AcDbEntity
  8
0
100
AcDbBlockEnd
  0
BLOCK
  5
CC
330
7F
100
AcDbEntity
  8
0
100
AcDbBlockBegin
  2
*D2
 70
     1
 10
0.0
 20
0.0
 30
0.0
  3
*D2
  1

  0
LINE
  5
CD
330
7F
100
AcDbEntity
  8
0
  6
BYBLOCK
 62
     0
100
AcDbLine
 10
-6.224623466297088
 20
-10.44822051148682
 30
0.0
 11
-6.224623466297088
 21
-10.95471368133883
 31
0.0
  0
LINE
  5
CE
330
7F
100
AcDbEntity
  8
0
  6
BYBLOCK
 62
     0
100
AcDbLine
 10
-5.474623466297089
 20
-10.44822051148682
 30
0.0
 11
-5.474623466297089
 21
-10.95471368133883
 31
0.0
  0
LINE
  5
CF
330
7F
100
AcDbEntity
  8
0
  6
BYBLOCK
 62
     0
100
AcDbLine
 10
-6.224623466297088
 20
-10.77471368133883
 30
0.0
 11
-6.474623466297088
 21
-10.77471368133883
 31
0.0
  0
LINE
  5
D0
330
7F
100
AcDbEntity
  8
0
  6
BYBLOCK
 62
     0
100
AcDbLine
 10
-5.474623466297089
 20
-10.77471368133883
 30
0.0
 11
-5.224623466297089
 21
-10.77471368133883
 31
0.0
  0
LINE
  5
D1
330
7F
100
AcDbEntity
  8
0
  6
BYBLOCK
 62
     0
100
AcDbLine
 10
-6.349623466297088
 20
-10.89971368133883
 30
0.0
 11
-6.099623466297088
 21
-10.64971368133883
 31
0.0
  0
LINE
  5
D2
330
7F
100
AcDbEntity
  8
0
  6
BYBLOCK
 62
     0
100
AcDbLine
 10
-5.599623466297089
 20
-10.89971368133883
 30
0.0
 11
-5.349623466297089
 21
-10.64971368133883
 31
0.0
  0
TEXT
  5
D3
330
7F
100
AcDbEntity
  8
0
  6
BYBLOCK
 62
     0
100
AcDbText
 10
-5.099623466297089
 20
-10.83721368133883
 30
0.0
 40
0.125
  1
3/4
 72
     1
 11
-4.932956799630422
 21
-10.77471368133883
 31
0.0
100
AcDbText
 73
     2
  0
POINT
  5
D4
330
7F
100
AcDbEntity
  8
DEFPOINTS
  6
BYBLOCK
 62
     0
100
AcDbPoint
 10
-6.224623466297088
 20
-10.38572051148682
 30
0.0
  0
POINT
  5
D5
330
7F
100
AcDbEntity
  8
DEFPOINTS
  6
BYBLOCK
 62
     0
100
AcDbPoint
 10
-5.474623466297089
 20
-10.38572051148682
 30
0.0
  0
POINT
  5
D6
330
7F
100
AcDbEntity
  8
DEFPOINTS
  6
BYBLOCK
 62
     0
100
AcDbPoint
 10
-5.474623466297089
 20
-10.77471368133883
 30
0.0
  0
ENDBLK
  5
D7
330
7F
100
AcDbEntity
  8
0
100
AcDbBlockEnd
  0
BLOCK
  5
D8
330
80
100
AcDbEntity
  8
0
100
AcDbBlockBegin
  2
*D3
 70
     1
 10
0.0
 20
0.0
 30
0.0
  3
*D3
  1

  0
LINE
  5
D9
330
80
100
AcDbEntity
  8
0
  6
BYBLOCK
 62
     0
100
AcDbLine
 10
-4.54194759012295
 20
-9.81195030648459
 30
0.0
 11
-4.355188657474039
 21
-9.978146278384752
 31
0.0
  0
LINE
  5
DA
330
80
100
AcDbEntity
  8
0
  6
BYBLOCK
 62
     0
100
AcDbLine
 10
-4.718425042397488
 20
-9.822231786858965
 30
0.0
 11
-4.365470137848414
 21
-9.801668826110216
 31
0.0
  0
LINE
  5
DB
330
80
100
AcDbEntity
  8
0
  6
BYBLOCK
 62
     0
100
AcDbLine
 10
-6.03676011866533
 20
-8.648578503183456
 30
0.0
 11
-5.66176011866533
 21
-8.648578503183456
 31
0.0
  0
LINE
  5
DC
330
80
100
AcDbEntity
  8
0
  6
BYBLOCK
 62
     0
100
AcDbLine
 10
-5.84926011866533
 20
-8.836078503183456
 30
0.0
 11
-5.84926011866533
 21
-8.461078503183456
 31
0.0
  0
TEXT
  5
DD
330
80
100
AcDbEntity
  8
0
  6
BYBLOCK
 62
     0
100
AcDbText
 10
-4.303358184124624
 20
-10.10793399749706
 30
0.0
 40
0.125
  1
%%c3 1/2
 50
318.3342520236672
 72
     1
 11
-4.012797280951035
 21
-10.28283889353505
 31
0.0
100
AcDbText
 73
     2
  0
POINT
  5
DE
330
80
100
AcDbEntity
  8
DEFPOINTS
  6
BYBLOCK
 62
     0
100
AcDbPoint
 10
-4.54194759012295
 20
-9.81195030648459
 30
0.0
  0
POINT
  5
DF
330
80
100
AcDbEntity
  8
DEFPOINTS
  6
BYBLOCK
 62
     0
100
AcDbPoint
 10
-7.156572647207709
 20
-7.485206699882321
 30
0.0
  0
ENDBLK
  5
E0
330
80
100
AcDbEntity
  8
0
100
AcDbBlockEnd
  0
BLOCK
  5
E1
330
81
100
AcDbEntity
  8
0
100
AcDbBlockBegin
  2
*D4
 70
     1
 10
0.0
 20
0.0
 30
0.0
  3
*D4
  1

  0
LINE
  5
E2
330
81
100
AcDbEntity
  8
0
  6
BYBLOCK
 62
     0
100
AcDbLine
 10
-6.287123466297088
 20
-10.38572051148682
 30
0.0
 11
-8.025737649813628
 21
-10.38572051148682
 31
0.0
  0
LINE
  5
E3
330
81
100
AcDbEntity
  8
0
  6
BYBLOCK
 62
     0
100
AcDbLine
 10
-6.287123466297088
 20
-9.13572051148682
 30
0.0
 11
-8.025737649813628
 21
-9.13572051148682
 31
0.0
  0
LINE
  5
E4
330
81
100
AcDbEntity
  8
0
  6
BYBLOCK
 62
     0
100
AcDbLine
 10
-7.845737649813629
 20
-10.38572051148682
 30
0.0
 11
-7.845737649813629
 21
-10.13572051148682
 31
0.0
  0
LINE
  5
E5
330
81
100
AcDbEntity
  8
0
  6
BYBLOCK
 62
     0
100
AcDbLine
 10
-7.845737649813629
 20
-9.13572051148682
 30
0.0
 11
-7.845737649813629
 21
-9.38572051148682
 31
0.0
  0
LINE
  5
E6
330
81
100
AcDbEntity
  8
0
  6
BYBLOCK
 62
     0
100
AcDbLine
 10
-7.720737649813629
 20
-10.51072051148681
 30
0.0
 11
-7.970737649813629
 21
-10.26072051148682
 31
0.0
  0
LINE
  5
E7
330
81
100
AcDbEntity
  8
0
  6
BYBLOCK
 62
     0
100
AcDbLine
 10
-7.720737649813629
 20
-9.26072051148682
 30
0.0
 11
-7.970737649813629
 21
-9.01072051148682
 31
0.0
  0
TEXT
  5
E8
330
81
100
AcDbEntity
  8
0
  6
BYBLOCK
 62
     0
100
AcDbText
 10
-7.783237649813629
 20
-10.01072051148682
 30
0.0
 40
0.125
  1
1 1/4
 50
90.0
 72
     1
 11
-7.845737649813629
 21
-9.76072051148682
 31
0.0
100
AcDbText
 73
     2
  0
POINT
  5
E9
330
81
100
AcDbEntity
  8
DEFPOINTS
  6
BYBLOCK
 62
     0
100
AcDbPoint
 10
-6.224623466297088
 20
-10.38572051148682
 30
0.0
  0
POINT
  5
EA
330
81
100
AcDbEntity
  8
DEFPOINTS
  6
BYBLOCK
 62
     0
100
AcDbPoint
 10
-6.224623466297088
 20
-9.13572051148682
 30
0.0
  0
POINT
  5
EB
330
81
100
AcDbEntity
  8
DEFPOINTS
  6
BYBLOCK
 62
     0
100
AcDbPoint
 10
-7.845737649813629
 20
-9.13572051148682
 30
0.0
  0
ENDBLK
  5
EC
330
81
100
AcDbEntity
  8
0
100
AcDbBlockEnd
  0
BLOCK
  5
ED
330
82
100
AcDbEntity
  8
0
100
AcDbBlockBegin
  2
*D5
 70
     1
 10
0.0
 20
0.0
 30
0.0
  3
*D5
  1

  0
LINE
  5
EE
330
82
100
AcDbEntity
  8
0
  6
BYBLOCK
 62
     0
100
AcDbLine
 10
-4.615674595144519
 20
-7.615912538910034
 30
0.0
 11
-4.518824243532506
 21
-7.712762890522048
 31
0.0
  0
LINE
  5
EF
330
82
100
AcDbEntity
  8
0
  6
BYBLOCK
 62
     0
100
AcDbLine
 10
-4.527286247496199
 20
-7.527524191261717
 30
0.0
 11
-4.430435895884187
 21
-7.624374542873731
 31
0.0
  0
LINE
  5
F0
330
82
100
AcDbEntity
  8
0
  6
BYBLOCK
 62
     0
100
AcDbLine
 10
-4.646103464146084
 20
-7.585483669908469
 30
0.0
 11
-4.822880159442722
 21
-7.762260365205103
 31
0.0
  0
LINE
  5
F1
330
82
100
AcDbEntity
  8
0
  6
BYBLOCK
 62
     0
100
AcDbLine
 10
-4.557715116497765
 20
-7.497095322260151
 30
0.0
 11
-4.380938421201125
 21
-7.320318626963516
 31
0.0
  0
LINE
  5
F2
330
82
100
AcDbEntity
  8
0
  6
BYBLOCK
 62
     0
100
AcDbLine
 10
-4.646103464146086
 20
-7.762260365205105
 30
0.0
 11
-4.646103464146082
 21
-7.408706974611832
 31
0.0
  0
LINE
  5
F3
330
82
100
AcDbEntity
  8
0
  6
BYBLOCK
 62
     0
100
AcDbLine
 10
-4.557715116497766
 20
-7.673872017556788
 30
0.0
 11
-4.557715116497763
 21
-7.320318626963514
 31
0.0
  0
TEXT
  5
F4
330
82
100
AcDbEntity
  8
0
  6
BYBLOCK
 62
     0
100
AcDbText
 10
-4.248355899728648
 20
-7.276124453139357
 30
0.0
 40
0.125
  1
1/8
 50
44.99999999999942
 72
     1
 11
-4.189430334629767
 21
-7.12881054039216
 31
0.0
100
AcDbText
 73
     2
  0
POINT
  5
F5
330
82
100
AcDbEntity
  8
DEFPOINTS
  6
BYBLOCK
 62
     0
100
AcDbPoint
 10
-4.659868768968678
 20
-7.571718365085875
 30
0.0
  0
POINT
  5
F6
330
82
100
AcDbEntity
  8
DEFPOINTS
  6
BYBLOCK
 62
     0
100
AcDbPoint
 10
-4.571480421320359
 20
-7.483330017437557
 30
0.0
  0
POINT
  5
F7
330
82
100
AcDbEntity
  8
DEFPOINTS
  6
BYBLOCK
 62
     0
100
AcDbPoint
 10
-4.557715116497765
 20
-7.497095322260151
 30
0.0
  0
ENDBLK
  5
F8
330
82
100
AcDbEntity
  8
0
100
AcDbBlockEnd
  0
ENDSEC
  0
SECTION
  2
ENTITIES
  0
LINE
  5
F9
330
1E
100
AcDbEntity
  8
ADP1DETAIL
100
AcDbLine
 10
-7.586620958592313
 20
-5.172672051506737
 30
0.0
 11
-7.586620958592313
 21
1.077327948493264
 31
0.0
  0
LINE
  5
FA
330
1E
100
AcDbEntity
  8
ADP1DETAIL
100
AcDbLine
 10
-4.086620958592314
 20
-2.422672051506737
 30
0.0
 11
-7.586620958592313
 21
1.077327948493264
 31
0.0
  0
LINE
  5
FB
330
1E
100
AcDbEntity
  8
ADP1DETAIL
100
AcDbLine
 10
-1.336620958592313
 20
1.077327948493264
 30
0.0
 11
-1.336620958592313
 21
-2.422672051506737
 31
0.0
  0
DIMENSION
  5
FC
330
1E
100
AcDbEntity
  8
ADPDIM
100
AcDbDimension
  2
*D4
 10
-7.845737649813629
 20
-9.13572051148682
 30
0.0
 11
-7.845737649813629
 21
-9.76072051148682
 31
0.0
100
AcDbAlignedDimension
 13
-6.224623466297088
 23
-10.38572051148682
 33
0.0
 14
-6.224623466297088
 24
-9.13572051148682
 34
0.0
 50
90.0
100
AcDbRotatedDimension
  0
DIMENSION
  5
FD
330
1E
100
AcDbEntity
  8
ADPDIM
100
AcDbDimension
  2
*D2
 10
-5.474623466297089
 20
-10.77471368133883
 30
0.0
 11
-4.932956799630422
 21
-10.77471368133883
 31
0.0
100
AcDbAlignedDimension
 13
-6.224623466297088
 23
-10.38572051148682
 33
0.0
 14
-5.474623466297089
 24
-10.38572051148682
 34
0.0
100
AcDbRotatedDimension
  0
LINE
  5
FE
330
1E
100
AcDbEntity
  8
ADP2DETAIL
  6
HIDDEN2
100
AcDbLine
 10
-6.211620958592313
 20
-0.2976720515067317
 30
0.0
 11
-1.336620958592313
 21
-0.297672051506737
 31
0.0
  0
LINE
  5
FF
330
1E
100
AcDbEntity
  8
ADP2DETAIL
  6
HIDDEN2
100
AcDbLine
 10
-1.336620958592313
 20
-1.047672051506737
 30
0.0
 11
-5.461620958592313
 21
-1.047672051506737
 31
0.0
  0
DIMENSION
  5
100
330
1E
100
AcDbEntity
  8
ADPDIM
100
AcDbDimension
  2
*D5
 10
-4.557715116497765
 20
-7.497095322260151
 30
0.0
 11
-4.189430334629767
 21
-7.12881054039216
 31
0.0
 70
     1
100
AcDbAlignedDimension
 13
-4.659868768968678
 23
-7.571718365085875
 33
0.0
 14
-4.571480421320359
 24
-7.483330017437557
 34
0.0
  0
DIMENSION
  5
101
330
1E
100
AcDbEntity
  8
ADPDIM
100
AcDbDimension
  2
*D3
 10
-7.156572647207709
 20
-7.485206699882321
 30
0.0
 11
-4.012797280951035
 21
-10.28283889353505
 31
0.0
 70
     3
100
AcDbDiametricDimension
 15
-4.54194759012295
 25
-9.81195030648459
 35
0.0
 40
0.0
  0
DIMENSION
  5
102
330
1E
100
AcDbEntity
  8
ADPDIM
100
AcDbDimension
  2
*D1
 10
-1.336620958592313
 20
-5.811604437452222
 30
0.0
 11
-3.586620958592313
 21
-5.811604437452222
 31
0.0
100
AcDbAlignedDimension
 13
-5.836620958592313
 23
-5.172672051506737
 33
0.0
 14
-1.336620958592313
 24
-2.422672051506737
 34
0.0
100
AcDbRotatedDimension
  0
LINE
  5
103
330
1E
100
AcDbEntity
  8
ADP1DETAIL
100
AcDbLine
 10
-4.086620958592313
 20
-5.172672051506737
 30
0.0
 11
-7.586620958592313
 21
-5.172672051506737
 31
0.0
  0
INSERT
  5
104
330
1E
100
AcDbEntity
  8
ADP1DETAIL
100
AcDbBlockReference
  2
1135
 10
-7.576591037002043
 20
-8.758941237306419
 30
0.0
  0
LINE
  5
105
330
1E
100
AcDbEntity
  8
ADP2DETAIL
  6
HIDDEN2
100
AcDbLine
 10
-6.211620958592313
 20
-5.172672051506737
 30
0.0
 11
-6.211620958592313
 21
-0.2976720515067317
 31
0.0
  0
LINE
  5
106
330
1E
100
AcDbEntity
  8
ADP2DETAIL
  6
HIDDEN2
100
AcDbLine
 10
-5.461620958592313
 20
-1.047672051506737
 30
0.0
 11
-5.461620958592313
 21
-5.172672051506737
 31
0.0
  0
LINE
  5
107
330
1E
100
AcDbEntity
  8
ADP1DETAIL
100
AcDbLine
 10
-1.336620958592313
 20
-2.422672051506737
 30
0.0
 11
-4.086620958592314
 21
-2.422672051506737
 31
0.0
  0
LINE
  5
108
330
1E
100
AcDbEntity
  8
ADP1DETAIL
100
AcDbLine
 10
-4.086620958592314
 20
-2.422672051506737
 30
0.0
 11
-4.086620958592313
 21
-5.172672051506737
 31
0.0
  0
LINE
  5
109
330
1E
100
AcDbEntity
  8
ADP1DETAIL
100
AcDbLine
 10
-7.586620958592313
 20
1.077327948493264
 30
0.0
 11
-1.336620958592313
 21
1.077327948493264
 31
0.0
  0
TEXT
  5
10D
330
1E
100
AcDbEntity
  8
ADPDIM
100
AcDbText
 10
-17.13807900770554
 20
-11.97384916865422
 30
0.0
 40
0.25
  1
J U L I U S  B L U M  &  C O . ,  I N C .      ( 8 0 0 )  5 2 6 - 6 2 9 3        W W W . J U L I U S B L U M . C O M        P A R T  N o .  1 1 1 2
 41
1.25
  7
ARIAL_WIDE
 72
     1
 11
-4.086620958592313
 21
-11.72384916865421
 31
0.0
100
AcDbText
 73
     3
  0
ENDSEC
  0
SECTION
  2
OBJECTS
  0
DICTIONARY
  5
C
330
0
100
AcDbDictionary
  3
ACAD_GROUP
350
D
  3
ACAD_LAYOUT
350
19
  3
ACAD_MLINESTYLE
350
16
  3
ACAD_PLOTSETTINGS
350
18
  3
ACAD_PLOTSTYLENAME
350
E
  3
ACDBHEADERROUNDTRIPXREC
350
2DA
  3
ACDBVARIABLEDICTIONARY
350
17E
  0
DICTIONARY
  5
149
330
1E
100
AcDbDictionary
280
     1
  3
ACAD_LAYOUTSELFREF
360
2FC
  0
DICTIONARY
  5
14B
330
1A
100
AcDbDictionary
280
     1
  3
ACAD_LAYOUTSELFREF
360
2FB
  0
DICTIONARY
  5
D
102
{ACAD_REACTORS
330
C
102
}
330
C
100
AcDbDictionary
  0
DICTIONARY
  5
19
102
{ACAD_REACTORS
330
C
102
}
330
C
100
AcDbDictionary
  0
DICTIONARY
  5
16
102
{ACAD_REACTORS
330
C
102
}
330
C
100
AcDbDictionary
  3
STANDARD
350
17
  0
DICTIONARY
  5
18
102
{ACAD_REACTORS
330
C
102
}
330
C
100
AcDbDictionary
  0
ACDBDICTIONARYWDFLT
  5
E
102
{ACAD_REACTORS
330
C
102
}
330
C
100
AcDbDictionary
281
     1
  3
Normal
350
F
100
AcDbDictionaryWithDefault
340
F
  0
DICTIONARY
  5
2DA
102
{ACAD_REACTORS
330
C
102
}
330
C
100
AcDbDictionary
  3
CEPSNTYPE
350
2E4
  3
DIMSTYLEDATA
350
2E8
  3
FINGERPRINTGUID
350
2E5
  3
HYPERLINKBASE
350
2DD
  3
INSUNITS
350
2E3
  3
LAYOUTDICT
350
2DF
  3
LWETCUNION
350
2E2
  3
PLOTSETDICT
350
2E0
  3
PLOTSTYLNAMDICT
350
2E1
  3
PSVPSCALE
350
2E7
  3
PUCSBASE
350
2EB
  3
PUCSORGBACK
350
2F1
  3
PUCSORGBOTTOM
350
2ED
  3
PUCSORGFRONT
350
2F0
  3
PUCSORGLEFT
350
2EE
  3
PUCSORGRIGHT
350
2EF
  3
PUCSORGTOP
350
2EC
  3
PUCSORTHOREF
350
2E9
  3
PUCSORTHOVIEW
350
2EA
  3
STYLESHEET
350
2DE
  3
TSTACKALIGN
350
2DB
  3
TSTACKSIZE
350
2DC
  3
UCSBASE
350
2F4
  3
UCSORGBACK
350
2FA
  3
UCSORGBOTTOM
350
2F6
  3
UCSORGFRONT
350
2F9
  3
UCSORGLEFT
350
2F7
  3
UCSORGRIGHT
350
2F8
  3
UCSORGTOP
350
2F5
  3
UCSORTHOREF
350
2F2
  3
UCSORTHOVIEW
350
2F3
  3
VERSIONGUID
350
2E6
  0
DICTIONARY
  5
17E
102
{ACAD_REACTORS
330
C
102
}
330
C
100
AcDbDictionary
  3
DIMASSOC
350
180
  3
HIDETEXT
350
17F
  0
XRECORD
  5
2FC
102
{ACAD_REACTORS
330
149
102
}
330
149
100
AcDbXrecord
340
1E
  0
XRECORD
  5
2FB
102
{ACAD_REACTORS
330
14B
102
}
330
14B
100
AcDbXrecord
340
1A
  0
MLINESTYLE
  5
17
102
{ACAD_REACTORS
330
16
102
}
330
16
100
AcDbMlineStyle
  2
STANDARD
 70
     0
  3

 62
   256
 51
90.0
 52
90.0
 71
     2
 49
0.5
 62
   256
  6
BYLAYER
 49
-0.5
 62
   256
  6
BYLAYER
  0
ACDBPLACEHOLDER
  5
F
102
{ACAD_REACTORS
330
E
102
}
330
E
100
AcDbPlaceHolder
280
     0
  0
XRECORD
  5
2E4
102
{ACAD_REACTORS
330
2DA
102
}
330
2DA
100
AcDbXrecord
 90
        0
  0
XRECORD
  5
2E8
102
{ACAD_REACTORS
330
2DA
102
}
330
2DA
100
AcDbXrecord
1000
DSTYLE
1002
{
1070
   277
 70
     5
1070
   279
 70
     2
1002
}
  0
XRECORD
  5
2E5
102
{ACAD_REACTORS
330
2DA
102
}
330
2DA
100
AcDbXrecord
  1
{526D0788-FD68-4D49-9481-A581099BA08E}
  0
XRECORD
  5
2DD
102
{ACAD_REACTORS
330
2DA
102
}
330
2DA
100
AcDbXrecord
  1

  0
XRECORD
  5
2E3
102
{ACAD_REACTORS
330
2DA
102
}
330
2DA
100
AcDbXrecord
 90
        0
  0
XRECORD
  5
2DF
102
{ACAD_REACTORS
330
2DA
102
}
330
2DA
100
AcDbXrecord
340
19
  0
XRECORD
  5
2E2
102
{ACAD_REACTORS
330
2DA
102
}
330
2DA
100
AcDbXrecord
 90
    14877
  0
XRECORD
  5
2E0
102
{ACAD_REACTORS
330
2DA
102
}
330
2DA
100
AcDbXrecord
340
18
  0
XRECORD
  5
2E1
102
{ACAD_REACTORS
330
2DA
102
}
330
2DA
100
AcDbXrecord
340
E
  0
XRECORD
  5
2E7
102
{ACAD_REACTORS
330
2DA
102
}
330
2DA
100
AcDbXrecord
 40
0.0
  0
XRECORD
  5
2EB
102
{ACAD_REACTORS
330
2DA
102
}
330
2DA
100
AcDbXrecord
340
0
  0
XRECORD
  5
2F1
102
{ACAD_REACTORS
330
2DA
102
}
330
2DA
100
AcDbXrecord
 10
0.0
 20
0.0
 30
0.0
  0
XRECORD
  5
2ED
102
{ACAD_REACTORS
330
2DA
102
}
330
2DA
100
AcDbXrecord
 10
0.0
 20
0.0
 30
0.0
  0
XRECORD
  5
2F0
102
{ACAD_REACTORS
330
2DA
102
}
330
2DA
100
AcDbXrecord
 10
0.0
 20
0.0
 30
0.0
  0
XRECORD
  5
2EE
102
{ACAD_REACTORS
330
2DA
102
}
330
2DA
100
AcDbXrecord
 10
0.0
 20
0.0
 30
0.0
  0
XRECORD
  5
2EF
102
{ACAD_REACTORS
330
2DA
102
}
330
2DA
100
AcDbXrecord
 10
0.0
 20
0.0
 30
0.0
  0
XRECORD
  5
2EC
102
{ACAD_REACTORS
330
2DA
102
}
330
2DA
100
AcDbXrecord
 10
0.0
 20
0.0
 30
0.0
  0
XRECORD
  5
2E9
102
{ACAD_REACTORS
330
2DA
102
}
330
2DA
100
AcDbXrecord
340
0
  0
XRECORD
  5
2EA
102
{ACAD_REACTORS
330
2DA
102
}
330
2DA
100
AcDbXrecord
 70
     0
  0
XRECORD
  5
2DE
102
{ACAD_REACTORS
330
2DA
102
}
330
2DA
100
AcDbXrecord
  1

  0
XRECORD
  5
2DB
102
{ACAD_REACTORS
330
2DA
102
}
330
2DA
100
AcDbXrecord
 90
        1
  0
XRECORD
  5
2DC
102
{ACAD_REACTORS
330
2DA
102
}
330
2DA
100
AcDbXrecord
 90
       70
  0
XRECORD
  5
2F4
102
{ACAD_REACTORS
330
2DA
102
}
330
2DA
100
AcDbXrecord
340
0
  0
XRECORD
  5
2FA
102
{ACAD_REACTORS
330
2DA
102
}
330
2DA
100
AcDbXrecord
 10
0.0
 20
0.0
 30
0.0
  0
XRECORD
  5
2F6
102
{ACAD_REACTORS
330
2DA
102
}
330
2DA
100
AcDbXrecord
 10
0.0
 20
0.0
 30
0.0
  0
XRECORD
  5
2F9
102
{ACAD_REACTORS
330
2DA
102
}
330
2DA
100
AcDbXrecord
 10
0.0
 20
0.0
 30
0.0
  0
XRECORD
  5
2F7
102
{ACAD_REACTORS
330
2DA
102
}
330
2DA
100
AcDbXrecord
 10
0.0
 20
0.0
 30
0.0
  0
XRECORD
  5
2F8
102
{ACAD_REACTORS
330
2DA
102
}
330
2DA
100
AcDbXrecord
 10
0.0
 20
0.0
 30
0.0
  0
XRECORD
  5
2F5
102
{ACAD_REACTORS
330
2DA
102
}
330
2DA
100
AcDbXrecord
 10
0.0
 20
0.0
 30
0.0
  0
XRECORD
  5
2F2
102
{ACAD_REACTORS
330
2DA
102
}
330
2DA
100
AcDbXrecord
340
0
  0
XRECORD
  5
2F3
102
{ACAD_REACTORS
330
2DA
102
}
330
2DA
100
AcDbXrecord
 70
     0
  0
XRECORD
  5
2E6
102
{ACAD_REACTORS
330
2DA
102
}
330
2DA
100
AcDbXrecord
  1
{35D7645C-712F-4174-BB86-2A94E7766447}
  0
DICTIONARYVAR
  5
180
102
{ACAD_REACTORS
330
17E
102
}
330
17E
100
DictionaryVariables
280
     0
  1
2
  0
DICTIONARYVAR
  5
17F
102
{ACAD_REACTORS
330
17E
102
}
330
17E
100
DictionaryVariables
280
     0
  1
1
  0
ENDSEC
  0
EOF
