  0
SECTION
  2
HEADER
  9
$ACADVER
  1
AC1015
  9
$ACADMAINTVER
 70
    20
  9
$DWGCODEPAGE
  3
ANSI_936
  9
$INSBASE
 10
0.0
 20
0.0
 30
0.0
  9
$EXTMIN
 10
-12.306882218194
 20
-39.34247208699367
 30
-0.0015258207003583
  9
$EXTMAX
 10
0.808951818671403
 20
-33.49530499174981
 30
0.0000000349246037
  9
$LIMMIN
 10
-123.5686848958333
 20
-79.91656901041666
  9
$LIMMAX
 10
111.9270182291666
 20
0.0
  9
$ORTHOMODE
 70
     0
  9
$REGENMODE
 70
     1
  9
$FILLMODE
 70
     1
  9
$QTEXTMODE
 70
     0
  9
$MIRRTEXT
 70
     1
  9
$LTSCALE
 40
1.0
  9
$ATTMODE
 70
     1
  9
$TEXTSIZE
 40
0.0
  9
$TRACEWID
 40
0.05
  9
$TEXTSTYLE
  7
Standard
  9
$CLAYER
  8
0
  9
$CELTYPE
  6
Continuous
  9
$CECOLOR
 62
   256
  9
$CELTSCALE
 40
1.0
  9
$DISPSILH
 70
     0
  9
$DIMSCALE
 40
1.0
  9
$DIMASZ
 40
0.18
  9
$DIMEXO
 40
0.0625
  9
$DIMDLI
 40
0.38
  9
$DIMRND
 40
0.0
  9
$DIMDLE
 40
0.0
  9
$DIMEXE
 40
0.18
  9
$DIMTP
 40
0.0
  9
$DIMTM
 40
0.0
  9
$DIMTXT
 40
0.18
  9
$DIMCEN
 40
0.09
  9
$DIMTSZ
 40
0.0
  9
$DIMTOL
 70
     0
  9
$DIMLIM
 70
     0
  9
$DIMTIH
 70
     1
  9
$DIMTOH
 70
     1
  9
$DIMSE1
 70
     0
  9
$DIMSE2
 70
     0
  9
$DIMTAD
 70
     0
  9
$DIMZIN
 70
     0
  9
$DIMBLK
  1

  9
$DIMASO
 70
     1
  9
$DIMSHO
 70
     1
  9
$DIMPOST
  1

  9
$DIMAPOST
  1

  9
$DIMALT
 70
     0
  9
$DIMALTD
 70
     2
  9
$DIMALTF
 40
25.4
  9
$DIMLFAC
 40
1.0
  9
$DIMTOFL
 70
     0
  9
$DIMTVP
 40
0.0
  9
$DIMTIX
 70
     0
  9
$DIMSOXD
 70
     0
  9
$DIMSAH
 70
     0
  9
$DIMBLK1
  1

  9
$DIMBLK2
  1

  9
$DIMSTYLE
  2
Standard
  9
$DIMCLRD
 70
     0
  9
$DIMCLRE
 70
     0
  9
$DIMCLRT
 70
     0
  9
$DIMTFAC
 40
1.0
  9
$DIMGAP
 40
0.09
  9
$DIMJUST
 70
     0
  9
$DIMSD1
 70
     0
  9
$DIMSD2
 70
     0
  9
$DIMTOLJ
 70
     1
  9
$DIMTZIN
 70
     0
  9
$DIMALTZ
 70
     0
  9
$DIMALTTZ
 70
     0
  9
$DIMUPT
 70
     0
  9
$DIMDEC
 70
     4
  9
$DIMTDEC
 70
     4
  9
$DIMALTU
 70
     2
  9
$DIMALTTD
 70
     2
  9
$DIMTXSTY
  7
Standard
  9
$DIMAUNIT
 70
     0
  9
$DIMADEC
 70
     0
  9
$DIMALTRND
 40
0.0
  9
$DIMAZIN
 70
     0
  9
$DIMDSEP
 70
     0
  9
$DIMATFIT
 70
     3
  9
$DIMFRAC
 70
     0
  9
$DIMLDRBLK
  1

  9
$DIMLUNIT
 70
     2
  9
$DIMLWD
 70
     0
  9
$DIMLWE
 70
     0
  9
$DIMTMOVE
 70
     0
  9
$LUNITS
 70
     2
  9
$LUPREC
 70
     4
  9
$SKETCHINC
 40
0.1
  9
$FILLETRAD
 40
0.0
  9
$AUNITS
 70
     0
  9
$AUPREC
 70
     0
  9
$MENU
  1
acad
  9
$ELEVATION
 40
0.0
  9
$PELEVATION
 40
0.0
  9
$THICKNESS
 40
0.0
  9
$LIMCHECK
 70
     0
  9
$CHAMFERA
 40
0.0
  9
$CHAMFERB
 40
0.0
  9
$CHAMFERC
 40
0.0
  9
$CHAMFERD
 40
0.0
  9
$SKPOLY
 70
     0
  9
$TDCREATE
 40
2454257.484881181
  9
$TDUCREATE
 40
2454257.693214514
  9
$TDUPDATE
 40
2455237.688121609
  9
$TDUUPDATE
 40
2455237.896454942
  9
$TDINDWG
 40
0.0770834606
  9
$TDUSRTIMER
 40
0.0770834606
  9
$USRTIMER
 70
     1
  9
$ANGBASE
 50
0.0
  9
$ANGDIR
 70
     0
  9
$PDMODE
 70
     0
  9
$PDSIZE
 40
0.0
  9
$PLINEWID
 40
0.0
  9
$SPLFRAME
 70
     0
  9
$SPLINETYPE
 70
     6
  9
$SPLINESEGS
 70
     8
  9
$HANDSEED
  5
316
  9
$SURFTAB1
 70
     6
  9
$SURFTAB2
 70
     6
  9
$SURFTYPE
 70
     6
  9
$SURFU
 70
     6
  9
$SURFV
 70
     6
  9
$UCSBASE
  2

  9
$UCSNAME
  2

  9
$UCSORG
 10
0.0
 20
0.0
 30
0.0
  9
$UCSXDIR
 10
1.0
 20
0.0
 30
0.0
  9
$UCSYDIR
 10
0.0
 20
1.0
 30
0.0
  9
$UCSORTHOREF
  2

  9
$UCSORTHOVIEW
 70
     0
  9
$UCSORGTOP
 10
0.0
 20
0.0
 30
0.0
  9
$UCSORGBOTTOM
 10
0.0
 20
0.0
 30
0.0
  9
$UCSORGLEFT
 10
0.0
 20
0.0
 30
0.0
  9
$UCSORGRIGHT
 10
0.0
 20
0.0
 30
0.0
  9
$UCSORGFRONT
 10
0.0
 20
0.0
 30
0.0
  9
$UCSORGBACK
 10
0.0
 20
0.0
 30
0.0
  9
$PUCSBASE
  2

  9
$PUCSNAME
  2

  9
$PUCSORG
 10
0.0
 20
0.0
 30
0.0
  9
$PUCSXDIR
 10
1.0
 20
0.0
 30
0.0
  9
$PUCSYDIR
 10
0.0
 20
1.0
 30
0.0
  9
$PUCSORTHOREF
  2

  9
$PUCSORTHOVIEW
 70
     0
  9
$PUCSORGTOP
 10
0.0
 20
0.0
 30
0.0
  9
$PUCSORGBOTTOM
 10
0.0
 20
0.0
 30
0.0
  9
$PUCSORGLEFT
 10
0.0
 20
0.0
 30
0.0
  9
$PUCSORGRIGHT
 10
0.0
 20
0.0
 30
0.0
  9
$PUCSORGFRONT
 10
0.0
 20
0.0
 30
0.0
  9
$PUCSORGBACK
 10
0.0
 20
0.0
 30
0.0
  9
$USERI1
 70
     0
  9
$USERI2
 70
     0
  9
$USERI3
 70
     0
  9
$USERI4
 70
     0
  9
$USERI5
 70
     0
  9
$USERR1
 40
0.0
  9
$USERR2
 40
0.0
  9
$USERR3
 40
0.0
  9
$USERR4
 40
0.0
  9
$USERR5
 40
0.0
  9
$WORLDVIEW
 70
     1
  9
$SHADEDGE
 70
     3
  9
$SHADEDIF
 70
    70
  9
$TILEMODE
 70
     1
  9
$MAXACTVP
 70
    16
  9
$PINSBASE
 10
0.0
 20
0.0
 30
0.0
  9
$PLIMCHECK
 70
     0
  9
$PEXTMIN
 10
1.000000000000000E+20
 20
1.000000000000000E+20
 30
1.000000000000000E+20
  9
$PEXTMAX
 10
-1.000000000000000E+20
 20
-1.000000000000000E+20
 30
-1.000000000000000E+20
  9
$PLIMMIN
 10
0.0
 20
0.0
  9
$PLIMMAX
 10
12.0
 20
9.0
  9
$UNITMODE
 70
     0
  9
$VISRETAIN
 70
     0
  9
$PLINEGEN
 70
     1
  9
$PSLTSCALE
 70
     0
  9
$TREEDEPTH
 70
  3020
  9
$CMLSTYLE
  2
Standard
  9
$CMLJUST
 70
     0
  9
$CMLSCALE
 40
1.0
  9
$PROXYGRAPHICS
 70
     0
  9
$MEASUREMENT
 70
     1
  9
$CELWEIGHT
370
    -1
  9
$ENDCAPS
280
     0
  9
$JOINSTYLE
280
     0
  9
$LWDISPLAY
290
     0
  9
$INSUNITS
 70
     0
  9
$HYPERLINKBASE
  1

  9
$STYLESHEET
  1

  9
$XEDIT
290
     1
  9
$CEPSNTYPE
380
     0
  9
$PSTYLEMODE
290
     1
  9
$FINGERPRINTGUID
  2

  9
$VERSIONGUID
  2
{E9F23D66-9CCD-4F7B-A299-A5084663AC4A}
  9
$EXTNAMES
290
     1
  9
$PSVPSCALE
 40
0.0
  9
$OLESTARTUP
290
     0
  0
ENDSEC
  0
SECTION
  2
CLASSES
  0
CLASS
  1
IMAGE
  2
AcDbRasterImage
  3
ISM
 90
    34943
280
     0
281
     1
  0
CLASS
  1
DICTIONARYVAR
  2
AcDbDictionaryVar
  3
ObjectDBX Classes
 90
        0
280
     0
281
     0
  0
CLASS
  1
RASTERVARIABLES
  2
AcDbRasterVariables
  3
ISM
 90
    32768
280
     0
281
     0
  0
CLASS
  1
IMAGEDEF
  2
AcDbRasterImageDef
  3
ISM
 90
    32768
280
     0
281
     0
  0
CLASS
  1
IMAGEDEF_REACTOR
  2
AcDbRasterImageDefReactor
  3
ISM
 90
    32769
280
     0
281
     0
  0
CLASS
  1
IDBUFFER
  2
AcDbIdBuffer
  3
ObjectDBX Classes
 90
    32768
280
     0
281
     0
  0
CLASS
  1
SPATIAL_FILTER
  2
AcDbSpatialFilter
  3
ObjectDBX Classes
 90
    32768
280
     0
281
     0
  0
CLASS
  1
SORTENTSTABLE
  2
AcDbSortentsTable
  3
ObjectDBX Classes
 90
    32768
280
     0
281
     0
  0
CLASS
  1
LAYER_INDEX
  2
AcDbLayerIndex
  3
ObjectDBX Classes
 90
    32768
280
     0
281
     0
  0
CLASS
  1
SPATIAL_INDEX
  2
AcDbSpatialIndex
  3
ObjectDBX Classes
 90
    32768
280
     0
281
     0
  0
CLASS
  1
OBJECT_PTR
  2
CAseDLPNTableRecord
  3
ASE-LPNTableRecord
 90
    32769
280
     0
281
     0
  0
CLASS
  1
LAYOUT
  2
AcDbLayout
  3
ObjectDBX Classes
 90
        0
280
     0
281
     0
  0
CLASS
  1
PLOTSETTINGS
  2
AcDbPlotSettings
  3
ObjectDBX Classes
 90
    32768
280
     0
281
     0
  0
CLASS
  1
ACDBDICTIONARYWDFLT
  2
AcDbDictionaryWithDefault
  3
ObjectDBX Classes
 90
        0
280
     0
281
     0
  0
CLASS
  1
ACDBPLACEHOLDER
  2
AcDbPlaceHolder
  3
ObjectDBX Classes
 90
        0
280
     0
281
     0
  0
CLASS
  1
VBA_PROJECT
  2
AcDbVbaProject
  3
acad
 90
    32768
280
     0
281
     0
  0
CLASS
  1
WIPEOUT
  2
AcDbWipeout
  3
"WipeOut|Product Desc: Object Enabler for WipeOut entity                        |Company: Autodesk, Inc.                        |WEB Address: www.autodesk.com"
 90
    34943
280
     0
281
     1
  0
CLASS
  1
WIPEOUTVARIABLES
  2
AcDbWipeoutVariables
  3
"WipeOut|Product Desc:     WipeOut Dbx Application|Company:          Autodesk, Inc.|WEB Address:      www.autodesk.com"
 90
    32768
280
     0
281
     0
  0
CLASS
  1
RTEXT
  2
RText
  3
RText|AutoCAD Express Tool|expresstools@autodesk.com
 90
    32768
280
     1
281
     1
  0
CLASS
  1
ARCALIGNEDTEXT
  2
AcDbArcAlignedText
  3
ATEXT|AutoCAD Express Tool|expresstools@autodesk.com
 90
    32768
280
     1
281
     1
  0
CLASS
  1
MATERIAL
  2
AcDbMaterial
  3
ObjectDBX Classes
 90
     1024
280
     0
281
     0
  0
CLASS
  1
VISUALSTYLE
  2
AcDbVisualStyle
  3
ObjectDBX Classes
 90
     4095
280
     0
281
     0
  0
CLASS
  1
TABLESTYLE
  2
AcDbTableStyle
  3
ObjectDBX Classes
 90
     4095
280
     0
281
     0
  0
ENDSEC
  0
SECTION
  2
TABLES
  0
TABLE
  2
VPORT
  5
C0
330
0
100
AcDbSymbolTable
 70
     1
  0
VPORT
  5
C1
330
C0
100
AcDbSymbolTableRecord
100
AcDbViewportTableRecord
  2
*Active
 70
     0
 10
0.0
 20
0.0
 11
1.0
 21
1.0
 12
-5.7489651997613
 22
-36.41888853937174
 13
0.0
 23
0.0
 14
1.0
 24
1.0
 15
0.0
 25
0.0
 16
0.0
 26
0.0
 36
1.0
 17
0.0
 27
0.0
 37
0.0
 40
5.912377137198248
 41
2.426443202979515
 42
50.0
 43
0.0
 44
0.0
 50
0.0
 51
0.0
 71
     0
 72
   100
 73
     1
 74
     1
 75
     0
 76
     0
 77
     0
 78
     0
281
     0
 65
     0
110
0.0
120
0.0
130
0.0
111
1.0
121
0.0
131
0.0
112
0.0
122
1.0
132
0.0
 79
     0
146
0.0
  0
ENDTAB
  0
TABLE
  2
LTYPE
  5
BB
330
0
100
AcDbSymbolTable
 70
     4
  0
LTYPE
  5
BC
330
BB
100
AcDbSymbolTableRecord
100
AcDbLinetypeTableRecord
  2
ByBlock
 70
     0
  3

 72
    65
 73
     0
 40
0.0
  0
LTYPE
  5
BD
330
BB
100
AcDbSymbolTableRecord
100
AcDbLinetypeTableRecord
  2
ByLayer
 70
     0
  3

 72
    65
 73
     0
 40
0.0
  0
LTYPE
  5
9
330
BB
100
AcDbSymbolTableRecord
100
AcDbLinetypeTableRecord
  2
Continuous
 70
     0
  3
Solid line
 72
    65
 73
     0
 40
0.0
  0
LTYPE
  5
1B
330
BB
100
AcDbSymbolTableRecord
100
AcDbLinetypeTableRecord
  2
AI9-LType2
 70
     0
  3
Illustrator Dash Style No.2
 72
    65
 73
     2
 40
1.41111111111111
 49
0.7055555555555556
 74
     0
 49
-0.7055555555555556
 74
     0
  0
LTYPE
  5
1E
330
BB
100
AcDbSymbolTableRecord
100
AcDbLinetypeTableRecord
  2
AI9-LType7
 70
     0
  3
Illustrator Dash Style No.7
 72
    65
 73
     1
 40
0.7055555555555556
 49
0.7055555555555556
 74
     0
  0
LTYPE
  5
14
330
BB
100
AcDbSymbolTableRecord
100
AcDbLinetypeTableRecord
  2
AI9-LType8
 70
     0
  3
Illustrator Dash Style No.8
 72
    65
 73
     1
 40
0.7055555555555556
 49
0.7055555555555556
 74
     0
  0
ENDTAB
  0
TABLE
  2
LAYER
  5
B6
102
{ACAD_XDICTIONARY
360
B7
102
}
330
0
100
AcDbSymbolTable
 70
     5
  0
LAYER
  5
5
330
B6
100
AcDbSymbolTableRecord
100
AcDbLayerTableRecord
  2
0
 70
     0
 62
     7
  6
Continuous
370
    -3
390
6
  0
LAYER
  5
13
330
B6
100
AcDbSymbolTableRecord
100
AcDbLayerTableRecord
  2
ADP2DETAIL
 70
     0
 62
     5
  6
Continuous
370
    -3
390
6
  0
LAYER
  5
F
330
B6
100
AcDbSymbolTableRecord
100
AcDbLayerTableRecord
  2
ADP1DETAIL
 70
     0
 62
     1
  6
Continuous
370
    -3
390
6
  0
LAYER
  5
B
330
B6
100
AcDbSymbolTableRecord
100
AcDbLayerTableRecord
  2
ADPDIM
 70
     0
 62
   160
  6
Continuous
370
    -3
390
6
  0
LAYER
  5
53
330
B6
100
AcDbSymbolTableRecord
100
AcDbLayerTableRecord
  2
DEFPOINTS
 70
     0
 62
     7
  6
Continuous
290
     0
370
    -3
390
6
  0
ENDTAB
  0
TABLE
  2
STYLE
  5
B9
330
0
100
AcDbSymbolTable
 70
     2
  0
STYLE
  5
47
330
B9
100
AcDbSymbolTableRecord
100
AcDbTextStyleTableRecord
  2
Standard
 70
     0
 40
0.0
 41
1.0
 50
0.0
 71
     0
 42
0.0
  3
txt
  4

  0
STYLE
  5
C
330
B9
100
AcDbSymbolTableRecord
100
AcDbTextStyleTableRecord
  2
ARIAL_WIDE
 70
     0
 40
0.0
 41
1.25
 50
0.0
 71
     0
 42
0.2
  3
ARIAL.TTF
  4

1001
ACAD
1000
Arial
1071
       34
  0
ENDTAB
  0
TABLE
  2
VIEW
  5
BE
330
0
100
AcDbSymbolTable
 70
     0
  0
ENDTAB
  0
TABLE
  2
UCS
  5
BF
330
0
100
AcDbSymbolTable
 70
     0
  0
ENDTAB
  0
TABLE
  2
APPID
  5
C2
330
0
100
AcDbSymbolTable
 70
     1
  0
APPID
  5
D
330
C2
100
AcDbSymbolTableRecord
100
AcDbRegAppTableRecord
  2
ACAD
 70
     0
  0
ENDTAB
  0
TABLE
  2
DIMSTYLE
  5
C3
330
0
100
AcDbSymbolTable
 70
     1
100
AcDbDimStyleTable
 71
     1
340
48
  0
DIMSTYLE
105
48
102
{ACAD_REACTORS
330
46
330
5D
330
6B
330
79
330
95
330
1C1
102
}
330
C3
100
AcDbSymbolTableRecord
100
AcDbDimStyleTableRecord
  2
Standard
 70
     0
340
47
  0
ENDTAB
  0
TABLE
  2
BLOCK_RECORD
  5
1
330
0
100
AcDbSymbolTable
 70
    16
  0
BLOCK_RECORD
  5
2
102
{ACAD_XDICTIONARY
360
3
102
}
330
1
100
AcDbSymbolTableRecord
100
AcDbBlockTableRecord
  2
*MODEL_SPACE
340
B0
  0
BLOCK_RECORD
  5
B2
330
1
100
AcDbSymbolTableRecord
100
AcDbBlockTableRecord
  2
*PAPER_SPACE
340
B5
  0
BLOCK_RECORD
  5
49
330
1
100
AcDbSymbolTableRecord
100
AcDbBlockTableRecord
  2
*D0
340
0
  0
BLOCK_RECORD
  5
5E
330
1
100
AcDbSymbolTableRecord
100
AcDbBlockTableRecord
  2
*D1
340
0
  0
BLOCK_RECORD
  5
6C
330
1
100
AcDbSymbolTableRecord
100
AcDbBlockTableRecord
  2
*D2
340
0
  0
BLOCK_RECORD
  5
7A
330
1
100
AcDbSymbolTableRecord
100
AcDbBlockTableRecord
  2
*D3
340
0
  0
BLOCK_RECORD
  5
88
330
1
100
AcDbSymbolTableRecord
100
AcDbBlockTableRecord
  2
*D4
340
0
  0
BLOCK_RECORD
  5
96
330
1
100
AcDbSymbolTableRecord
100
AcDbBlockTableRecord
  2
*D5
340
0
  0
BLOCK_RECORD
  5
A2
330
1
100
AcDbSymbolTableRecord
100
AcDbBlockTableRecord
  2
*D6
340
0
  0
BLOCK_RECORD
  5
EE
330
1
100
AcDbSymbolTableRecord
100
AcDbBlockTableRecord
  2
_Oblique
340
0
102
{BLKREFS
331
19B
331
19C
331
25F
331
260
331
269
331
26A
331
2C0
331
2C1
331
2CA
331
2CB
331
2DE
331
2DF
102
}
  0
BLOCK_RECORD
  5
F2
330
1
100
AcDbSymbolTableRecord
100
AcDbBlockTableRecord
  2
*D8
340
0
  0
BLOCK_RECORD
  5
FF
330
1
100
AcDbSymbolTableRecord
100
AcDbBlockTableRecord
  2
*D9
340
0
  0
BLOCK_RECORD
  5
10C
330
1
100
AcDbSymbolTableRecord
100
AcDbBlockTableRecord
  2
*D10
340
0
  0
BLOCK_RECORD
  5
119
330
1
100
AcDbSymbolTableRecord
100
AcDbBlockTableRecord
  2
*D11
340
0
  0
BLOCK_RECORD
  5
126
330
1
100
AcDbSymbolTableRecord
100
AcDbBlockTableRecord
  2
*D12
340
0
  0
BLOCK_RECORD
  5
1AB
330
1
100
AcDbSymbolTableRecord
100
AcDbBlockTableRecord
  2
*D13
340
0
  0
BLOCK_RECORD
  5
1B6
330
1
100
AcDbSymbolTableRecord
100
AcDbBlockTableRecord
  2
*D14
340
0
  0
BLOCK_RECORD
  5
1C2
330
1
100
AcDbSymbolTableRecord
100
AcDbBlockTableRecord
  2
*D15
340
0
  0
ENDTAB
  0
ENDSEC
  0
SECTION
  2
BLOCKS
  0
BLOCK
  5
4
330
2
100
AcDbEntity
  8
0
100
AcDbBlockBegin
  2
*MODEL_SPACE
 70
     0
 10
0.0
 20
0.0
 30
0.0
  3
*MODEL_SPACE
  1

  0
ENDBLK
  5
AF
330
2
100
AcDbEntity
  8
0
100
AcDbBlockEnd
  0
BLOCK
  5
B3
330
B2
100
AcDbEntity
 67
     1
  8
0
100
AcDbBlockBegin
  2
*PAPER_SPACE
 70
     0
 10
0.0
 20
0.0
 30
0.0
  3
*PAPER_SPACE
  1

  0
ENDBLK
  5
B4
330
B2
100
AcDbEntity
 67
     1
  8
0
100
AcDbBlockEnd
  0
BLOCK
  5
4A
330
49
100
AcDbEntity
  8
0
370
     0
100
AcDbBlockBegin
  2
*D0
 70
     1
 10
0.0
 20
0.0
 30
0.0
  3
*D0
  1

  0
LINE
  5
4B
330
49
100
AcDbEntity
  8
ADPDIM
 62
     0
370
    -2
100
AcDbLine
 10
-8.199449581572993
 20
-35.24200660118399
 30
0.0
 11
-8.199449581572993
 21
-33.95624210908185
 31
0.0
  0
LINE
  5
4C
330
49
100
AcDbEntity
  8
ADPDIM
 62
     0
370
    -2
100
AcDbLine
 10
-5.702801817017372
 20
-34.36214852784318
 30
0.0
 11
-5.702801817017372
 21
-33.95624210908185
 31
0.0
  0
LINE
  5
4D
330
49
100
AcDbEntity
  8
ADPDIM
 62
     0
370
    -2
100
AcDbLine
 10
-8.019449581572994
 20
-34.13624210908185
 30
0.0
 11
-7.491125699295182
 21
-34.13624210908185
 31
0.0
  0
LINE
  5
4E
330
49
100
AcDbEntity
  8
ADPDIM
 62
     0
370
    -2
100
AcDbLine
 10
-5.882801817017372
 20
-34.13624210908185
 30
0.0
 11
-6.411125699295182
 21
-34.13624210908185
 31
0.0
  0
SOLID
  5
4F
330
49
100
AcDbEntity
  8
ADPDIM
 62
     0
370
     0
100
AcDbTrace
 10
-8.019449581572994
 20
-34.10624210908185
 30
0.0
 11
-8.019449581572994
 21
-34.16624210908185
 31
0.0
 12
-8.199449581572993
 22
-34.13624210908185
 32
0.0
 13
-8.199449581572993
 23
-34.13624210908185
 33
0.0
  0
SOLID
  5
50
330
49
100
AcDbEntity
  8
ADPDIM
 62
     0
370
     0
100
AcDbTrace
 10
-5.882801817017372
 20
-34.10624210908185
 30
0.0
 11
-5.882801817017372
 21
-34.16624210908185
 31
0.0
 12
-5.702801817017372
 22
-34.13624210908185
 32
0.0
 13
-5.702801817017372
 23
-34.13624210908185
 33
0.0
  0
MTEXT
  5
51
330
49
100
AcDbEntity
  8
ADPDIM
 62
     0
100
AcDbMText
 10
-6.951125699295182
 20
-34.13624210908185
 30
0.0
 40
0.18
 41
0.0
 71
     5
 72
     1
  1
\A1;2 1/2"
 73
     1
 44
1.0
1001
ACAD
1000
MTEXTBEGIN
1070
    73
1070
     1
1070
    44
1040
1.0
1070
    74
1070
     0
1000
MTEXTEND
  0
POINT
  5
52
330
49
100
AcDbEntity
  8
DEFPOINTS
 62
     0
370
     0
100
AcDbPoint
 10
-8.199449581572993
 20
-35.304506601184
 30
0.0
  0
POINT
  5
5A
330
49
100
AcDbEntity
  8
DEFPOINTS
 62
     0
370
     0
100
AcDbPoint
 10
-5.702801817017372
 20
-34.42464852784318
 30
0.0
  0
POINT
  5
5B
330
49
100
AcDbEntity
  8
DEFPOINTS
 62
     0
370
     0
100
AcDbPoint
 10
-5.702801817017372
 20
-34.13624210908185
 30
0.0
  0
ENDBLK
  5
5C
330
49
100
AcDbEntity
  8
0
370
     0
100
AcDbBlockEnd
  0
BLOCK
  5
5F
330
5E
100
AcDbEntity
  8
0
370
     0
100
AcDbBlockBegin
  2
*D1
 70
     1
 10
0.0
 20
0.0
 30
0.0
  3
*D1
  1

  0
LINE
  5
60
330
5E
100
AcDbEntity
  8
ADPDIM
  6
Continuous
 62
     0
370
     0
100
AcDbLine
 10
-8.23008016075704
 20
-35.44575416265375
 30
0.0
 11
-9.038520216302492
 21
-35.44575416265375
 31
0.0
  0
LINE
  5
61
330
5E
100
AcDbEntity
  8
ADPDIM
  6
Continuous
 62
     0
370
     0
100
AcDbLine
 10
-8.271536617799768
 20
-38.16539248388434
 30
0.0
 11
-9.038520216302494
 21
-38.16539248388434
 31
0.0
  0
LINE
  5
62
330
5E
100
AcDbEntity
  8
ADPDIM
  6
Continuous
 62
     0
370
     0
100
AcDbLine
 10
-8.858520216302492
 20
-35.62575416265375
 30
0.0
 11
-8.858520216302494
 21
-36.62557332326905
 31
0.0
  0
LINE
  5
63
330
5E
100
AcDbEntity
  8
ADPDIM
  6
Continuous
 62
     0
370
     0
100
AcDbLine
 10
-8.858520216302494
 20
-37.98539248388434
 30
0.0
 11
-8.858520216302494
 21
-36.98557332326905
 31
0.0
  0
SOLID
  5
64
330
5E
100
AcDbEntity
  8
ADPDIM
  6
Continuous
 62
     0
370
     0
100
AcDbTrace
 10
-8.888520216302492
 20
-35.62575416265375
 30
0.0
 11
-8.828520216302493
 21
-35.62575416265375
 31
0.0
 12
-8.858520216302492
 22
-35.44575416265375
 32
0.0
 13
-8.858520216302492
 23
-35.44575416265375
 33
0.0
  0
SOLID
  5
65
330
5E
100
AcDbEntity
  8
ADPDIM
  6
Continuous
 62
     0
370
     0
100
AcDbTrace
 10
-8.888520216302493
 20
-37.98539248388434
 30
0.0
 11
-8.828520216302495
 21
-37.98539248388434
 31
0.0
 12
-8.858520216302494
 22
-38.16539248388434
 32
0.0
 13
-8.858520216302494
 23
-38.16539248388434
 33
0.0
  0
MTEXT
  5
66
330
5E
100
AcDbEntity
  8
ADPDIM
  6
Continuous
 62
     0
370
     0
100
AcDbMText
 10
-8.858520216302487
 20
-36.80557332326904
 30
0.0
 40
0.18
 41
0.0
 71
     5
 72
     1
  1
\A1;2 3/4"
 73
     1
 44
1.0
1001
ACAD
1000
MTEXTBEGIN
1070
    73
1070
     1
1070
    44
1040
1.0
1070
    74
1070
     0
1000
MTEXTEND
  0
POINT
  5
67
330
5E
100
AcDbEntity
  8
DEFPOINTS
  6
Continuous
 62
     0
370
     0
100
AcDbPoint
 10
-8.16758016075704
 20
-35.44575416265375
 30
0.0
  0
POINT
  5
68
330
5E
100
AcDbEntity
  8
DEFPOINTS
  6
Continuous
 62
     0
370
     0
100
AcDbPoint
 10
-8.209036617799768
 20
-38.16539248388434
 30
0.0
  0
POINT
  5
69
330
5E
100
AcDbEntity
  8
DEFPOINTS
  6
Continuous
 62
     0
370
     0
100
AcDbPoint
 10
-8.858520216302494
 20
-38.16539248388434
 30
0.0
  0
ENDBLK
  5
6A
330
5E
100
AcDbEntity
  8
0
370
     0
100
AcDbBlockEnd
  0
BLOCK
  5
6D
330
6C
100
AcDbEntity
  8
0
370
     0
100
AcDbBlockBegin
  2
*D2
 70
     1
 10
0.0
 20
0.0
 30
0.0
  3
*D2
  1

  0
LINE
  5
6E
330
6C
100
AcDbEntity
  8
ADPDIM
 62
     0
370
    -2
100
AcDbLine
 10
-4.560354950174841
 20
-34.62861957496061
 30
0.0
 11
-4.560354950174841
 21
-33.65966399230081
 31
0.0
  0
LINE
  5
6F
330
6C
100
AcDbEntity
  8
ADPDIM
 62
     0
370
    -2
100
AcDbLine
 10
-2.564291373758103
 20
-34.62861957496061
 30
0.0
 11
-2.564291373758103
 21
-33.65966399230081
 31
0.0
  0
LINE
  5
70
330
6C
100
AcDbEntity
  8
ADPDIM
 62
     0
370
    -2
100
AcDbLine
 10
-4.380354950174841
 20
-33.83966399230081
 30
0.0
 11
-3.765574646878866
 21
-33.83966399230081
 31
0.0
  0
LINE
  5
71
330
6C
100
AcDbEntity
  8
ADPDIM
 62
     0
370
    -2
100
AcDbLine
 10
-2.744291373758103
 20
-33.83966399230081
 30
0.0
 11
-3.345574646878866
 21
-33.83966399230081
 31
0.0
  0
SOLID
  5
72
330
6C
100
AcDbEntity
  8
ADPDIM
 62
     0
370
     0
100
AcDbTrace
 10
-4.380354950174841
 20
-33.80966399230081
 30
0.0
 11
-4.380354950174841
 21
-33.86966399230081
 31
0.0
 12
-4.560354950174841
 22
-33.83966399230081
 32
0.0
 13
-4.560354950174841
 23
-33.83966399230081
 33
0.0
  0
SOLID
  5
73
330
6C
100
AcDbEntity
  8
ADPDIM
 62
     0
370
     0
100
AcDbTrace
 10
-2.744291373758103
 20
-33.80966399230081
 30
0.0
 11
-2.744291373758103
 21
-33.86966399230081
 31
0.0
 12
-2.564291373758103
 22
-33.83966399230081
 32
0.0
 13
-2.564291373758103
 23
-33.83966399230081
 33
0.0
  0
MTEXT
  5
74
330
6C
100
AcDbEntity
  8
ADPDIM
 62
     0
100
AcDbMText
 10
-3.555574646878866
 20
-33.83966399230081
 30
0.0
 40
0.18
 41
0.0
 71
     5
 72
     1
  1
\A1;2"
 73
     1
 44
1.0
1001
ACAD
1000
MTEXTBEGIN
1070
    73
1070
     1
1070
    44
1040
1.0
1070
    74
1070
     0
1000
MTEXTEND
  0
POINT
  5
75
330
6C
100
AcDbEntity
  8
DEFPOINTS
 62
     0
370
     0
100
AcDbPoint
 10
-4.560354950174841
 20
-34.69111957496061
 30
0.0
  0
POINT
  5
76
330
6C
100
AcDbEntity
  8
DEFPOINTS
 62
     0
370
     0
100
AcDbPoint
 10
-2.564291373758103
 20
-34.69111957496061
 30
0.0
  0
POINT
  5
77
330
6C
100
AcDbEntity
  8
DEFPOINTS
 62
     0
370
     0
100
AcDbPoint
 10
-2.564291373758103
 20
-33.83966399230081
 30
0.0
  0
ENDBLK
  5
78
330
6C
100
AcDbEntity
  8
0
370
     0
100
AcDbBlockEnd
  0
BLOCK
  5
7B
330
7A
100
AcDbEntity
  8
0
370
     0
100
AcDbBlockBegin
  2
*D3
 70
     1
 10
0.0
 20
0.0
 30
0.0
  3
*D3
  1

  0
LINE
  5
7C
330
7A
100
AcDbEntity
  8
ADPDIM
 62
     0
370
    -2
100
AcDbLine
 10
-4.250017722360595
 20
-34.61710562223699
 30
0.0
 11
-4.250017722360595
 21
-34.15926329815501
 31
0.0
  0
LINE
  5
7D
330
7A
100
AcDbEntity
  8
ADPDIM
 62
     0
370
    -2
100
AcDbLine
 10
-2.875017722360595
 20
-34.61710562223699
 30
0.0
 11
-2.875017722360595
 21
-34.15926329815501
 31
0.0
  0
LINE
  5
7E
330
7A
100
AcDbEntity
  8
ADPDIM
 62
     0
370
    -2
100
AcDbLine
 10
-4.430017722360595
 20
-34.33926329815501
 30
0.0
 11
-4.610017722360596
 21
-34.33926329815501
 31
0.0
  0
LINE
  5
7F
330
7A
100
AcDbEntity
  8
ADPDIM
 62
     0
370
    -2
100
AcDbLine
 10
-2.695017722360595
 20
-34.33926329815501
 30
0.0
 11
-2.515017722360596
 21
-34.33926329815501
 31
0.0
  0
SOLID
  5
80
330
7A
100
AcDbEntity
  8
ADPDIM
 62
     0
370
     0
100
AcDbTrace
 10
-4.430017722360595
 20
-34.30926329815501
 30
0.0
 11
-4.430017722360595
 21
-34.36926329815501
 31
0.0
 12
-4.250017722360595
 22
-34.33926329815501
 32
0.0
 13
-4.250017722360595
 23
-34.33926329815501
 33
0.0
  0
SOLID
  5
81
330
7A
100
AcDbEntity
  8
ADPDIM
 62
     0
370
     0
100
AcDbTrace
 10
-2.695017722360595
 20
-34.30926329815501
 30
0.0
 11
-2.695017722360595
 21
-34.36926329815501
 31
0.0
 12
-2.875017722360595
 22
-34.33926329815501
 32
0.0
 13
-2.875017722360595
 23
-34.33926329815501
 33
0.0
  0
MTEXT
  5
82
330
7A
100
AcDbEntity
  8
ADPDIM
 62
     0
100
AcDbMText
 10
-3.517508011380542
 20
-34.33926329815501
 30
0.0
 40
0.18
 41
0.0
 71
     5
 72
     1
  1
\A1;1 3/8"
 73
     1
 44
1.0
1001
ACAD
1000
MTEXTBEGIN
1070
    73
1070
     1
1070
    44
1040
1.0
1070
    74
1070
     0
1000
MTEXTEND
  0
POINT
  5
83
330
7A
100
AcDbEntity
  8
DEFPOINTS
 62
     0
370
     0
100
AcDbPoint
 10
-4.250017722360595
 20
-34.67960562223699
 30
0.0
  0
POINT
  5
84
330
7A
100
AcDbEntity
  8
DEFPOINTS
 62
     0
370
     0
100
AcDbPoint
 10
-2.875017722360595
 20
-34.67960562223699
 30
0.0
  0
POINT
  5
85
330
7A
100
AcDbEntity
  8
DEFPOINTS
 62
     0
370
     0
100
AcDbPoint
 10
-2.875017722360595
 20
-34.33926329815501
 30
0.0
  0
ENDBLK
  5
86
330
7A
100
AcDbEntity
  8
0
370
     0
100
AcDbBlockEnd
  0
BLOCK
  5
89
330
88
100
AcDbEntity
  8
0
370
     0
100
AcDbBlockBegin
  2
*D4
 70
     1
 10
0.0
 20
0.0
 30
0.0
  3
*D4
  1

  0
LINE
  5
8A
330
88
100
AcDbEntity
  8
ADPDIM
 62
     0
370
    -2
100
AcDbLine
 10
-3.550451749094158
 20
-36.80774130516771
 30
0.0
 11
-1.858720599580483
 21
-36.80774130516771
 31
0.0
  0
LINE
  5
8B
330
88
100
AcDbEntity
  8
ADPDIM
 62
     0
370
    -2
100
AcDbLine
 10
-2.632835298117029
 20
-34.64504846149104
 30
0.0
 11
-1.858720599580482
 21
-34.64504846149104
 31
0.0
  0
LINE
  5
8C
330
88
100
AcDbEntity
  8
ADPDIM
 62
     0
370
    -2
100
AcDbLine
 10
-2.038720599580483
 20
-36.62774130516771
 30
0.0
 11
-2.038720599580483
 21
-35.90639488332938
 31
0.0
  0
LINE
  5
8D
330
88
100
AcDbEntity
  8
ADPDIM
 62
     0
370
    -2
100
AcDbLine
 10
-2.038720599580482
 20
-34.82504846149104
 30
0.0
 11
-2.038720599580483
 21
-35.54639488332938
 31
0.0
  0
SOLID
  5
8E
330
88
100
AcDbEntity
  8
ADPDIM
 62
     0
370
     0
100
AcDbTrace
 10
-2.068720599580482
 20
-36.62774130516771
 30
0.0
 11
-2.008720599580483
 21
-36.62774130516771
 31
0.0
 12
-2.038720599580483
 22
-36.80774130516771
 32
0.0
 13
-2.038720599580483
 23
-36.80774130516771
 33
0.0
  0
SOLID
  5
8F
330
88
100
AcDbEntity
  8
ADPDIM
 62
     0
370
     0
100
AcDbTrace
 10
-2.068720599580482
 20
-34.82504846149104
 30
0.0
 11
-2.008720599580482
 21
-34.82504846149104
 31
0.0
 12
-2.038720599580482
 22
-34.64504846149104
 32
0.0
 13
-2.038720599580482
 23
-34.64504846149104
 33
0.0
  0
MTEXT
  5
90
330
88
100
AcDbEntity
  8
ADPDIM
 62
     0
100
AcDbMText
 10
-2.038720599580477
 20
-35.72639488332938
 30
0.0
 40
0.18
 41
0.0
 71
     5
 72
     1
  1
\A1;2 3/16"
 73
     1
 44
1.0
1001
ACAD
1000
MTEXTBEGIN
1070
    73
1070
     1
1070
    44
1040
1.0
1070
    74
1070
     0
1000
MTEXTEND
  0
POINT
  5
91
330
88
100
AcDbEntity
  8
DEFPOINTS
 62
     0
370
     0
100
AcDbPoint
 10
-3.612951749094158
 20
-36.80774130516771
 30
0.0
  0
POINT
  5
92
330
88
100
AcDbEntity
  8
DEFPOINTS
 62
     0
370
     0
100
AcDbPoint
 10
-2.695335298117029
 20
-34.64504846149104
 30
0.0
  0
POINT
  5
93
330
88
100
AcDbEntity
  8
DEFPOINTS
 62
     0
370
     0
100
AcDbPoint
 10
-2.038720599580482
 20
-34.64504846149104
 30
0.0
  0
ENDBLK
  5
94
330
88
100
AcDbEntity
  8
0
370
     0
100
AcDbBlockEnd
  0
BLOCK
  5
97
330
96
100
AcDbEntity
  8
0
370
     0
100
AcDbBlockBegin
  2
*D5
 70
     1
 10
0.0
 20
0.0
 30
0.0
  3
*D5
  1

  0
LINE
  5
98
330
96
100
AcDbEntity
  8
ADPDIM
 62
     0
370
    -2
100
AcDbLine
 10
-4.041049341931602
 20
-37.27842525823276
 30
0.0
 11
-3.861049341931606
 21
-37.27842525823277
 31
0.0
  0
LINE
  5
99
330
96
100
AcDbEntity
  8
ADPDIM
 62
     0
370
    -2
100
AcDbLine
 10
-3.861049341931606
 20
-37.27842525823277
 30
0.0
 11
-3.765282653067087
 21
-37.12601547736576
 31
0.0
  0
MTEXT
  5
9A
102
{ACAD_XDICTIONARY
360
308
102
}
330
96
100
AcDbEntity
  8
ADPDIM
 62
     0
100
AcDbMText
 10
-4.581049341931606
 20
-37.27842525823276
 30
0.0
 40
0.18
 41
0.0
 71
     5
 72
     1
  1
\A1;\U+22057/16"
 73
     1
 44
1.0
1001
ACAD
1000
MTEXTBEGIN
1070
    73
1070
     1
1070
    44
1040
1.0
1070
    74
1070
     0
1000
MTEXTEND
  0
SOLID
  5
9B
330
96
100
AcDbEntity
  8
ADPDIM
 62
     0
370
     0
100
AcDbTrace
 10
-3.790684283211588
 20
-37.11005436255501
 30
0.0
 11
-3.739881022922586
 21
-37.14197659217652
 31
0.0
 12
-3.669515964202572
 22
-36.97360569649877
 32
0.0
 13
-3.669515964202572
 23
-36.97360569649877
 33
0.0
  0
LINE
  5
9C
330
96
100
AcDbEntity
  8
ADPDIM
 62
     0
370
    -2
100
AcDbLine
 10
-3.64815469619854
 20
-36.79637761589156
 30
0.0
 11
-3.468154696198538
 21
-36.79637761589156
 31
0.0
  0
LINE
  5
9D
330
96
100
AcDbEntity
  8
ADPDIM
 62
     0
370
    -2
100
AcDbLine
 10
-3.558154696198537
 20
-36.88637761589156
 30
0.0
 11
-3.55815469619854
 21
-36.70637761589155
 31
0.0
  0
POINT
  5
9E
330
96
100
AcDbEntity
  8
DEFPOINTS
 62
     0
370
     0
100
AcDbPoint
 10
-3.669515964202572
 20
-36.97360569649877
 30
0.0
  0
POINT
  5
9F
330
96
100
AcDbEntity
  8
DEFPOINTS
 62
     0
370
     0
100
AcDbPoint
 10
-3.446793428194506
 20
-36.61914953528434
 30
0.0
  0
ENDBLK
  5
A0
330
96
100
AcDbEntity
  8
0
370
     0
100
AcDbBlockEnd
  0
BLOCK
  5
A3
330
A2
100
AcDbEntity
  8
0
370
     0
100
AcDbBlockBegin
  2
*D6
 70
     1
 10
0.0
 20
0.0
 30
0.0
  3
*D6
  1

  0
LINE
  5
A4
330
A2
100
AcDbEntity
  8
ADPDIM
 62
     0
370
    -2
100
AcDbLine
 10
-5.096356990453429
 20
-37.88693477136946
 30
0.0
 11
-4.916356990453429
 21
-37.88693477136946
 31
0.0
  0
LINE
  5
A5
330
A2
100
AcDbEntity
  8
ADPDIM
 62
     0
370
    -2
100
AcDbLine
 10
-4.916356990453429
 20
-37.88693477136946
 30
0.0
 11
-4.775448395084048
 21
-37.77493134396196
 31
0.0
  0
MTEXT
  5
A6
102
{ACAD_XDICTIONARY
360
30A
102
}
330
A2
100
AcDbEntity
  8
ADPDIM
 62
     0
100
AcDbMText
 10
-5.756356990453433
 20
-37.88693477136946
 30
0.0
 40
0.18
 41
0.0
 71
     5
 72
     1
  1
\A1;\U+22052 3/4"
 73
     1
 44
1.0
1001
ACAD
1000
MTEXTBEGIN
1070
    73
1070
     1
1070
    44
1040
1.0
1070
    74
1070
     0
1000
MTEXTEND
  0
SOLID
  5
A7
330
A2
100
AcDbEntity
  8
ADPDIM
 62
     0
370
     0
100
AcDbTrace
 10
-4.794115632985299
 20
-37.75144657806706
 30
0.0
 11
-4.756781157182796
 21
-37.79841610985686
 31
0.0
 12
-4.634539799714666
 22
-37.66292791655445
 32
0.0
 13
-4.634539799714666
 23
-37.66292791655445
 33
0.0
  0
LINE
  5
A8
330
A2
100
AcDbEntity
  8
ADPDIM
 62
     0
370
    -2
100
AcDbLine
 10
-3.648154696198552
 20
-36.8073461794138
 30
0.0
 11
-3.468154696198553
 21
-36.8073461794138
 31
0.0
  0
LINE
  5
A9
330
A2
100
AcDbEntity
  8
ADPDIM
 62
     0
370
    -2
100
AcDbLine
 10
-3.558154696198549
 20
-36.8973461794138
 30
0.0
 11
-3.558154696198553
 21
-36.7173461794138
 31
0.0
  0
POINT
  5
AA
330
A2
100
AcDbEntity
  8
DEFPOINTS
 62
     0
370
     0
100
AcDbPoint
 10
-4.634539799714666
 20
-37.66292791655445
 30
0.0
  0
POINT
  5
AB
330
A2
100
AcDbEntity
  8
DEFPOINTS
 62
     0
370
     0
100
AcDbPoint
 10
-2.481769592682436
 20
-35.95176444227315
 30
0.0
  0
ENDBLK
  5
AC
330
A2
100
AcDbEntity
  8
0
370
     0
100
AcDbBlockEnd
  0
BLOCK
  5
F0
330
EE
100
AcDbEntity
  8
0
100
AcDbBlockBegin
  2
_Oblique
 70
     0
 10
0.0
 20
0.0
 30
0.0
  3
_Oblique
  1

  0
LINE
  5
EF
330
EE
100
AcDbEntity
  8
0
  6
ByBlock
 62
     0
370
    -2
100
AcDbLine
 10
-0.5
 20
-0.5
 30
0.0
 11
0.5
 21
0.5
 31
0.0
  0
ENDBLK
  5
F1
330
EE
100
AcDbEntity
  8
0
100
AcDbBlockEnd
  0
BLOCK
  5
FD
330
F2
100
AcDbEntity
  8
0
100
AcDbBlockBegin
  2
*D8
 70
     1
 10
0.0
 20
0.0
 30
0.0
  3
*D8
  1

  0
LINE
  5
197
330
F2
100
AcDbEntity
  8
ADPDIM
 62
     0
370
    -2
100
AcDbLine
 10
-3.550451749094158
 20
-36.80774130516771
 30
0.0
 11
-1.858720599580483
 21
-36.80774130516771
 31
0.0
  0
LINE
  5
198
330
F2
100
AcDbEntity
  8
ADPDIM
 62
     0
370
    -2
100
AcDbLine
 10
-2.632835298117029
 20
-34.64504846149104
 30
0.0
 11
-1.858720599580482
 21
-34.64504846149104
 31
0.0
  0
LINE
  5
199
330
F2
100
AcDbEntity
  8
ADPDIM
 62
     0
370
    -2
100
AcDbLine
 10
-2.038720599580483
 20
-36.80774130516771
 30
0.0
 11
-2.038720599580483
 21
-36.19139488332938
 31
0.0
  0
LINE
  5
19A
330
F2
100
AcDbEntity
  8
ADPDIM
 62
     0
370
    -2
100
AcDbLine
 10
-2.038720599580482
 20
-34.64504846149104
 30
0.0
 11
-2.038720599580483
 21
-35.26139488332937
 31
0.0
  0
INSERT
  5
19B
330
F2
100
AcDbEntity
  8
ADPDIM
 62
     0
370
    -2
100
AcDbBlockReference
  2
_Oblique
 10
-2.038720599580483
 20
-36.80774130516771
 30
0.0
 41
0.18
 42
0.18
 43
0.18
 50
270.0
  0
INSERT
  5
19C
330
F2
100
AcDbEntity
  8
ADPDIM
 62
     0
370
    -2
100
AcDbBlockReference
  2
_Oblique
 10
-2.038720599580482
 20
-34.64504846149104
 30
0.0
 41
0.18
 42
0.18
 43
0.18
 50
90.0
  0
MTEXT
  5
19D
330
F2
100
AcDbEntity
  8
ADPDIM
 62
     0
100
AcDbMText
 10
-2.038720599580477
 20
-35.72639488332938
 30
0.0
 40
0.125
 41
0.0
 71
     5
 72
     1
  1
\A1;2 3/16"
 11
0.0000000000000001
 21
1.0
 31
0.0
 73
     1
 44
1.0
1001
ACAD
1000
MTEXTBEGIN
1070
    73
1070
     1
1070
    44
1040
1.0
1070
    74
1070
     0
1000
MTEXTEND
  0
POINT
  5
19E
330
F2
100
AcDbEntity
  8
DEFPOINTS
 62
     0
100
AcDbPoint
 10
-3.612951749094158
 20
-36.80774130516771
 30
0.0
  0
POINT
  5
19F
330
F2
100
AcDbEntity
  8
DEFPOINTS
 62
     0
100
AcDbPoint
 10
-2.695335298117029
 20
-34.64504846149104
 30
0.0
  0
POINT
  5
1A0
330
F2
100
AcDbEntity
  8
DEFPOINTS
 62
     0
100
AcDbPoint
 10
-2.038720599580482
 20
-34.64504846149104
 30
0.0
  0
ENDBLK
  5
FE
330
F2
100
AcDbEntity
  8
0
100
AcDbBlockEnd
  0
BLOCK
  5
10A
330
FF
100
AcDbEntity
  8
0
100
AcDbBlockBegin
  2
*D9
 70
     1
 10
0.0
 20
0.0
 30
0.0
  3
*D9
  1

  0
LINE
  5
265
330
FF
100
AcDbEntity
  8
ADPDIM
  6
Continuous
 62
     0
370
     0
100
AcDbLine
 10
-8.23008016075704
 20
-35.44575416265375
 30
0.0
 11
-9.038520216302492
 21
-35.44575416265375
 31
0.0
  0
LINE
  5
266
330
FF
100
AcDbEntity
  8
ADPDIM
  6
Continuous
 62
     0
370
     0
100
AcDbLine
 10
-8.271536617799768
 20
-38.16539248388434
 30
0.0
 11
-9.038520216302494
 21
-38.16539248388434
 31
0.0
  0
LINE
  5
267
330
FF
100
AcDbEntity
  8
ADPDIM
  6
Continuous
 62
     0
370
     0
100
AcDbLine
 10
-8.858520216302492
 20
-35.44575416265375
 30
0.0
 11
-8.858520216302494
 21
-36.42390665660238
 31
0.0
  0
LINE
  5
268
330
FF
100
AcDbEntity
  8
ADPDIM
  6
Continuous
 62
     0
370
     0
100
AcDbLine
 10
-8.858520216302494
 20
-38.16539248388434
 30
0.0
 11
-8.858520216302494
 21
-37.18723998993571
 31
0.0
  0
INSERT
  5
269
330
FF
100
AcDbEntity
  8
ADPDIM
  6
Continuous
 62
     0
370
     0
100
AcDbBlockReference
  2
_Oblique
 10
-8.858520216302492
 20
-35.44575416265375
 30
0.0
 41
0.18
 42
0.18
 43
0.18
 50
90.0
  0
INSERT
  5
26A
330
FF
100
AcDbEntity
  8
ADPDIM
  6
Continuous
 62
     0
370
     0
100
AcDbBlockReference
  2
_Oblique
 10
-8.858520216302494
 20
-38.16539248388434
 30
0.0
 41
0.18
 42
0.18
 43
0.18
 50
270.0
  0
MTEXT
  5
26B
330
FF
100
AcDbEntity
  8
ADPDIM
  6
Continuous
 62
     0
370
     0
100
AcDbMText
 10
-8.858520216302487
 20
-36.80557332326904
 30
0.0
 40
0.125
 41
0.0
 71
     5
 72
     1
  1
\A1;2 3/4
 11
0.0000000000000001
 21
1.0
 31
0.0
 73
     1
 44
1.0
1001
ACAD
1000
MTEXTBEGIN
1070
    73
1070
     1
1070
    44
1040
1.0
1070
    74
1070
     0
1000
MTEXTEND
  0
POINT
  5
26C
330
FF
100
AcDbEntity
  8
DEFPOINTS
  6
Continuous
 62
     0
100
AcDbPoint
 10
-8.16758016075704
 20
-35.44575416265375
 30
0.0
  0
POINT
  5
26D
330
FF
100
AcDbEntity
  8
DEFPOINTS
  6
Continuous
 62
     0
100
AcDbPoint
 10
-8.209036617799768
 20
-38.16539248388434
 30
0.0
  0
POINT
  5
26E
330
FF
100
AcDbEntity
  8
DEFPOINTS
  6
Continuous
 62
     0
100
AcDbPoint
 10
-8.858520216302494
 20
-38.16539248388434
 30
0.0
  0
ENDBLK
  5
10B
330
FF
100
AcDbEntity
  8
0
100
AcDbBlockEnd
  0
BLOCK
  5
117
330
10C
100
AcDbEntity
  8
0
100
AcDbBlockBegin
  2
*D10
 70
     1
 10
0.0
 20
0.0
 30
0.0
  3
*D10
  1

  0
LINE
  5
2BC
330
10C
100
AcDbEntity
  8
ADPDIM
 62
     0
370
    -2
100
AcDbLine
 10
-4.562925409461699
 20
-34.46684818424085
 30
0.0
 11
-4.562925409461699
 21
-33.49789260158104
 31
0.0
  0
LINE
  5
2BD
330
10C
100
AcDbEntity
  8
ADPDIM
 62
     0
370
    -2
100
AcDbLine
 10
-2.566861833044961
 20
-34.46684818424085
 30
0.0
 11
-2.566861833044961
 21
-33.49789260158104
 31
0.0
  0
LINE
  5
2BE
330
10C
100
AcDbEntity
  8
ADPDIM
 62
     0
370
    -2
100
AcDbLine
 10
-4.562925409461699
 20
-33.67789260158104
 30
0.0
 11
-3.689811772832391
 21
-33.67789260158104
 31
0.0
  0
LINE
  5
2BF
330
10C
100
AcDbEntity
  8
ADPDIM
 62
     0
370
    -2
100
AcDbLine
 10
-2.566861833044961
 20
-33.67789260158104
 30
0.0
 11
-3.426478439499057
 21
-33.67789260158104
 31
0.0
  0
INSERT
  5
2C0
330
10C
100
AcDbEntity
  8
ADPDIM
 62
     0
370
    -2
100
AcDbBlockReference
  2
_Oblique
 10
-4.562925409461699
 20
-33.67789260158104
 30
0.0
 41
0.18
 42
0.18
 43
0.18
 50
180.0
  0
INSERT
  5
2C1
330
10C
100
AcDbEntity
  8
ADPDIM
 62
     0
370
    -2
100
AcDbBlockReference
  2
_Oblique
 10
-2.566861833044961
 20
-33.67789260158104
 30
0.0
 41
0.18
 42
0.18
 43
0.18
  0
MTEXT
  5
2C2
330
10C
100
AcDbEntity
  8
ADPDIM
 62
     0
100
AcDbMText
 10
-3.558145106165724
 20
-33.67789260158104
 30
0.0
 40
0.125
 41
0.0
 71
     5
 72
     1
  1
\A1;2
 73
     1
 44
1.0
1001
ACAD
1000
MTEXTBEGIN
1070
    73
1070
     1
1070
    44
1040
1.0
1070
    74
1070
     0
1000
MTEXTEND
  0
POINT
  5
2C3
330
10C
100
AcDbEntity
  8
DEFPOINTS
 62
     0
100
AcDbPoint
 10
-4.562925409461699
 20
-34.52934818424085
 30
0.0
  0
POINT
  5
2C4
330
10C
100
AcDbEntity
  8
DEFPOINTS
 62
     0
100
AcDbPoint
 10
-2.566861833044961
 20
-34.52934818424085
 30
0.0
  0
POINT
  5
2C5
330
10C
100
AcDbEntity
  8
DEFPOINTS
 62
     0
100
AcDbPoint
 10
-2.566861833044961
 20
-33.67789260158104
 30
0.0
  0
ENDBLK
  5
118
330
10C
100
AcDbEntity
  8
0
100
AcDbBlockEnd
  0
BLOCK
  5
124
330
119
100
AcDbEntity
  8
0
100
AcDbBlockBegin
  2
*D11
 70
     1
 10
0.0
 20
0.0
 30
0.0
  3
*D11
  1

  0
LINE
  5
2C6
330
119
100
AcDbEntity
  8
ADPDIM
 62
     0
370
    -2
100
AcDbLine
 10
-4.252588181647453
 20
-34.45533423151723
 30
0.0
 11
-4.252588181647453
 21
-33.99749190743525
 31
0.0
  0
LINE
  5
2C7
330
119
100
AcDbEntity
  8
ADPDIM
 62
     0
370
    -2
100
AcDbLine
 10
-2.877588181647453
 20
-34.45533423151723
 30
0.0
 11
-2.877588181647453
 21
-33.99749190743525
 31
0.0
  0
LINE
  5
2C8
330
119
100
AcDbEntity
  8
ADPDIM
 62
     0
370
    -2
100
AcDbLine
 10
-4.252588181647453
 20
-34.17749190743525
 30
0.0
 11
-3.880911804000733
 21
-34.17749190743525
 31
0.0
  0
LINE
  5
2C9
330
119
100
AcDbEntity
  8
ADPDIM
 62
     0
370
    -2
100
AcDbLine
 10
-2.877588181647453
 20
-34.17749190743525
 30
0.0
 11
-3.159245137334066
 21
-34.17749190743525
 31
0.0
  0
INSERT
  5
2CA
330
119
100
AcDbEntity
  8
ADPDIM
 62
     0
370
    -2
100
AcDbBlockReference
  2
_Oblique
 10
-4.252588181647453
 20
-34.17749190743525
 30
0.0
 41
0.18
 42
0.18
 43
0.18
 50
180.0
  0
INSERT
  5
2CB
330
119
100
AcDbEntity
  8
ADPDIM
 62
     0
370
    -2
100
AcDbBlockReference
  2
_Oblique
 10
-2.877588181647453
 20
-34.17749190743525
 30
0.0
 41
0.18
 42
0.18
 43
0.18
  0
MTEXT
  5
2CC
330
119
100
AcDbEntity
  8
ADPDIM
 62
     0
100
AcDbMText
 10
-3.520078470667399
 20
-34.17749190743525
 30
0.0
 40
0.125
 41
0.0
 71
     5
 72
     1
  1
\A1;1 3/8
 73
     1
 44
1.0
1001
ACAD
1000
MTEXTBEGIN
1070
    73
1070
     1
1070
    44
1040
1.0
1070
    74
1070
     0
1000
MTEXTEND
  0
POINT
  5
2CD
330
119
100
AcDbEntity
  8
DEFPOINTS
 62
     0
100
AcDbPoint
 10
-4.252588181647453
 20
-34.51783423151723
 30
0.0
  0
POINT
  5
2CE
330
119
100
AcDbEntity
  8
DEFPOINTS
 62
     0
100
AcDbPoint
 10
-2.877588181647453
 20
-34.51783423151723
 30
0.0
  0
POINT
  5
2CF
330
119
100
AcDbEntity
  8
DEFPOINTS
 62
     0
100
AcDbPoint
 10
-2.877588181647453
 20
-34.17749190743525
 30
0.0
  0
ENDBLK
  5
125
330
119
100
AcDbEntity
  8
0
100
AcDbBlockEnd
  0
BLOCK
  5
131
330
126
100
AcDbEntity
  8
0
100
AcDbBlockBegin
  2
*D12
 70
     1
 10
0.0
 20
0.0
 30
0.0
  3
*D12
  1

  0
LINE
  5
25B
330
126
100
AcDbEntity
  8
ADPDIM
 62
     0
370
    -2
100
AcDbLine
 10
-8.199449581572993
 20
-35.24200660118399
 30
0.0
 11
-8.199449581572993
 21
-33.95624210908185
 31
0.0
  0
LINE
  5
25C
330
126
100
AcDbEntity
  8
ADPDIM
 62
     0
370
    -2
100
AcDbLine
 10
-5.702801817017372
 20
-34.36214852784318
 30
0.0
 11
-5.702801817017372
 21
-33.95624210908185
 31
0.0
  0
LINE
  5
25D
330
126
100
AcDbEntity
  8
ADPDIM
 62
     0
370
    -2
100
AcDbLine
 10
-8.199449581572993
 20
-34.13624210908185
 30
0.0
 11
-7.311959032628516
 21
-34.13624210908185
 31
0.0
  0
LINE
  5
25E
330
126
100
AcDbEntity
  8
ADPDIM
 62
     0
370
    -2
100
AcDbLine
 10
-5.702801817017372
 20
-34.13624210908185
 30
0.0
 11
-6.590292365961849
 21
-34.13624210908185
 31
0.0
  0
INSERT
  5
25F
330
126
100
AcDbEntity
  8
ADPDIM
 62
     0
370
    -2
100
AcDbBlockReference
  2
_Oblique
 10
-8.199449581572993
 20
-34.13624210908185
 30
0.0
 41
0.18
 42
0.18
 43
0.18
 50
180.0
  0
INSERT
  5
260
330
126
100
AcDbEntity
  8
ADPDIM
 62
     0
370
    -2
100
AcDbBlockReference
  2
_Oblique
 10
-5.702801817017372
 20
-34.13624210908185
 30
0.0
 41
0.18
 42
0.18
 43
0.18
  0
MTEXT
  5
261
330
126
100
AcDbEntity
  8
ADPDIM
 62
     0
100
AcDbMText
 10
-6.951125699295182
 20
-34.13624210908185
 30
0.0
 40
0.125
 41
0.0
 71
     5
 72
     1
  1
\A1;2 1/2
 73
     1
 44
1.0
1001
ACAD
1000
MTEXTBEGIN
1070
    73
1070
     1
1070
    44
1040
1.0
1070
    74
1070
     0
1000
MTEXTEND
  0
POINT
  5
262
330
126
100
AcDbEntity
  8
DEFPOINTS
 62
     0
100
AcDbPoint
 10
-8.199449581572993
 20
-35.304506601184
 30
0.0
  0
POINT
  5
263
330
126
100
AcDbEntity
  8
DEFPOINTS
 62
     0
100
AcDbPoint
 10
-5.702801817017372
 20
-34.42464852784318
 30
0.0
  0
POINT
  5
264
330
126
100
AcDbEntity
  8
DEFPOINTS
 62
     0
100
AcDbPoint
 10
-5.702801817017372
 20
-34.13624210908185
 30
0.0
  0
ENDBLK
  5
132
330
126
100
AcDbEntity
  8
0
100
AcDbBlockEnd
  0
BLOCK
  5
1B4
330
1AB
100
AcDbEntity
  8
0
100
AcDbBlockBegin
  2
*D13
 70
     1
 10
0.0
 20
0.0
 30
0.0
  3
*D13
  1

  0
LINE
  5
277
330
1AB
100
AcDbEntity
  8
ADPDIM
 62
     0
370
    -2
100
AcDbLine
 10
-4.0410493419316
 20
-37.27842525823277
 30
0.0
 11
-3.861049341931598
 21
-37.27842525823277
 31
0.0
  0
LINE
  5
278
330
1AB
100
AcDbEntity
  8
ADPDIM
 62
     0
370
    -2
100
AcDbLine
 10
-3.861049341931598
 20
-37.27842525823277
 30
0.0
 11
-3.765282653067087
 21
-37.12601547736577
 31
0.0
  0
MTEXT
  5
279
330
1AB
100
AcDbEntity
  8
ADPDIM
 62
     0
100
AcDbMText
 10
-4.401882675264932
 20
-37.27842525823277
 30
0.0
 40
0.125
 41
0.0
 71
     5
 72
     1
  1
\A1;\U+22057/16
 73
     1
 44
1.0
1001
ACAD
1000
MTEXTBEGIN
1070
    73
1070
     1
1070
    44
1040
1.0
1070
    74
1070
     0
1000
MTEXTEND
  0
SOLID
  5
27A
330
1AB
100
AcDbEntity
  8
ADPDIM
 62
     0
100
AcDbTrace
 10
-3.790684283211588
 20
-37.11005436255501
 30
0.0
 11
-3.739881022922585
 21
-37.14197659217652
 31
0.0
 12
-3.669515964202572
 22
-36.97360569649877
 32
0.0
 13
-3.669515964202572
 23
-36.97360569649877
 33
0.0
  0
LINE
  5
27B
330
1AB
100
AcDbEntity
  8
ADPDIM
 62
     0
370
    -2
100
AcDbLine
 10
-3.64815469619854
 20
-36.79637761589155
 30
0.0
 11
-3.468154696198542
 21
-36.79637761589155
 31
0.0
  0
LINE
  5
27C
330
1AB
100
AcDbEntity
  8
ADPDIM
 62
     0
370
    -2
100
AcDbLine
 10
-3.558154696198538
 20
-36.88637761589156
 30
0.0
 11
-3.558154696198537
 21
-36.70637761589154
 31
0.0
  0
POINT
  5
27D
330
1AB
100
AcDbEntity
  8
DEFPOINTS
 62
     0
100
AcDbPoint
 10
-3.669515964202572
 20
-36.97360569649877
 30
0.0
  0
POINT
  5
27E
330
1AB
100
AcDbEntity
  8
DEFPOINTS
 62
     0
100
AcDbPoint
 10
-3.446793428194508
 20
-36.61914953528434
 30
0.0
  0
ENDBLK
  5
1B5
330
1AB
100
AcDbEntity
  8
0
100
AcDbBlockEnd
  0
BLOCK
  5
1BF
330
1B6
100
AcDbEntity
  8
0
100
AcDbBlockBegin
  2
*D14
 70
     1
 10
0.0
 20
0.0
 30
0.0
  3
*D14
  1

  0
LINE
  5
26F
330
1B6
100
AcDbEntity
  8
ADPDIM
 62
     0
370
    -2
100
AcDbLine
 10
-5.096356990453436
 20
-37.88693477136946
 30
0.0
 11
-4.916356990453433
 21
-37.88693477136945
 31
0.0
  0
LINE
  5
270
330
1B6
100
AcDbEntity
  8
ADPDIM
 62
     0
370
    -2
100
AcDbLine
 10
-4.916356990453433
 20
-37.88693477136945
 30
0.0
 11
-4.775448395084051
 21
-37.77493134396195
 31
0.0
  0
MTEXT
  5
271
330
1B6
100
AcDbEntity
  8
ADPDIM
 62
     0
100
AcDbMText
 10
-5.540523657120093
 20
-37.88693477136946
 30
0.0
 40
0.125
 41
0.0
 71
     5
 72
     1
  1
\A1;\U+22052 3/4
 73
     1
 44
1.0
1001
ACAD
1000
MTEXTBEGIN
1070
    73
1070
     1
1070
    44
1040
1.0
1070
    74
1070
     0
1000
MTEXTEND
  0
SOLID
  5
272
330
1B6
100
AcDbEntity
  8
ADPDIM
 62
     0
100
AcDbTrace
 10
-4.794115632985302
 20
-37.75144657806706
 30
0.0
 11
-4.7567811571828
 21
-37.79841610985685
 31
0.0
 12
-4.634539799714669
 22
-37.66292791655445
 32
0.0
 13
-4.634539799714669
 23
-37.66292791655445
 33
0.0
  0
LINE
  5
273
330
1B6
100
AcDbEntity
  8
ADPDIM
 62
     0
370
    -2
100
AcDbLine
 10
-3.648154696198552
 20
-36.8073461794138
 30
0.0
 11
-3.468154696198553
 21
-36.8073461794138
 31
0.0
  0
LINE
  5
274
330
1B6
100
AcDbEntity
  8
ADPDIM
 62
     0
370
    -2
100
AcDbLine
 10
-3.558154696198549
 20
-36.8973461794138
 30
0.0
 11
-3.558154696198549
 21
-36.7173461794138
 31
0.0
  0
POINT
  5
275
330
1B6
100
AcDbEntity
  8
DEFPOINTS
 62
     0
100
AcDbPoint
 10
-4.634539799714669
 20
-37.66292791655445
 30
0.0
  0
POINT
  5
276
330
1B6
100
AcDbEntity
  8
DEFPOINTS
 62
     0
100
AcDbPoint
 10
-2.481769592682432
 20
-35.95176444227315
 30
0.0
  0
ENDBLK
  5
1C0
330
1B6
100
AcDbEntity
  8
0
100
AcDbBlockEnd
  0
BLOCK
  5
1CD
330
1C2
100
AcDbEntity
  8
0
100
AcDbBlockBegin
  2
*D15
 70
     1
 10
0.0
 20
0.0
 30
0.0
  3
*D15
  1

  0
LINE
  5
2DA
330
1C2
100
AcDbEntity
  8
ADP2DETAIL
  6
Continuous
 62
     0
370
     0
100
AcDbLine
 10
-3.495654696198537
 20
-36.8073461794138
 30
0.0
 11
-1.56342227636987
 21
-36.8073461794138
 31
0.0
  0
LINE
  5
2DB
330
1C2
100
AcDbEntity
  8
ADP2DETAIL
  6
Continuous
 62
     0
370
     0
100
AcDbLine
 10
-2.509459674802234
 20
-34.55746525320591
 30
0.0
 11
-1.563422276369869
 21
-34.55746525320591
 31
0.0
  0
LINE
  5
2DC
330
1C2
100
AcDbEntity
  8
ADP2DETAIL
  6
Continuous
 62
     0
370
     0
100
AcDbLine
 10
-1.74342227636987
 20
-36.8073461794138
 30
0.0
 11
-1.743422276369869
 21
-36.04323904964319
 31
0.0
  0
LINE
  5
2DD
330
1C2
100
AcDbEntity
  8
ADP2DETAIL
  6
Continuous
 62
     0
370
     0
100
AcDbLine
 10
-1.743422276369869
 20
-34.55746525320591
 30
0.0
 11
-1.743422276369869
 21
-35.32157238297653
 31
0.0
  0
INSERT
  5
2DE
330
1C2
100
AcDbEntity
  8
ADP2DETAIL
  6
Continuous
 62
     0
370
     0
100
AcDbBlockReference
  2
_Oblique
 10
-1.74342227636987
 20
-36.8073461794138
 30
0.0
 41
0.18
 42
0.18
 43
0.18
 50
270.0
  0
INSERT
  5
2DF
330
1C2
100
AcDbEntity
  8
ADP2DETAIL
  6
Continuous
 62
     0
370
     0
100
AcDbBlockReference
  2
_Oblique
 10
-1.743422276369869
 20
-34.55746525320591
 30
0.0
 41
0.18
 42
0.18
 43
0.18
 50
90.0
  0
MTEXT
  5
2E0
330
1C2
100
AcDbEntity
  8
ADP2DETAIL
  6
Continuous
 62
     0
100
AcDbMText
 10
-1.743422276369864
 20
-35.68240571630986
 30
0.0
 40
0.125
 41
0.0
 71
     5
 72
     1
  1
\A1;2 1/4
 11
0.0000000000000001
 21
1.0
 31
0.0
 73
     1
 44
1.0
1001
ACAD
1000
MTEXTBEGIN
1070
    73
1070
     1
1070
    44
1040
1.0
1070
    74
1070
     0
1000
MTEXTEND
  0
POINT
  5
2E1
330
1C2
100
AcDbEntity
  8
DEFPOINTS
  6
Continuous
 62
     0
100
AcDbPoint
 10
-3.558154696198537
 20
-36.8073461794138
 30
0.0
  0
POINT
  5
2E2
330
1C2
100
AcDbEntity
  8
DEFPOINTS
  6
Continuous
 62
     0
100
AcDbPoint
 10
-2.571959674802234
 20
-34.55746525320591
 30
0.0
  0
POINT
  5
2E3
330
1C2
100
AcDbEntity
  8
DEFPOINTS
  6
Continuous
 62
     0
100
AcDbPoint
 10
-1.743422276369869
 20
-34.55746525320591
 30
0.0
  0
ENDBLK
  5
1CE
330
1C2
100
AcDbEntity
  8
0
100
AcDbBlockEnd
  0
ENDSEC
  0
SECTION
  2
ENTITIES
  0
TEXT
  5
A
330
2
100
AcDbEntity
  8
ADPDIM
 62
     3
100
AcDbText
 10
-12.29745869962871
 20
-39.30344889131799
 30
0.0
 40
0.125
  1
J U L I U S  B L U M  &  C O . ,  I N C .      ( 8 0 0 )  5 2 6 - 6 2 9 3        W W W . J U L I U S B L U M . C O M        P A R T  N O .  1 0 8 8
 41
1.25
  7
ARIAL_WIDE
 72
     1
 11
-5.747535439055724
 21
-39.17844889131798
 31
0.0
100
AcDbText
 73
     3
  0
SPLINE
  5
E
330
2
100
AcDbEntity
  8
ADP1DETAIL
 62
     7
100
AcDbSpline
210
0.0
220
0.0
230
1.0
 70
     8
 71
     3
 72
    23
 73
    19
 74
     0
 42
0.0000000001
 43
0.0000000001
 40
0.0
 40
0.0
 40
0.0
 40
0.0
 40
1.0
 40
1.0
 40
1.0
 40
2.0
 40
2.0
 40
2.0
 40
3.0
 40
3.0
 40
3.0
 40
4.0
 40
4.0
 40
4.0
 40
5.0
 40
5.0
 40
5.0
 40
6.0
 40
6.0
 40
6.0
 40
6.0
 10
-6.648757801800952
 20
-36.29943363802921
 30
0.0
 10
-6.130009968291709
 20
-36.17337098104033
 30
0.0
 10
-5.887339353588114
 20
-35.9039120517266
 30
0.0
 10
-5.680911752768822
 20
-35.51122687520624
 30
0.0
 10
-5.566782565208654
 20
-35.36961679088207
 30
0.0
 10
-5.547844877460732
 20
-35.01488294881561
 30
0.0
 10
-5.547844877460732
 20
-35.01488294881561
 30
0.0
 10
-5.822441251555616
 20
-35.04799146109145
 30
0.0
 10
-6.04495896796871
 20
-34.89190855996501
 30
0.0
 10
-6.04495896796871
 20
-34.89190855996501
 30
0.0
 10
-6.04495896796871
 20
-34.89190855996501
 30
0.0
 10
-6.006783721085078
 20
-35.03407971850332
 30
0.0
 10
-6.30775831464603
 20
-35.35995168681958
 30
0.0
 10
-6.608732908206983
 20
-35.68613881177831
 30
0.0
 10
-7.193978793277861
 20
-35.59379791553396
 30
0.0
 10
-7.292307665729188
 20
-35.57772492676787
 30
0.0
 10
-7.455243649887316
 20
-35.55062145551526
 30
0.0
 10
-7.688774721959218
 20
-35.47908089767407
 30
0.0
 10
-7.948778951998782
 20
-35.44598945021449
 30
0.0
  0
SPLINE
  5
10
330
2
100
AcDbEntity
  8
ADP1DETAIL
 62
     7
100
AcDbSpline
210
0.0
220
0.0
230
1.0
 70
     8
 71
     3
 72
    26
 73
    22
 74
     0
 42
0.0000000001
 43
0.0000000001
 40
0.0
 40
0.0
 40
0.0
 40
0.0
 40
1.0
 40
1.0
 40
1.0
 40
2.0
 40
2.0
 40
2.0
 40
3.0
 40
3.0
 40
3.0
 40
4.0
 40
4.0
 40
4.0
 40
5.0
 40
5.0
 40
5.0
 40
6.0
 40
6.0
 40
6.0
 40
7.0
 40
7.0
 40
7.0
 40
7.0
 10
-7.948778951998782
 20
-35.44598945021449
 30
0.0
 10
-7.948778951998782
 20
-35.44598945021449
 30
0.0
 10
-8.06128987336136
 20
-35.43054677473335
 30
0.0
 10
-8.188613156920128
 20
-35.43054677473335
 30
0.0
 10
-8.188613156920128
 20
-35.43054677473335
 30
0.0
 10
-8.193655663199683
 20
-38.17146409431409
 30
0.0
 10
-8.193655663199683
 20
-38.17146409431409
 30
0.0
 10
-8.193655663199683
 20
-38.17146409431409
 30
0.0
 10
-8.042065318170553
 20
-38.16894284117431
 30
0.0
 10
-8.042065318170553
 20
-38.16894284117431
 30
0.0
 10
-8.042065318170553
 20
-38.16894284117431
 30
0.0
 10
-7.858959308894206
 20
-37.80714301561623
 30
0.0
 10
-7.858959308894206
 20
-37.80714301561623
 30
0.0
 10
-7.858959308894206
 20
-37.80714301561623
 30
0.0
 10
-7.863056345246345
 20
-36.56605615756069
 30
0.0
 10
-7.863056345246345
 20
-36.56605615756069
 30
0.0
 10
-7.863056345246345
 20
-36.56605615756069
 30
0.0
 10
-7.855807742469485
 20
-36.43873287400192
 30
0.0
 10
-7.754012146950962
 20
-36.43873287400192
 30
0.0
 10
-7.651901394789968
 20
-36.43873287400192
 30
0.0
 10
-7.077055678920674
 20
-36.41320518596167
 30
0.0
 10
-6.648757801800952
 20
-36.29943363802921
 30
0.0
  0
SPLINE
  5
11
330
2
100
AcDbEntity
  8
ADP1DETAIL
 62
     7
100
AcDbSpline
210
0.0
220
0.0
230
1.0
 70
     8
 71
     3
 72
    20
 73
    16
 74
     0
 42
0.0000000001
 43
0.0000000001
 40
0.0
 40
0.0
 40
0.0
 40
0.0
 40
1.0
 40
1.0
 40
1.0
 40
2.0
 40
2.0
 40
2.0
 40
3.0
 40
3.0
 40
3.0
 40
4.0
 40
4.0
 40
4.0
 40
5.0
 40
5.0
 40
5.0
 40
5.0
 10
-8.042065318170553
 20
-38.16894284117431
 30
0.0
 10
-8.042065318170553
 20
-38.16894284117431
 30
0.0
 10
-8.041119848243138
 20
-35.79928004642583
 30
0.0
 10
-8.041119848243138
 20
-35.69559351105248
 30
0.0
 10
-8.041119848243138
 20
-35.5922221323216
 30
0.0
 10
-7.893626539566147
 20
-35.52919080382717
 30
0.0
 10
-7.733842121832742
 20
-35.57709461348293
 30
0.0
 10
-7.733842121832742
 20
-35.57709461348293
 30
0.0
 10
-7.391266851465458
 20
-35.73246683822173
 30
0.0
 10
-6.858652125687438
 20
-35.67825989571651
 30
0.0
 10
-6.198083803065704
 20
-35.61081637422745
 30
0.0
 10
-5.997013865168439
 20
-35.05330427369413
 30
0.0
 10
-6.04495896796871
 20
-34.89190855996501
 30
0.0
 10
-6.04495896796871
 20
-34.89190855996501
 30
0.0
 10
-6.04495896796871
 20
-34.89190855996501
 30
0.0
 10
-6.04495896796871
 20
-34.89190855996501
 30
0.0
  0
POLYLINE
  5
12
330
2
100
AcDbEntity
  8
ADP2DETAIL
  6
AI9-LType8
 62
     5
100
AcDb2dPolyline
 66
     1
 10
0.0
 20
0.0
 30
0.0
  0
VERTEX
  5
15
330
12
100
AcDbEntity
  8
ADP2DETAIL
  6
AI9-LType8
 62
     5
100
AcDbVertex
100
AcDb2dVertex
 10
-5.559891602059495
 20
-34.71450739599473
 30
0.0
  0
VERTEX
  5
16
330
12
100
AcDbEntity
  8
ADP2DETAIL
  6
AI9-LType8
 62
     5
100
AcDbVertex
100
AcDb2dVertex
 10
-5.557055192277246
 20
-34.87082509066095
 30
0.0
  0
VERTEX
  5
17
330
12
100
AcDbEntity
  8
ADP2DETAIL
  6
AI9-LType8
 62
     5
100
AcDbVertex
100
AcDb2dVertex
 10
-5.454944440116253
 20
-34.98806336166061
 30
0.0
  0
SEQEND
  5
18
330
12
100
AcDbEntity
  8
ADP2DETAIL
  6
AI9-LType8
 62
     5
  0
SPLINE
  5
19
330
2
100
AcDbEntity
  8
ADP1DETAIL
 62
     7
100
AcDbSpline
210
0.0
220
0.0
230
1.0
 70
    11
 71
     3
 72
    23
 73
    19
 74
     0
 42
0.0000000001
 43
0.0000000001
 40
0.0
 40
0.0
 40
0.0
 40
0.0
 40
1.0
 40
1.0
 40
1.0
 40
2.0
 40
2.0
 40
2.0
 40
3.0
 40
3.0
 40
3.0
 40
4.0
 40
4.0
 40
4.0
 40
5.0
 40
5.0
 40
5.0
 40
6.0
 40
6.0
 40
6.0
 40
6.0
 10
-6.065087699942435
 20
-34.63193635566702
 30
0.0
 10
-5.768210142733621
 20
-34.72112568548666
 30
0.0
 10
-5.51324841897361
 20
-34.73152585468824
 30
0.0
 10
-5.302408625159707
 20
-34.63886980180141
 30
0.0
 10
-5.203764596065909
 20
-34.60924507740902
 30
0.0
 10
-5.21258898205513
 20
-34.70725879321788
 30
0.0
 10
-5.233704477100768
 20
-34.7579990126559
 30
0.0
 10
-5.259862478425961
 20
-34.81976971458045
 30
0.0
 10
-5.378046219353036
 20
-35.0277730986121
 30
0.0
 10
-5.64057170253238
 20
-35.0277730986121
 30
0.0
 10
-5.907194222063862
 20
-35.0277730986121
 30
0.0
 10
-5.991656202246412
 20
-34.93763829886506
 30
0.0
 10
-6.074542399216602
 20
-34.83206082363687
 30
0.0
 10
-6.102591340396627
 20
-34.79676327967999
 30
0.0
 10
-6.119609799090126
 20
-34.75988995251074
 30
0.0
 10
-6.12307652215732
 20
-34.72396209526891
 30
0.0
 10
-6.130009968291709
 20
-34.65084575421535
 30
0.0
 10
-6.077693965641323
 20
-34.62815447595735
 30
0.0
 10
-6.065087699942435
 20
-34.63193635566702
 30
0.0
  0
LINE
  5
1A
330
2
100
AcDbEntity
  8
ADP2DETAIL
  6
AI9-LType2
 62
     5
100
AcDbLine
 10
-8.16434609544977
 20
-36.9754446361321
 30
0.0
 11
-7.892050756353787
 21
-36.9754446361321
 31
0.0
  0
LINE
  5
1C
330
2
100
AcDbEntity
  8
ADP2DETAIL
  6
AI9-LType2
 62
     5
100
AcDbLine
 10
-7.911590468187064
 20
-36.60513558122726
 30
0.0
 11
-8.16434609544977
 21
-36.60513558122726
 31
0.0
  0
POLYLINE
  5
1D
330
2
100
AcDbEntity
  8
ADP2DETAIL
  6
AI9-LType7
 62
     5
100
AcDb2dPolyline
 66
     1
 10
0.0
 20
0.0
 30
0.0
  0
VERTEX
  5
1F
330
1D
100
AcDbEntity
  8
ADP2DETAIL
  6
AI9-LType7
 62
     5
100
AcDbVertex
100
AcDb2dVertex
 10
-5.765688889593843
 20
-34.71419223935226
 30
0.0
  0
VERTEX
  5
20
330
1D
100
AcDbEntity
  8
ADP2DETAIL
  6
AI9-LType7
 62
     5
100
AcDbVertex
100
AcDb2dVertex
 10
-5.765688889593843
 20
-34.86515227109646
 30
0.0
  0
VERTEX
  5
21
330
1D
100
AcDbEntity
  8
ADP2DETAIL
  6
AI9-LType7
 62
     5
100
AcDbVertex
100
AcDb2dVertex
 10
-5.880090750811253
 20
-34.98081475888375
 30
0.0
  0
SEQEND
  5
22
330
1D
100
AcDbEntity
  8
ADP2DETAIL
  6
AI9-LType7
 62
     5
  0
LINE
  5
23
330
2
100
AcDbEntity
  8
ADP2DETAIL
 62
     5
100
AcDbLine
 10
-5.615989484419548
 20
-34.82008487122293
 30
0.0
 11
-5.716209296725708
 21
-34.82008487122293
 31
0.0
  0
SPLINE
  5
24
330
2
100
AcDbEntity
  8
ADP1DETAIL
 62
     7
100
AcDbSpline
210
0.0
220
0.0
230
1.0
 70
     8
 71
     3
 72
    17
 73
    13
 74
     0
 42
0.0000000001
 43
0.0000000001
 40
0.0
 40
0.0
 40
0.0
 40
0.0
 40
1.0
 40
1.0
 40
1.0
 40
2.0
 40
2.0
 40
2.0
 40
3.0
 40
3.0
 40
3.0
 40
4.0
 40
4.0
 40
4.0
 40
4.0
 10
-3.289503149689757
 20
-35.41951629224683
 30
0.0
 10
-2.63555311655994
 20
-35.54589410587818
 30
0.0
 10
-2.142017814448471
 20
-36.11475184554051
 30
0.0
 10
-2.142017814448471
 20
-36.79769628977776
 30
0.0
 10
-2.142017814448471
 20
-37.57329678690185
 30
0.0
 10
-2.778634232242318
 20
-38.20203428863389
 30
0.0
 10
-3.564004585283043
 20
-38.20203428863389
 30
0.0
 10
-4.349690094966242
 20
-38.20203428863389
 30
0.0
 10
-4.985991356117617
 20
-37.57329678690185
 30
0.0
 10
-4.985991356117617
 20
-36.79769628977776
 30
0.0
 10
-4.985991356117617
 20
-36.10907902597601
 30
0.0
 10
-4.484892294586817
 20
-35.53675456324649
 30
0.0
 10
-3.823378502037666
 20
-35.4163647258221
 30
0.0
  0
CIRCLE
  5
25
330
2
100
AcDbEntity
  8
ADP1DETAIL
 62
     7
100
AcDbCircle
 10
-3.564634898567989
 20
-36.7961205065654
 30
0.0
 40
0.1812150694215158
  0
SPLINE
  5
26
330
2
100
AcDbEntity
  8
ADP1DETAIL
 62
     7
100
AcDbSpline
210
0.0
220
0.0
230
1.0
 70
     8
 71
     3
 72
    14
 73
    10
 74
     0
 42
0.0000000001
 43
0.0000000001
 40
0.0
 40
0.0
 40
0.0
 40
0.0
 40
1.0
 40
1.0
 40
1.0
 40
2.0
 40
2.0
 40
2.0
 40
3.0
 40
3.0
 40
3.0
 40
3.0
 10
-2.54699410002525
 20
-36.42707207823046
 30
0.0
 10
-2.65729892489052
 20
-36.25405108151321
 30
0.0
 10
-3.063535837037188
 20
-36.48033355080825
 30
0.0
 10
-3.063535837037188
 20
-36.48033355080825
 30
0.0
 10
-3.296436595824145
 20
-36.44976335648846
 30
0.0
 10
-3.373334816587362
 20
-35.02809174229636
 30
0.0
 10
-3.370116044950947
 20
-34.79757838649307
 30
0.0
 10
-3.370116044950947
 20
-34.79757838649307
 30
0.0
 10
-3.370116044950947
 20
-34.79757838649307
 30
0.0
 10
-3.370116044950947
 20
-34.79757838649307
 30
0.0
  0
LINE
  5
27
330
2
100
AcDbEntity
  8
ADP1DETAIL
 62
     7
100
AcDbLine
 10
-3.564634898567989
 20
-36.72079806901456
 30
0.0
 11
-3.564634898567989
 21
-36.89318875244684
 31
0.0
  0
SPLINE
  5
28
330
2
100
AcDbEntity
  8
ADP1DETAIL
 62
     7
100
AcDbSpline
210
0.0
220
0.0
230
1.0
 70
     8
 71
     3
 72
    17
 73
    13
 74
     0
 42
0.0000000001
 43
0.0000000001
 40
0.0
 40
0.0
 40
0.0
 40
0.0
 40
1.0
 40
1.0
 40
1.0
 40
2.0
 40
2.0
 40
2.0
 40
3.0
 40
3.0
 40
3.0
 40
4.0
 40
4.0
 40
4.0
 40
4.0
 10
-2.54699410002525
 20
-36.42707207823046
 30
0.0
 10
-2.506338893146335
 20
-36.54084362616292
 30
0.0
 10
-2.483962771530809
 20
-36.66375471672708
 30
0.0
 10
-2.483962771530809
 20
-36.79139315692833
 30
0.0
 10
-2.483962771530809
 20
-37.38829983777067
 30
0.0
 10
-2.967413061083167
 20
-37.8720652839655
 30
0.0
 10
-3.564004585283043
 20
-37.8720652839655
 30
0.0
 10
-4.161226422767867
 20
-37.8720652839655
 30
0.0
 10
-4.64436155567775
 20
-37.38829983777067
 30
0.0
 10
-4.64436155567775
 20
-36.79139315692833
 30
0.0
 10
-4.64436155567775
 20
-36.6520939209556
 30
0.0
 10
-4.618203554352558
 20
-36.51878266118987
 30
0.0
 10
-4.569984588054311
 20
-36.39650188391065
 30
0.0
  0
SPLINE
  5
29
330
2
100
AcDbEntity
  8
ADP1DETAIL
 62
     7
100
AcDbSpline
210
0.0
220
0.0
230
1.0
 70
     8
 71
     3
 72
    11
 73
     7
 74
     0
 42
0.0000000001
 43
0.0000000001
 40
0.0
 40
0.0
 40
0.0
 40
0.0
 40
1.0
 40
1.0
 40
1.0
 40
2.0
 40
2.0
 40
2.0
 40
2.0
 10
-3.784025484369649
 20
-34.79757838649307
 30
0.0
 10
-3.784025484369649
 20
-34.79757838649307
 30
0.0
 10
-3.778311102164141
 20
-35.56858538413619
 30
0.0
 10
-3.894603903236383
 20
-35.54557894923571
 30
0.0
 10
-3.894603903236383
 20
-35.54557894923571
 30
0.0
 10
-3.913828458427188
 20
-35.44409851035967
 30
0.0
 10
-3.974653690424323
 20
-35.45512899284619
 30
0.0
  0
SPLINE
  5
2A
330
2
100
AcDbEntity
  8
ADP1DETAIL
 62
     7
100
AcDbSpline
210
0.0
220
0.0
230
1.0
 70
     8
 71
     3
 72
    11
 73
     7
 74
     0
 42
0.0000000001
 43
0.0000000001
 40
0.0
 40
0.0
 40
0.0
 40
0.0
 40
1.0
 40
1.0
 40
1.0
 40
2.0
 40
2.0
 40
2.0
 40
2.0
 10
-3.346171144137471
 20
-34.79757838649307
 30
0.0
 10
-3.346171144137471
 20
-34.79757838649307
 30
0.0
 10
-3.338037272630475
 20
-35.56890054077866
 30
0.0
 10
-3.221429314915761
 20
-35.54557894923571
 30
0.0
 10
-3.221429314915761
 20
-35.54557894923571
 30
0.0
 10
-3.188653024098652
 20
-35.45134711313652
 30
0.0
 10
-3.137597648018155
 20
-35.46237759562305
 30
0.0
  0
SPLINE
  5
2B
330
2
100
AcDbEntity
  8
ADP1DETAIL
 62
     7
100
AcDbSpline
210
0.0
220
0.0
230
1.0
 70
     8
 71
     3
 72
    14
 73
    10
 74
     0
 42
0.0000000001
 43
0.0000000001
 40
0.0
 40
0.0
 40
0.0
 40
0.0
 40
1.0
 40
1.0
 40
1.0
 40
2.0
 40
2.0
 40
2.0
 40
3.0
 40
3.0
 40
3.0
 40
3.0
 10
-4.573136154479033
 20
-36.4062717398273
 30
0.0
 10
-4.448334124060042
 20
-36.20047445229294
 30
0.0
 10
-4.034533452494041
 20
-36.48033355080825
 30
0.0
 10
-4.034533452494041
 20
-36.48033355080825
 30
0.0
 10
-3.802263006992029
 20
-36.45007851313093
 30
0.0
 10
-3.755304667263671
 20
-35.04668598420222
 30
0.0
 10
-3.7510687004382
 20
-34.79757838649307
 30
0.0
 10
-3.7510687004382
 20
-34.79757838649307
 30
0.0
 10
-3.784025484369649
 20
-34.79757838649307
 30
0.0
 10
-3.784025484369649
 20
-34.79757838649307
 30
0.0
  0
SPLINE
  5
2C
330
2
100
AcDbEntity
  8
ADP1DETAIL
 62
     7
100
AcDbSpline
210
0.0
220
0.0
230
1.0
 70
     8
 71
     3
 72
    23
 73
    19
 74
     0
 42
0.0000000001
 43
0.0000000001
 40
0.0
 40
0.0
 40
0.0
 40
0.0
 40
1.0
 40
1.0
 40
1.0
 40
2.0
 40
2.0
 40
2.0
 40
3.0
 40
3.0
 40
3.0
 40
4.0
 40
4.0
 40
4.0
 40
5.0
 40
5.0
 40
5.0
 40
6.0
 40
6.0
 40
6.0
 40
6.0
 10
-3.063535837037188
 20
-36.48033355080825
 30
0.0
 10
-3.063535837037188
 20
-36.48033355080825
 30
0.0
 10
-3.298957848963923
 20
-36.57866242325959
 30
0.0
 10
-3.48616089459241
 20
-36.56763194077305
 30
0.0
 10
-3.499082316933771
 20
-36.56700162748811
 30
0.0
 10
-3.419347686388304
 20
-36.5421042527328
 30
0.0
 10
-3.432899422014608
 20
-36.5071218654184
 30
0.0
 10
-3.448657254138218
 20
-36.48506090044534
 30
0.0
 10
-3.478597135173077
 20
-36.47245463474645
 30
0.0
 10
-3.559592392288433
 20
-36.47245463474645
 30
0.0
 10
-3.640587649403789
 20
-36.47245463474645
 30
0.0
 10
-3.684394422707425
 20
-36.48632152701523
 30
0.0
 10
-3.684394422707425
 20
-36.5036551423512
 30
0.0
 10
-3.684394422707425
 20
-36.5036551423512
 30
0.0
 10
-3.702673507970812
 20
-36.53832237302314
 30
0.0
 10
-3.638381552906484
 20
-36.56479553099082
 30
0.0
 10
-3.919501277991687
 20
-36.56227427785103
 30
0.0
 10
-4.029490946214486
 20
-36.4831699605905
 30
0.0
 10
-4.029490946214486
 20
-36.4831699605905
 30
0.0
  0
SPLINE
  5
2D
330
2
100
AcDbEntity
  8
ADP1DETAIL
 62
     7
100
AcDbSpline
210
0.0
220
0.0
230
1.0
 70
    11
 71
     3
 72
    41
 73
    37
 74
     0
 42
0.0000000001
 43
0.0000000001
 40
0.0
 40
0.0
 40
0.0
 40
0.0
 40
1.0
 40
1.0
 40
1.0
 40
2.0
 40
2.0
 40
2.0
 40
3.0
 40
3.0
 40
3.0
 40
4.0
 40
4.0
 40
4.0
 40
5.0
 40
5.0
 40
5.0
 40
6.0
 40
6.0
 40
6.0
 40
7.0
 40
7.0
 40
7.0
 40
8.0
 40
8.0
 40
8.0
 40
9.0
 40
9.0
 40
9.0
 40
10.0
 40
10.0
 40
10.0
 40
11.0
 40
11.0
 40
11.0
 40
12.0
 40
12.0
 40
12.0
 40
12.0
 10
-4.566124663459897
 20
-34.4839063107543
 30
0.0
 10
-4.566124663459897
 20
-34.4839063107543
 30
0.0
 10
-4.566124663459897
 20
-34.75631361389828
 30
0.0
 10
-4.566124663459897
 20
-34.75631361389828
 30
0.0
 10
-4.566124663459897
 20
-34.77874012074327
 30
0.0
 10
-4.546090317345027
 20
-34.79757838649307
 30
0.0
 10
-4.521271649769891
 20
-34.79757838649307
 30
0.0
 10
-4.521271649769891
 20
-34.79757838649307
 30
0.0
 10
-4.439938184945347
 20
-34.79757838649307
 30
0.0
 10
-4.439938184945347
 20
-34.79757838649307
 30
0.0
 10
-4.390001829703807
 20
-34.7640881362712
 30
0.0
 10
-4.328702710994132
 20
-34.74465183033886
 30
0.0
 10
-4.262320250732923
 20
-34.74465183033886
 30
0.0
 10
-4.195937790471715
 20
-34.74465183033886
 30
0.0
 10
-4.134937691853306
 20
-34.7640881362712
 30
0.0
 10
-4.085001336611767
 20
-34.79757838649307
 30
0.0
 10
-4.085001336611767
 20
-34.79757838649307
 30
0.0
 10
-3.054279082015431
 20
-34.79757838649307
 30
0.0
 10
-3.054279082015431
 20
-34.79757838649307
 30
0.0
 10
-3.004641746865158
 20
-34.7640881362712
 30
0.0
 10
-2.943342628155482
 20
-34.74465183033886
 30
0.0
 10
-2.876960167894274
 20
-34.74465183033886
 30
0.0
 10
-2.810577707633065
 20
-34.74465183033886
 30
0.0
 10
-2.74927858892339
 20
-34.7640881362712
 30
0.0
 10
-2.699641253773117
 20
-34.79757838649307
 30
0.0
 10
-2.699641253773117
 20
-34.79757838649307
 30
0.0
 10
-2.610533266575639
 20
-34.79757838649307
 30
0.0
 10
-2.610533266575639
 20
-34.79757838649307
 30
0.0
 10
-2.585415578909235
 20
-34.79757838649307
 30
0.0
 10
-2.5650822127031
 20
-34.77874012074327
 30
0.0
 10
-2.5650822127031
 20
-34.75631361389828
 30
0.0
 10
-2.5650822127031
 20
-34.75631361389828
 30
0.0
 10
-2.5650822127031
 20
-34.4839063107543
 30
0.0
 10
-2.5650822127031
 20
-34.4839063107543
 30
0.0
 10
-2.5650822127031
 20
-34.4839063107543
 30
0.0
 10
-4.566124663459897
 20
-34.4839063107543
 30
0.0
 10
-4.566124663459897
 20
-34.4839063107543
 30
0.0
  0
LINE
  5
2E
330
2
100
AcDbEntity
  8
ADP2DETAIL
  6
AI9-LType2
100
AcDbLine
 10
-4.572404085376499
 20
-34.55746525320591
 30
0.0
 11
-2.571959674802234
 21
-34.55746525320591
 31
0.0
  0
POLYLINE
  5
2F
330
2
100
AcDbEntity
  8
ADP2DETAIL
  6
AI9-LType2
 62
     5
100
AcDb2dPolyline
 66
     1
 10
0.0
 20
0.0
 30
0.0
  0
VERTEX
  5
30
330
2F
100
AcDbEntity
  8
ADP2DETAIL
  6
AI9-LType2
 62
     5
100
AcDbVertex
100
AcDb2dVertex
 10
-4.376246905505539
 20
-34.56374467512251
 30
0.0
  0
VERTEX
  5
31
330
2F
100
AcDbEntity
  8
ADP2DETAIL
  6
AI9-LType2
 62
     5
100
AcDbVertex
100
AcDb2dVertex
 10
-4.376246905505539
 20
-34.6806615308078
 30
0.0
  0
VERTEX
  5
32
330
2F
100
AcDbEntity
  8
ADP2DETAIL
  6
AI9-LType2
 62
     5
100
AcDbVertex
100
AcDb2dVertex
 10
-4.491070620551953
 20
-34.78501954265987
 30
0.0
  0
SEQEND
  5
33
330
2F
100
AcDbEntity
  8
ADP2DETAIL
  6
AI9-LType2
 62
     5
  0
POLYLINE
  5
34
330
2
100
AcDbEntity
  8
ADP2DETAIL
  6
AI9-LType2
 62
     5
100
AcDb2dPolyline
 66
     1
 10
0.0
 20
0.0
 30
0.0
  0
VERTEX
  5
35
330
34
100
AcDbEntity
  8
ADP2DETAIL
  6
AI9-LType2
 62
     5
100
AcDbVertex
100
AcDb2dVertex
 10
-4.16005537951971
 20
-34.56374467512251
 30
0.0
  0
VERTEX
  5
36
330
34
100
AcDbEntity
  8
ADP2DETAIL
  6
AI9-LType2
 62
     5
100
AcDbVertex
100
AcDb2dVertex
 10
-4.16005537951971
 20
-34.6806615308078
 30
0.0
  0
VERTEX
  5
37
330
34
100
AcDbEntity
  8
ADP2DETAIL
  6
AI9-LType2
 62
     5
100
AcDbVertex
100
AcDb2dVertex
 10
-4.045231664473296
 20
-34.78501954265987
 30
0.0
  0
SEQEND
  5
38
330
34
100
AcDbEntity
  8
ADP2DETAIL
  6
AI9-LType2
 62
     5
  0
LINE
  5
39
330
2
100
AcDbEntity
  8
ADP2DETAIL
  6
AI9-LType2
 62
     5
100
AcDbLine
 10
-4.16005537951971
 20
-34.6806615308078
 30
0.0
 11
-4.376246905505539
 21
-34.6806615308078
 31
0.0
  0
POLYLINE
  5
3A
330
2
100
AcDbEntity
  8
ADP2DETAIL
  6
AI9-LType2
 62
     5
100
AcDb2dPolyline
 66
     1
 10
0.0
 20
0.0
 30
0.0
  0
VERTEX
  5
3B
330
3A
100
AcDbEntity
  8
ADP2DETAIL
  6
AI9-LType2
 62
     5
100
AcDbVertex
100
AcDb2dVertex
 10
-2.767817834581926
 20
-34.56374467512251
 30
0.0
  0
VERTEX
  5
3C
330
3A
100
AcDbEntity
  8
ADP2DETAIL
  6
AI9-LType2
 62
     5
100
AcDbVertex
100
AcDb2dVertex
 10
-2.767817834581926
 20
-34.6806615308078
 30
0.0
  0
VERTEX
  5
3D
330
3A
100
AcDbEntity
  8
ADP2DETAIL
  6
AI9-LType2
 62
     5
100
AcDbVertex
100
AcDb2dVertex
 10
-2.652994119535511
 20
-34.78501954265987
 30
0.0
  0
SEQEND
  5
3E
330
3A
100
AcDbEntity
  8
ADP2DETAIL
  6
AI9-LType2
 62
     5
  0
POLYLINE
  5
3F
330
2
100
AcDbEntity
  8
ADP2DETAIL
  6
AI9-LType2
 62
     5
100
AcDb2dPolyline
 66
     1
 10
0.0
 20
0.0
 30
0.0
  0
VERTEX
  5
40
330
3F
100
AcDbEntity
  8
ADP2DETAIL
  6
AI9-LType2
 62
     5
100
AcDbVertex
100
AcDb2dVertex
 10
-2.984308380659021
 20
-34.56374467512251
 30
0.0
  0
VERTEX
  5
41
330
3F
100
AcDbEntity
  8
ADP2DETAIL
  6
AI9-LType2
 62
     5
100
AcDbVertex
100
AcDb2dVertex
 10
-2.984308380659021
 20
-34.6806615308078
 30
0.0
  0
VERTEX
  5
42
330
3F
100
AcDbEntity
  8
ADP2DETAIL
  6
AI9-LType2
 62
     5
100
AcDbVertex
100
AcDb2dVertex
 10
-3.099132095705437
 20
-34.78501954265987
 30
0.0
  0
SEQEND
  5
43
330
3F
100
AcDbEntity
  8
ADP2DETAIL
  6
AI9-LType2
 62
     5
  0
LINE
  5
44
330
2
100
AcDbEntity
  8
ADP2DETAIL
  6
AI9-LType2
 62
     5
100
AcDbLine
 10
-2.984308380659021
 20
-34.6806615308078
 30
0.0
 11
-2.767817834581926
 21
-34.6806615308078
 31
0.0
  0
LINE
  5
45
330
2
100
AcDbEntity
  8
ADP1DETAIL
 62
     7
100
AcDbLine
 10
-3.659812204594593
 20
-36.79990238627507
 30
0.0
 11
-3.456221013557551
 21
-36.79990238627507
 31
0.0
  0
DIMENSION
  5
46
330
2
100
AcDbEntity
  8
ADPDIM
 62
     3
100
AcDbDimension
  2
*D12
 10
-5.702801817017372
 20
-34.13624210908185
 30
0.0
 11
-6.951125699295182
 21
-34.13624210908185
 31
0.0
 70
    32
 71
     5
 42
2.49664776455562
  3
Standard
100
AcDbAlignedDimension
 13
-8.199449581572993
 23
-35.304506601184
 33
0.0
 14
-5.702801817017372
 24
-34.42464852784318
 34
0.0
100
AcDbRotatedDimension
1001
ACAD
1000
DSTYLE
1002
{
1070
   140
1040
0.125
1070
   343
1005
EE
1070
   173
1070
     1
1070
   344
1005
EE
1070
     3
1000

1070
   276
1070
     2
1070
   277
1070
     5
1002
}
  0
DIMENSION
  5
5D
330
2
100
AcDbEntity
  8
ADPDIM
  6
Continuous
 62
     3
370
     0
100
AcDbDimension
  2
*D9
 10
-8.858520216302494
 20
-38.16539248388434
 30
0.0
 11
-8.858520216302487
 21
-36.80557332326904
 31
0.0
 70
    32
 71
     5
 42
2.71963832123059
  3
Standard
100
AcDbAlignedDimension
 13
-8.16758016075704
 23
-35.44575416265375
 33
0.0
 14
-8.209036617799768
 24
-38.16539248388434
 34
0.0
 50
90.0
100
AcDbRotatedDimension
1001
ACAD
1000
DSTYLE
1002
{
1070
    73
1070
     0
1070
   140
1040
0.125
1070
   343
1005
EE
1070
   173
1070
     1
1070
   344
1005
EE
1070
     3
1000

1070
   276
1070
     2
1070
   277
1070
     5
1070
   278
1070
     0
1070
   371
1070
     0
1070
   372
1070
     0
1002
}
  0
DIMENSION
  5
6B
330
2
100
AcDbEntity
  8
ADPDIM
 62
     3
100
AcDbDimension
  2
*D10
 10
-2.566861833044961
 20
-33.67789260158104
 30
0.0
 11
-3.558145106165724
 21
-33.67789260158104
 31
0.0
 70
   160
 71
     5
 42
1.996063576416737
  3
Standard
100
AcDbAlignedDimension
 13
-4.562925409461699
 23
-34.52934818424085
 33
0.0
 14
-2.566861833044961
 24
-34.52934818424085
 34
0.0
100
AcDbRotatedDimension
1001
ACAD
1000
DSTYLE
1002
{
1070
   140
1040
0.125
1070
   343
1005
EE
1070
   173
1070
     1
1070
   344
1005
EE
1070
     3
1000

1070
   276
1070
     2
1070
   277
1070
     5
1002
}
  0
DIMENSION
  5
79
330
2
100
AcDbEntity
  8
ADPDIM
 62
     3
100
AcDbDimension
  2
*D11
 10
-2.877588181647453
 20
-34.17749190743525
 30
0.0
 11
-3.520078470667399
 21
-34.17749190743525
 31
0.0
 70
   160
 71
     5
 42
1.375
  3
Standard
100
AcDbAlignedDimension
 13
-4.252588181647453
 23
-34.51783423151723
 33
0.0
 14
-2.877588181647453
 24
-34.51783423151723
 34
0.0
100
AcDbRotatedDimension
1001
ACAD
1000
DSTYLE
1002
{
1070
   140
1040
0.125
1070
   343
1005
EE
1070
   173
1070
     1
1070
   344
1005
EE
1070
     3
1000

1070
   276
1070
     2
1070
   277
1070
     5
1002
}
  0
DIMENSION
  5
95
330
2
100
AcDbEntity
  8
ADPDIM
 62
     3
100
AcDbDimension
  2
*D13
 10
-3.446793428194508
 20
-36.61914953528434
 30
0.0
 11
-4.401882675264932
 21
-37.27842525823277
 31
0.0
 70
    35
 71
     5
 42
0.418622142592497
  3
Standard
100
AcDbDiametricDimension
 15
-3.669515964202572
 25
-36.97360569649877
 35
0.0
 40
0.0
1001
ACAD
1000
DSTYLE
1002
{
1070
   140
1040
0.125
1070
     3
1000

1070
   276
1070
     2
1070
   277
1070
     5
1002
}
  0
MTEXT
  5
AD
102
{ACAD_REACTORS
330
AE
102
}
330
2
100
AcDbEntity
  8
ADPDIM
  6
Continuous
 62
     3
370
     0
100
AcDbMText
 10
-6.498778075988361
 20
-35.07489852333767
 30
0.0
 40
0.125
 41
0.0
 71
     9
 72
     1
  1
Ctsk for\P#10 FHMS
 73
     1
 44
1.0
1001
ACAD
1000
MTEXTBEGIN
1070
    73
1070
     1
1070
    44
1040
1.0
1070
    74
1070
     0
1000
MTEXTEND
  0
LEADER
  5
AE
330
2
100
AcDbEntity
  8
ADPDIM
  6
Continuous
 62
     3
370
     0
100
AcDbLeader
  3
Standard
 73
     0
 40
0.3333333333333334
 41
0.9583333333333332
 76
     2
 10
-5.69513240106076
 20
-35.00602156094423
 30
0.0
 10
-6.408778075988362
 20
-34.98489852333766
 30
0.0
340
AD
213
0.0
223
0.09
233
0.0
1001
ACAD
1000
DSTYLE
1002
{
1070
   341
1005
EE
1070
   147
1040
0.09
1070
    77
1070
     0
1070
   278
1070
     0
1070
   371
1070
     0
1070
   372
1070
     0
1002
}
  0
DIMENSION
  5
1C1
330
2
100
AcDbEntity
  8
ADP2DETAIL
  6
Continuous
 62
     3
100
AcDbDimension
  2
*D15
 10
-1.743422276369869
 20
-34.55746525320591
 30
0.0
 11
-1.743422276369864
 21
-35.68240571630986
 31
0.0
 70
    32
 71
     5
 42
2.249880926207886
  3
Standard
100
AcDbAlignedDimension
 13
-3.558154696198537
 23
-36.8073461794138
 33
0.0
 14
-2.571959674802234
 24
-34.55746525320591
 34
0.0
 50
90.0
100
AcDbRotatedDimension
1001
ACAD
1000
DSTYLE
1002
{
1070
   276
1070
     2
1070
   277
1070
     5
1070
    73
1070
     0
1070
   140
1040
0.125
1070
   344
1005
EE
1070
   173
1070
     1
1070
   343
1005
EE
1070
   278
1070
     0
1070
   371
1070
     0
1070
   372
1070
     0
1002
}
  0
ENDSEC
  0
SECTION
  2
OBJECTS
  0
DICTIONARY
  5
8
330
0
100
AcDbDictionary
281
     1
  3
ACAD_COLOR
350
C8
  3
ACAD_GROUP
350
C5
  3
ACAD_LAYOUT
350
B1
  3
ACAD_MATERIAL
350
57
  3
ACAD_MLINESTYLE
350
C6
  3
ACAD_PLOTSETTINGS
350
C7
  3
ACAD_PLOTSTYLENAME
350
7
  3
ACAD_TABLESTYLE
350
E9
  3
ACAD_VISUALSTYLE
350
D8
  3
AcDbVariableDictionary
350
D1
  3
DWGPROPS
350
305
  0
DICTIONARY
  5
B7
330
B6
100
AcDbDictionary
280
     1
281
     1
  3
ACAD_LAYERSTATES
360
B8
  0
DICTIONARY
  5
3
330
2
100
AcDbDictionary
280
     1
281
     1
  0
DICTIONARY
  5
308
330
9A
100
AcDbDictionary
280
     1
281
     1
  3
ACAD_MTEXT_RT
360
309
  0
DICTIONARY
  5
30A
330
A6
100
AcDbDictionary
280
     1
281
     1
  3
ACAD_MTEXT_RT
360
30B
  0
DICTIONARY
  5
C8
102
{ACAD_REACTORS
330
8
102
}
330
8
100
AcDbDictionary
281
     1
  0
DICTIONARY
  5
C5
102
{ACAD_REACTORS
330
8
102
}
330
8
100
AcDbDictionary
281
     1
  0
DICTIONARY
  5
B1
102
{ACAD_REACTORS
330
8
102
}
330
8
100
AcDbDictionary
281
     1
  3
Layout1
350
B5
  3
Model
350
B0
  0
DICTIONARY
  5
57
102
{ACAD_REACTORS
330
8
102
}
330
8
100
AcDbDictionary
281
     1
  3
ByBlock
350
D7
  3
ByLayer
350
D6
  3
Global
350
56
  0
DICTIONARY
  5
C6
102
{ACAD_REACTORS
330
8
102
}
330
8
100
AcDbDictionary
281
     1
  3
Standard
350
C9
  0
DICTIONARY
  5
C7
102
{ACAD_REACTORS
330
8
102
}
330
8
100
AcDbDictionary
281
     1
  0
ACDBDICTIONARYWDFLT
  5
7
102
{ACAD_REACTORS
330
8
102
}
330
8
100
AcDbDictionary
281
     1
  3
Normal
350
6
100
AcDbDictionaryWithDefault
340
6
  0
DICTIONARY
  5
E9
102
{ACAD_REACTORS
330
8
102
}
330
8
100
AcDbDictionary
281
     1
  3
Standard
350
EA
  0
DICTIONARY
  5
D8
102
{ACAD_REACTORS
330
8
102
}
330
8
100
AcDbDictionary
281
     1
  3
2dWireframe
350
DE
  3
3D Hidden
350
E0
  3
3dWireframe
350
DF
  3
Basic
350
DD
  3
Brighten
350
E4
  3
ColorChange
350
E8
  3
Conceptual
350
E1
  3
Dim
350
E3
  3
Facepattern
350
E7
  3
Flat
350
D9
  3
FlatWithEdges
350
DA
  3
Gouraud
350
DB
  3
GouraudWithEdges
350
DC
  3
Linepattern
350
E6
  3
Realistic
350
E2
  3
Thicken
350
E5
  0
DICTIONARY
  5
D1
102
{ACAD_REACTORS
330
8
102
}
330
8
100
AcDbDictionary
281
     1
  3
CTABLESTYLE
350
2BB
  3
DIMASSOC
350
D3
  3
HIDETEXT
350
D2
  3
INDEXCTL
350
304
  3
PROJECTNAME
350
D4
  3
SORTENTS
350
303
  0
XRECORD
  5
305
102
{ACAD_REACTORS
330
8
102
}
330
8
100
AcDbXrecord
280
     1
  1
DWGPROPS COOKIE
  2

  3

  4

  6

  7

  8
John
  9

300
=
301
=
302
=
303
=
304
=
305
=
306
=
307
=
308
=
309
=
 40
0.0770833333333334
 41
2454257.484881181
 42
2455237.688121609
  1

 90
        0
  0
DICTIONARY
  5
B8
102
{ACAD_REACTORS
330
B7
102
}
330
B7
100
AcDbDictionary
281
     1
  0
XRECORD
  5
309
102
{ACAD_REACTORS
330
308
102
}
330
308
100
AcDbXrecord
280
     1
 40
7100.0
  1
\A1;\U+22057/16"
  0
XRECORD
  5
30B
102
{ACAD_REACTORS
330
30A
102
}
330
30A
100
AcDbXrecord
280
     1
 40
7634.0
  1
\A1;\U+22052 3/4"
  0
LAYOUT
  5
B5
102
{ACAD_XDICTIONARY
360
30E
102
}
102
{ACAD_REACTORS
330
B1
102
}
330
B1
100
AcDbPlotSettings
  1

  2

  4

  6

 40
0.0
 41
0.0
 42
0.0
 43
0.0
 44
0.0
 45
0.0
 46
0.0
 47
0.0
 48
0.0
 49
0.0
140
0.0
141
0.0
142
1.0
143
1.0
 70
     0
 72
     0
 73
     0
 74
     0
  7

 75
     0
147
1.0
148
0.0
149
0.0
100
AcDbLayout
  1
Layout1
 70
     0
 71
     1
 10
0.0
 20
0.0
 11
12.0
 21
9.0
 12
0.0
 22
0.0
 32
0.0
 14
1.000000000000000E+20
 24
1.000000000000000E+20
 34
1.000000000000000E+20
 15
-1.000000000000000E+20
 25
-1.000000000000000E+20
 35
-1.000000000000000E+20
146
0.0
 13
0.0
 23
0.0
 33
0.0
 16
1.0
 26
0.0
 36
0.0
 17
0.0
 27
1.0
 37
0.0
 76
     0
330
B2
  0
LAYOUT
  5
B0
102
{ACAD_XDICTIONARY
360
30C
102
}
102
{ACAD_REACTORS
330
B1
102
}
330
B1
100
AcDbPlotSettings
  1

  2

  4

  6

 40
0.0
 41
0.0
 42
0.0
 43
0.0
 44
0.0
 45
0.0
 46
0.0
 47
0.0
 48
0.0
 49
0.0
140
0.0
141
0.0
142
1.0
143
1.0
 70
  1024
 72
     0
 73
     0
 74
     0
  7

 75
     0
147
1.0
148
0.0
149
0.0
100
AcDbLayout
  1
Model
 70
     0
 71
     0
 10
0.0
 20
0.0
 11
0.0
 21
0.0
 12
0.0
 22
0.0
 32
0.0
 14
0.0
 24
0.0
 34
0.0
 15
0.0
 25
0.0
 35
0.0
146
0.0
 13
0.0
 23
0.0
 33
0.0
 16
0.0
 26
0.0
 36
0.0
 17
0.0
 27
0.0
 37
0.0
 76
     0
330
2
331
C1
  0
MATERIAL
  5
D7
102
{ACAD_XDICTIONARY
360
312
102
}
102
{ACAD_REACTORS
330
57
102
}
330
57
100
AcDbMaterial
  1
ByBlock
  0
MATERIAL
  5
D6
102
{ACAD_XDICTIONARY
360
310
102
}
102
{ACAD_REACTORS
330
57
102
}
330
57
100
AcDbMaterial
  1
ByLayer
  0
MATERIAL
  5
56
102
{ACAD_XDICTIONARY
360
306
102
}
102
{ACAD_REACTORS
330
57
102
}
330
57
100
AcDbMaterial
  1
Global
  0
MLINESTYLE
  5
C9
102
{ACAD_REACTORS
330
C6
102
}
330
C6
100
AcDbMlineStyle
  2
STANDARD
 70
     0
  3

 62
     0
 51
90.0
 52
90.0
 71
     2
 49
0.5
 62
   256
  6
BYLAYER
 49
-0.5
 62
   256
  6
BYLAYER
  0
ACDBPLACEHOLDER
  5
6
102
{ACAD_REACTORS
330
7
102
}
330
7
  0
TABLESTYLE
  5
EA
102
{ACAD_XDICTIONARY
360
314
102
}
102
{ACAD_REACTORS
330
E9
102
}
330
E9
100
AcDbTableStyle
  3
Standard
 70
     0
 71
     0
 40
1.5
 41
1.5
280
     0
281
     0
  7
Standard
140
4.5
170
     2
 62
     0
 63
     7
283
     0
274
    -2
284
     1
 64
     0
275
    -2
285
     1
 65
     0
276
    -2
286
     1
 66
     0
277
    -2
287
     1
 67
     0
278
    -2
288
     1
 68
     0
279
    -2
289
     1
 69
     0
  7
Standard
140
6.0
170
     5
 62
     0
 63
     7
283
     0
274
    -2
284
     1
 64
     0
275
    -2
285
     1
 65
     0
276
    -2
286
     1
 66
     0
277
    -2
287
     1
 67
     0
278
    -2
288
     1
 68
     0
279
    -2
289
     1
 69
     0
  7
Standard
140
4.5
170
     5
 62
     0
 63
     7
283
     0
274
    -2
284
     1
 64
     0
275
    -2
285
     1
 65
     0
276
    -2
286
     1
 66
     0
277
    -2
287
     1
 67
     0
278
    -2
288
     1
 68
     0
279
    -2
289
     1
 69
     0
  0
VISUALSTYLE
  5
DE
102
{ACAD_REACTORS
330
D8
102
}
330
D8
100
AcDbVisualStyle
  2
2dWireframe
 70
     4
 71
     0
 72
     2
 73
     0
 90
        0
 40
-0.6
 41
-30.0
 62
     5
 63
     7
 74
     1
 91
        4
 64
     7
 65
   257
 75
     1
175
     1
 42
1.0
 92
        0
 66
   257
 43
1.0
 76
     1
 77
     6
 78
     2
 67
     7
 79
     5
170
     0
171
     0
290
     0
174
     0
 93
        1
 44
0.0
173
     0
291
     0
 45
0.0
1001
ACAD
1000
AcDbSavedByObjectVersion
1070
     0
  0
VISUALSTYLE
  5
E0
102
{ACAD_REACTORS
330
D8
102
}
330
D8
100
AcDbVisualStyle
  2
3D Hidden
 70
     6
 71
     1
 72
     2
 73
     2
 90
        0
 40
-0.6
 41
-30.0
 62
     5
 63
     7
 74
     2
 91
        2
 64
     7
 65
   257
 75
     2
175
     1
 42
40.0
 92
        0
 66
   257
 43
1.0
 76
     1
 77
     6
 78
     2
 67
     7
 79
     3
170
     0
171
     0
290
     0
174
     0
 93
        1
 44
0.0
173
     0
291
     0
 45
0.0
1001
ACAD
1000
AcDbSavedByObjectVersion
1070
     0
  0
VISUALSTYLE
  5
DF
102
{ACAD_REACTORS
330
D8
102
}
330
D8
100
AcDbVisualStyle
  2
3dWireframe
 70
     5
 71
     0
 72
     2
 73
     0
 90
        0
 40
-0.6
 41
-30.0
 62
     5
 63
     7
 74
     1
 91
        4
 64
     7
 65
   257
 75
     1
175
     1
 42
1.0
 92
        0
 66
   257
 43
1.0
 76
     1
 77
     6
 78
     2
 67
     7
 79
     5
170
     0
171
     0
290
     0
174
     0
 93
        1
 44
0.0
173
     0
291
     0
 45
0.0
1001
ACAD
1000
AcDbSavedByObjectVersion
1070
     0
  0
VISUALSTYLE
  5
DD
102
{ACAD_REACTORS
330
D8
102
}
330
D8
100
AcDbVisualStyle
  2
Basic
 70
     7
 71
     1
 72
     0
 73
     1
 90
        0
 40
-0.6
 41
-30.0
 62
     5
 63
     7
 74
     0
 91
        4
 64
     7
 65
   257
 75
     1
175
     1
 42
1.0
 92
        8
 66
     7
 43
1.0
 76
     1
 77
     6
 78
     2
 67
     7
 79
     5
170
     0
171
     0
290
     0
174
     0
 93
        1
 44
0.0
173
     0
291
     1
 45
0.0
1001
ACAD
1000
AcDbSavedByObjectVersion
1070
     0
  0
VISUALSTYLE
  5
E4
102
{ACAD_REACTORS
330
D8
102
}
330
D8
100
AcDbVisualStyle
  2
Brighten
 70
    12
 71
     2
 72
     2
 73
     0
 90
        0
 40
-0.6
 41
-30.0
 62
     5
 63
     7
 74
     1
 91
        4
 64
     7
 65
   257
 75
     1
175
     1
 42
1.0
 92
        8
 66
     7
 43
1.0
 76
     1
 77
     6
 78
     2
 67
     7
 79
     5
170
     0
171
     0
290
     0
174
     0
 93
        1
 44
50.0
173
     0
291
     1
 45
0.0
1001
ACAD
1000
AcDbSavedByObjectVersion
1070
     0
  0
VISUALSTYLE
  5
E8
102
{ACAD_REACTORS
330
D8
102
}
330
D8
100
AcDbVisualStyle
  2
ColorChange
 70
    16
 71
     2
 72
     2
 73
     3
 90
        0
 40
-0.6
 41
-30.0
 62
     5
 63
     8
 74
     1
 91
        4
 64
     7
 65
   257
 75
     1
175
     1
 42
1.0
 92
        8
 66
     8
 43
1.0
 76
     1
 77
     6
 78
     2
 67
     7
 79
     5
170
     0
171
     0
290
     0
174
     0
 93
        1
 44
0.0
173
     0
291
     1
 45
0.0
1001
ACAD
1000
AcDbSavedByObjectVersion
1070
     0
  0
VISUALSTYLE
  5
E1
102
{ACAD_REACTORS
330
D8
102
}
330
D8
100
AcDbVisualStyle
  2
Conceptual
 70
     9
 71
     3
 72
     2
 73
     0
 90
        0
 40
-0.6
 41
-30.0
 62
     5
 63
     7
 74
     2
 91
        2
 64
     7
 65
   257
 75
     1
175
     1
 42
40.0
 92
        8
 66
     7
 43
1.0
 76
     1
 77
     6
 78
     2
 67
     7
 79
     3
170
     0
171
     0
290
     0
174
     0
 93
        1
 44
0.0
173
     0
291
     0
 45
0.0
1001
ACAD
1000
AcDbSavedByObjectVersion
1070
     0
  0
VISUALSTYLE
  5
E3
102
{ACAD_REACTORS
330
D8
102
}
330
D8
100
AcDbVisualStyle
  2
Dim
 70
    11
 71
     2
 72
     2
 73
     0
 90
        0
 40
-0.6
 41
-30.0
 62
     5
 63
     7
 74
     1
 91
        4
 64
     7
 65
   257
 75
     1
175
     1
 42
1.0
 92
        8
 66
     7
 43
1.0
 76
     1
 77
     6
 78
     2
 67
     7
 79
     5
170
     0
171
     0
290
     0
174
     0
 93
        1
 44
-50.0
173
     0
291
     1
 45
0.0
1001
ACAD
1000
AcDbSavedByObjectVersion
1070
     0
  0
VISUALSTYLE
  5
E7
102
{ACAD_REACTORS
330
D8
102
}
330
D8
100
AcDbVisualStyle
  2
Facepattern
 70
    15
 71
     2
 72
     2
 73
     0
 90
        0
 40
-0.6
 41
-30.0
 62
     5
 63
     7
 74
     1
 91
        4
 64
     7
 65
   257
 75
     1
175
     1
 42
1.0
 92
        8
 66
     7
 43
1.0
 76
     1
 77
     6
 78
     2
 67
     7
 79
     5
170
     0
171
     0
290
     0
174
     0
 93
        1
 44
0.0
173
     0
291
     1
 45
0.0
1001
ACAD
1000
AcDbSavedByObjectVersion
1070
     0
  0
VISUALSTYLE
  5
D9
102
{ACAD_REACTORS
330
D8
102
}
330
D8
100
AcDbVisualStyle
  2
Flat
 70
     0
 71
     2
 72
     1
 73
     1
 90
        2
 40
-0.6
 41
30.0
 62
     5
 63
     7
 74
     0
 91
        4
 64
     7
 65
   257
 75
     1
175
     1
 42
1.0
 92
        8
 66
     7
 43
1.0
 76
     1
 77
     6
 78
     2
 67
     7
 79
     5
170
     0
171
     0
290
     0
174
     0
 93
       13
 44
0.0
173
     0
291
     1
 45
0.0
1001
ACAD
1000
AcDbSavedByObjectVersion
1070
     0
  0
VISUALSTYLE
  5
DA
102
{ACAD_REACTORS
330
D8
102
}
330
D8
100
AcDbVisualStyle
  2
FlatWithEdges
 70
     1
 71
     2
 72
     1
 73
     1
 90
        2
 40
-0.6
 41
30.0
 62
     5
 63
     7
 74
     1
 91
        4
 64
     7
 65
   257
 75
     1
175
     1
 42
1.0
 92
        0
 66
   257
 43
1.0
 76
     1
 77
     6
 78
     2
 67
     7
 79
     5
170
     0
171
     0
290
     0
174
     0
 93
       13
 44
0.0
173
     0
291
     1
 45
0.0
1001
ACAD
1000
AcDbSavedByObjectVersion
1070
     0
  0
VISUALSTYLE
  5
DB
102
{ACAD_REACTORS
330
D8
102
}
330
D8
100
AcDbVisualStyle
  2
Gouraud
 70
     2
 71
     2
 72
     2
 73
     1
 90
        2
 40
-0.6
 41
30.0
 62
     5
 63
     7
 74
     0
 91
        4
 64
     7
 65
   257
 75
     1
175
     1
 42
1.0
 92
        0
 66
     7
 43
1.0
 76
     1
 77
     6
 78
     2
 67
     7
 79
     5
170
     0
171
     0
290
     0
174
     0
 93
       13
 44
0.0
173
     0
291
     1
 45
0.0
1001
ACAD
1000
AcDbSavedByObjectVersion
1070
     0
  0
VISUALSTYLE
  5
DC
102
{ACAD_REACTORS
330
D8
102
}
330
D8
100
AcDbVisualStyle
  2
GouraudWithEdges
 70
     3
 71
     2
 72
     2
 73
     1
 90
        2
 40
-0.6
 41
30.0
 62
     5
 63
     7
 74
     1
 91
        4
 64
     7
 65
   257
 75
     1
175
     1
 42
1.0
 92
        0
 66
   257
 43
1.0
 76
     1
 77
     6
 78
     2
 67
     7
 79
     5
170
     0
171
     0
290
     0
174
     0
 93
       13
 44
0.0
173
     0
291
     1
 45
0.0
1001
ACAD
1000
AcDbSavedByObjectVersion
1070
     0
  0
VISUALSTYLE
  5
E6
102
{ACAD_REACTORS
330
D8
102
}
330
D8
100
AcDbVisualStyle
  2
Linepattern
 70
    14
 71
     2
 72
     2
 73
     0
 90
        0
 40
-0.6
 41
-30.0
 62
     5
 63
     7
 74
     1
 91
        4
 64
     7
 65
   257
 75
     7
175
     7
 42
1.0
 92
        8
 66
     7
 43
1.0
 76
     1
 77
     6
 78
     2
 67
     7
 79
     5
170
     0
171
     0
290
     0
174
     0
 93
        1
 44
0.0
173
     0
291
     1
 45
0.0
1001
ACAD
1000
AcDbSavedByObjectVersion
1070
     0
  0
VISUALSTYLE
  5
E2
102
{ACAD_REACTORS
330
D8
102
}
330
D8
100
AcDbVisualStyle
  2
Realistic
 70
     8
 71
     2
 72
     2
 73
     0
 90
        0
 40
-0.6
 41
-30.0
 62
     5
 63
     7
 74
     1
 91
        0
 64
     7
 65
   257
 75
     1
175
     1
 42
1.0
 92
        8
 66
     8
 43
1.0
 76
     1
 77
     6
 78
     2
 67
     7
 79
     5
170
     0
171
     0
290
     0
174
     0
 93
       13
 44
0.0
173
     0
291
     0
 45
0.0
1001
ACAD
1000
AcDbSavedByObjectVersion
1070
     0
  0
VISUALSTYLE
  5
E5
102
{ACAD_REACTORS
330
D8
102
}
330
D8
100
AcDbVisualStyle
  2
Thicken
 70
    13
 71
     2
 72
     2
 73
     0
 90
        0
 40
-0.6
 41
-30.0
 62
     5
 63
     7
 74
     1
 91
        4
 64
     7
 65
   257
 75
     1
175
     1
 42
1.0
 92
       12
 66
     7
 43
1.0
 76
     1
 77
     6
 78
     2
 67
     7
 79
     5
170
     0
171
     0
290
     0
174
     0
 93
        1
 44
0.0
173
     0
291
     1
 45
0.0
1001
ACAD
1000
AcDbSavedByObjectVersion
1070
     0
  0
DICTIONARYVAR
  5
2BB
102
{ACAD_REACTORS
330
D1
102
}
330
D1
100
DictionaryVariables
280
     0
  1
STANDARD
  0
DICTIONARYVAR
  5
D3
102
{ACAD_REACTORS
330
D1
102
}
330
D1
100
DictionaryVariables
280
     0
  1
1
  0
DICTIONARYVAR
  5
D2
102
{ACAD_REACTORS
330
D1
102
}
330
D1
100
DictionaryVariables
280
     0
  1
1
  0
DICTIONARYVAR
  5
304
102
{ACAD_REACTORS
330
D1
102
}
330
D1
100
DictionaryVariables
280
     0
  1
0
  0
DICTIONARYVAR
  5
D4
102
{ACAD_REACTORS
330
D1
102
}
330
D1
100
DictionaryVariables
280
     0
  1

  0
DICTIONARYVAR
  5
303
102
{ACAD_REACTORS
330
D1
102
}
330
D1
100
DictionaryVariables
280
     0
  1
127
  0
DICTIONARY
  5
30E
330
B5
100
AcDbDictionary
280
     1
281
     1
  3
ACAD_XREC_ROUNDTRIP
360
30F
  0
DICTIONARY
  5
30C
330
B0
100
AcDbDictionary
280
     1
281
     1
  3
ACAD_XREC_ROUNDTRIP
360
30D
  0
DICTIONARY
  5
312
330
D7
100
AcDbDictionary
280
     1
281
     1
  3
ACAD_XREC_ROUNDTRIP
360
313
  0
DICTIONARY
  5
310
330
D6
100
AcDbDictionary
280
     1
281
     1
  3
ACAD_XREC_ROUNDTRIP
360
311
  0
DICTIONARY
  5
306
330
56
100
AcDbDictionary
280
     1
281
     1
  3
ACAD_XREC_ROUNDTRIP
360
307
  0
DICTIONARY
  5
314
330
EA
100
AcDbDictionary
280
     1
281
     1
  3
ACAD_XREC_ROUNDTRIP
360
315
  0
XRECORD
  5
30F
102
{ACAD_REACTORS
330
30E
102
}
330
30E
100
AcDbXrecord
280
     1
102
SHADEPLOT
 70
     0
102
SHADEPLOTRESLEVEL
 70
     2
102
SHADEPLOTCUSTOMDPI
 70
   300
  0
XRECORD
  5
30D
102
{ACAD_REACTORS
330
30C
102
}
330
30C
100
AcDbXrecord
280
     1
102
SHADEPLOT
 70
     0
102
SHADEPLOTRESLEVEL
 70
     2
102
SHADEPLOTCUSTOMDPI
 70
   300
  0
XRECORD
  5
313
102
{ACAD_REACTORS
330
312
102
}
330
312
100
AcDbXrecord
280
     1
102
MATERIAL
148
0.0
149
0.0
149
0.0
 93
        0
 94
       63
282
     0
 72
     1
 77
     1
171
     1
175
     1
179
     1
273
     0
  0
XRECORD
  5
311
102
{ACAD_REACTORS
330
310
102
}
330
310
100
AcDbXrecord
280
     1
102
MATERIAL
148
0.0
149
0.0
149
0.0
 93
        0
 94
       63
282
     0
 72
     1
 77
     1
171
     1
175
     1
179
     1
273
     0
  0
XRECORD
  5
307
102
{ACAD_REACTORS
330
306
102
}
330
306
100
AcDbXrecord
280
     1
102
MATERIAL
148
0.0
149
0.0
149
0.0
 93
        0
 94
       63
282
     0
 72
     1
 77
     1
171
     1
175
     1
179
     1
273
     0
  0
XRECORD
  5
315
102
{ACAD_REACTORS
330
314
102
}
330
314
100
AcDbXrecord
280
     1
102
ACAD_ROUNDTRIP_PRE2007_TABLESTYLE
 90
      512
 91
        0
  1

 92
      512
 93
        0
  2

 94
      512
 95
        0
  3

  0
ENDSEC
  0
EOF
