  0
SECTION
  2
HEADER
  9
$ACADVER
  1
AC1014
  9
$ACADMAINTVER
 70
     9
  9
$DWGCODEPAGE
  3
ANSI_1252
  9
$INSBASE
 10
15.58245881884047
 20
0.0186661612189683
 30
0.0
  9
$EXTMIN
 10
9.22139059679851
 20
-0.7238858240650755
 30
0.0
  9
$EXTMAX
 10
18.90974325709864
 20
3.963302752293578
 30
0.0
  9
$LIMMIN
 10
0.0
 20
0.0
  9
$LIMMAX
 10
36.0
 20
36.0
  9
$ORTHOMODE
 70
     1
  9
$REGENMODE
 70
     1
  9
$FILLMODE
 70
     1
  9
$QTEXTMODE
 70
     0
  9
$MIRRTEXT
 70
     1
  9
$DRAGMODE
 70
     0
  9
$LTSCALE
 40
1.0
  9
$OSMODE
 70
    37
  9
$ATTMODE
 70
     1
  9
$TEXTSIZE
 40
0.2
  9
$TRACEWID
 40
0.05
  9
$TEXTSTYLE
  7
STANDARD
  9
$CLAYER
  8
ADPDIM
  9
$CELTYPE
  6
BYLAYER
  9
$CECOLOR
 62
   256
  9
$CELTSCALE
 40
1.0
  9
$DELOBJ
 70
     1
  9
$DISPSILH
 70
     0
  9
$DIMSCALE
 40
1.0
  9
$DIMASZ
 40
0.125
  9
$DIMEXO
 40
0.0625
  9
$DIMDLI
 40
0.38
  9
$DIMRND
 40
0.0
  9
$DIMDLE
 40
0.0
  9
$DIMEXE
 40
0.18
  9
$DIMTP
 40
0.0
  9
$DIMTM
 40
0.0
  9
$DIMTXT
 40
0.125
  9
$DIMCEN
 40
0.1875
  9
$DIMTSZ
 40
0.125
  9
$DIMTOL
 70
     0
  9
$DIMLIM
 70
     0
  9
$DIMTIH
 70
     0
  9
$DIMTOH
 70
     0
  9
$DIMSE1
 70
     0
  9
$DIMSE2
 70
     0
  9
$DIMTAD
 70
     0
  9
$DIMZIN
 70
     3
  9
$DIMBLK
  1

  9
$DIMASO
 70
     1
  9
$DIMSHO
 70
     1
  9
$DIMPOST
  1

  9
$DIMAPOST
  1

  9
$DIMALT
 70
     0
  9
$DIMALTD
 70
     1
  9
$DIMALTF
 40
25.4
  9
$DIMLFAC
 40
1.0
  9
$DIMTOFL
 70
     0
  9
$DIMTVP
 40
0.0
  9
$DIMTIX
 70
     0
  9
$DIMSOXD
 70
     0
  9
$DIMSAH
 70
     0
  9
$DIMBLK1
  1

  9
$DIMBLK2
  1

  9
$DIMSTYLE
  2
STANDARD
  9
$DIMCLRD
 70
     0
  9
$DIMCLRE
 70
     0
  9
$DIMCLRT
 70
     0
  9
$DIMTFAC
 40
1.0
  9
$DIMGAP
 40
0.125
  9
$DIMJUST
 70
     0
  9
$DIMSD1
 70
     0
  9
$DIMSD2
 70
     0
  9
$DIMTOLJ
 70
     1
  9
$DIMTZIN
 70
     3
  9
$DIMALTZ
 70
     3
  9
$DIMALTTZ
 70
     3
  9
$DIMFIT
 70
     5
  9
$DIMUPT
 70
     0
  9
$DIMUNIT
 70
     5
  9
$DIMDEC
 70
     4
  9
$DIMTDEC
 70
     4
  9
$DIMALTU
 70
     5
  9
$DIMALTTD
 70
     1
  9
$DIMTXSTY
  7
STANDARD
  9
$DIMAUNIT
 70
     0
  9
$LUNITS
 70
     5
  9
$LUPREC
 70
     4
  9
$SKETCHINC
 40
0.1
  9
$FILLETRAD
 40
0.0
  9
$AUNITS
 70
     0
  9
$AUPREC
 70
     0
  9
$MENU
  1
acad
  9
$ELEVATION
 40
0.0
  9
$PELEVATION
 40
0.0
  9
$THICKNESS
 40
0.0
  9
$LIMCHECK
 70
     0
  9
$BLIPMODE
 70
     0
  9
$CHAMFERA
 40
0.0
  9
$CHAMFERB
 40
0.0
  9
$CHAMFERC
 40
0.0
  9
$CHAMFERD
 40
0.0
  9
$SKPOLY
 70
     0
  9
$TDCREATE
 40
2450365.669269479
  9
$TDUPDATE
 40
2452297.063531539
  9
$TDINDWG
 40
0.0098908681
  9
$TDUSRTIMER
 40
0.0098908681
  9
$USRTIMER
 70
     1
  9
$ANGBASE
 50
0.0
  9
$ANGDIR
 70
     0
  9
$PDMODE
 70
     0
  9
$PDSIZE
 40
0.0
  9
$PLINEWID
 40
0.0
  9
$COORDS
 70
     2
  9
$SPLFRAME
 70
     0
  9
$SPLINETYPE
 70
     6
  9
$SPLINESEGS
 70
     8
  9
$ATTDIA
 70
     0
  9
$ATTREQ
 70
     1
  9
$HANDLING
 70
 22529
  9
$HANDSEED
  5
19F
  9
$SURFTAB1
 70
     6
  9
$SURFTAB2
 70
     6
  9
$SURFTYPE
 70
     6
  9
$SURFU
 70
     6
  9
$SURFV
 70
     6
  9
$UCSNAME
  2

  9
$UCSORG
 10
0.0
 20
0.0
 30
0.0
  9
$UCSXDIR
 10
1.0
 20
0.0
 30
0.0
  9
$UCSYDIR
 10
0.0
 20
1.0
 30
0.0
  9
$PUCSNAME
  2

  9
$PUCSORG
 10
0.0
 20
0.0
 30
0.0
  9
$PUCSXDIR
 10
1.0
 20
0.0
 30
0.0
  9
$PUCSYDIR
 10
0.0
 20
1.0
 30
0.0
  9
$USERI1
 70
     0
  9
$USERI2
 70
     0
  9
$USERI3
 70
     0
  9
$USERI4
 70
     0
  9
$USERI5
 70
     0
  9
$USERR1
 40
0.0
  9
$USERR2
 40
0.0
  9
$USERR3
 40
0.0
  9
$USERR4
 40
0.0
  9
$USERR5
 40
0.0
  9
$WORLDVIEW
 70
     1
  9
$SHADEDGE
 70
     3
  9
$SHADEDIF
 70
    70
  9
$TILEMODE
 70
     1
  9
$MAXACTVP
 70
    15
  9
$PINSBASE
 10
0.1250045299530032
 20
0.0
 30
0.0
  9
$PLIMCHECK
 70
     0
  9
$PEXTMIN
 10
1.000000000000000E+20
 20
1.000000000000000E+20
 30
1.000000000000000E+20
  9
$PEXTMAX
 10
-1.000000000000000E+20
 20
-1.000000000000000E+20
 30
-1.000000000000000E+20
  9
$PLIMMIN
 10
0.0
 20
0.0
  9
$PLIMMAX
 10
12.0
 20
9.0
  9
$UNITMODE
 70
     0
  9
$VISRETAIN
 70
     0
  9
$PLINEGEN
 70
     0
  9
$PSLTSCALE
 70
     1
  9
$TREEDEPTH
 70
  3020
  9
$PICKSTYLE
 70
     1
  9
$CMLSTYLE
  2
STANDARD
  9
$CMLJUST
 70
     0
  9
$CMLSCALE
 40
1.0
  9
$PROXYGRAPHICS
 70
     1
  9
$MEASUREMENT
 70
     0
  0
ENDSEC
  0
SECTION
  2
CLASSES
  0
CLASS
  1
DICTIONARYVAR
  2
AcDbDictionaryVar
  3
AutoCAD 2000
 90
        0
280
     0
281
     0
  0
CLASS
  1
ACDBDICTIONARYWDFLT
  2
AcDbDictionaryWithDefault
  3
AutoCAD 2000
 90
        0
280
     0
281
     0
  0
CLASS
  1
ACDBPLACEHOLDER
  2
AcDbPlaceHolder
  3
AutoCAD 2000
 90
        0
280
     0
281
     0
  0
CLASS
  1
LAYOUT
  2
AcDbLayout
  3
AutoCAD 2000
 90
        0
280
     0
281
     0
  0
CLASS
  1
LONG_TRANSACTION
  2
AcDbLongTransaction
  3
AutoCAD 2000
 90
        0
280
     0
281
     0
  0
CLASS
  1
LWPOLYLINE
  2
AcDbPolyline
  3
AutoCAD 2000
 90
        0
280
     0
281
     1
  0
CLASS
  1
HATCH
  2
AcDbHatch
  3
AutoCAD 2000
 90
        0
280
     0
281
     1
  0
CLASS
  1
XRECORD
  2
AcDbXrecord
  3
AutoCAD 2000
 90
        0
280
     0
281
     0
  0
CLASS
  1
LONG_TRANSACTION
  2
AcDbLongTransaction
  3
AutoCAD 2000
 90
        0
280
     0
281
     0
  0
CLASS
  1
LWPOLYLINE
  2
AcDbPolyline
  3
AutoCAD 2000
 90
        0
280
     0
281
     1
  0
CLASS
  1
HATCH
  2
AcDbHatch
  3
AutoCAD 2000
 90
        0
280
     0
281
     1
  0
CLASS
  1
XRECORD
  2
AcDbXrecord
  3
AutoCAD 2000
 90
        0
280
     0
281
     0
  0
CLASS
  1
LONG_TRANSACTION
  2
AcDbLongTransaction
  3
AutoCAD 2000
 90
        0
280
     0
281
     0
  0
CLASS
  1
LWPOLYLINE
  2
AcDbPolyline
  3
AutoCAD 2000
 90
        0
280
     0
281
     1
  0
CLASS
  1
HATCH
  2
AcDbHatch
  3
AutoCAD 2000
 90
        0
280
     0
281
     1
  0
CLASS
  1
XRECORD
  2
AcDbXrecord
  3
AutoCAD 2000
 90
        0
280
     0
281
     0
  0
CLASS
  1
LONG_TRANSACTION
  2
AcDbLongTransaction
  3
AutoCAD 2000
 90
        0
280
     0
281
     0
  0
CLASS
  1
LWPOLYLINE
  2
AcDbPolyline
  3
AutoCAD 2000
 90
        0
280
     0
281
     1
  0
CLASS
  1
HATCH
  2
AcDbHatch
  3
AutoCAD 2000
 90
        0
280
     0
281
     1
  0
CLASS
  1
XRECORD
  2
AcDbXrecord
  3
AutoCAD 2000
 90
        0
280
     0
281
     0
  0
CLASS
  1
LONG_TRANSACTION
  2
AcDbLongTransaction
  3
AutoCAD 2000
 90
        0
280
     0
281
     0
  0
CLASS
  1
LWPOLYLINE
  2
AcDbPolyline
  3
AutoCAD 2000
 90
        0
280
     0
281
     1
  0
CLASS
  1
HATCH
  2
AcDbHatch
  3
AutoCAD 2000
 90
        0
280
     0
281
     1
  0
CLASS
  1
XRECORD
  2
AcDbXrecord
  3
AutoCAD 2000
 90
        0
280
     0
281
     0
  0
ENDSEC
  0
SECTION
  2
TABLES
  0
TABLE
  2
VPORT
  5
8
330
0
100
AcDbSymbolTable
 70
     2
  0
VPORT
  5
17B
330
8
100
AcDbSymbolTableRecord
100
AcDbViewportTableRecord
  2
*ACTIVE
 70
     0
 10
0.0
 20
0.0
 11
1.0
 21
1.0
 12
14.06552131947307
 22
1.619827013377144
 13
0.0
 23
0.0
 14
0.5740882589684922
 24
0.5740882589684922
 15
0.5
 25
0.5
 16
0.0
 26
0.0
 36
1.0
 17
0.0
 27
0.0
 37
0.0
 40
6.201264878668126
 41
1.570528967254408
 42
50.0
 43
0.0
 44
0.0
 50
0.0
 51
0.0
 71
     0
 72
   100
 73
     1
 74
     1
 75
     0
 76
     0
 77
     0
 78
     0
  0
ENDTAB
  0
TABLE
  2
LTYPE
  5
5
330
0
100
AcDbSymbolTable
 70
     2
  0
LTYPE
  5
11
330
5
100
AcDbSymbolTableRecord
100
AcDbLinetypeTableRecord
  2
BYBLOCK
 70
     0
  3

 72
    65
 73
     0
 40
0.0
  0
LTYPE
  5
12
330
5
100
AcDbSymbolTableRecord
100
AcDbLinetypeTableRecord
  2
BYLAYER
 70
     0
  3

 72
    65
 73
     0
 40
0.0
  0
LTYPE
  5
13
330
5
100
AcDbSymbolTableRecord
100
AcDbLinetypeTableRecord
  2
CONTINUOUS
 70
     0
  3
Solid line
 72
    65
 73
     0
 40
0.0
  0
LTYPE
  5
1E
330
5
100
AcDbSymbolTableRecord
100
AcDbLinetypeTableRecord
  2
HIDDEN2
 70
     0
  3
_ _ _ _ _ _ _ _ _ _ _ _ _ _ _ _ _ _ _ _ _ _ _ _
 72
    65
 73
     2
 40
0.1875
 49
0.125
 74
     0
 49
-0.0625
 74
     0
  0
ENDTAB
  0
TABLE
  2
LAYER
  5
2
330
0
100
AcDbSymbolTable
 70
     5
  0
LAYER
  5
E
330
2
100
AcDbSymbolTableRecord
100
AcDbLayerTableRecord
  2
0
 70
     0
 62
     7
  6
CONTINUOUS
  0
LAYER
  5
20
330
2
100
AcDbSymbolTableRecord
100
AcDbLayerTableRecord
  2
ADP2DETAIL
 70
     0
 62
     5
  6
CONTINUOUS
  0
LAYER
  5
21
330
2
100
AcDbSymbolTableRecord
100
AcDbLayerTableRecord
  2
ADPDIM
 70
     0
 62
     3
  6
CONTINUOUS
  0
LAYER
  5
22
330
2
100
AcDbSymbolTableRecord
100
AcDbLayerTableRecord
  2
ADP1DETAIL
 70
     0
 62
     7
  6
CONTINUOUS
  0
LAYER
  5
23
330
2
100
AcDbSymbolTableRecord
100
AcDbLayerTableRecord
  2
DEFPOINTS
 70
     0
 62
     7
  6
CONTINUOUS
  0
ENDTAB
  0
TABLE
  2
STYLE
  5
3
330
0
100
AcDbSymbolTable
 70
     2
  0
STYLE
  5
F
330
3
100
AcDbSymbolTableRecord
100
AcDbTextStyleTableRecord
  2
STANDARD
 70
     0
 40
0.0
 41
1.0
 50
0.0
 71
     0
 42
0.2
  3
txt
  4

  0
STYLE
  5
83
330
3
100
AcDbSymbolTableRecord
100
AcDbTextStyleTableRecord
  2
ARIAL_WIDE
 70
     0
 40
0.0
 41
1.25
 50
0.0
 71
     0
 42
0.2
  3
ARIAL.TTF
  4

1001
ACAD
1000
Arial
1071
       34
  0
ENDTAB
  0
TABLE
  2
VIEW
  5
6
330
0
100
AcDbSymbolTable
 70
     0
  0
ENDTAB
  0
TABLE
  2
UCS
  5
7
330
0
100
AcDbSymbolTable
 70
     0
  0
ENDTAB
  0
TABLE
  2
APPID
  5
9
330
0
100
AcDbSymbolTable
 70
     1
  0
APPID
  5
10
330
9
100
AcDbSymbolTableRecord
100
AcDbRegAppTableRecord
  2
ACAD
 70
     0
  0
ENDTAB
  0
TABLE
  2
DIMSTYLE
  5
A
330
0
100
AcDbSymbolTable
 70
     1
  0
DIMSTYLE
105
81
330
A
100
AcDbSymbolTableRecord
100
AcDbDimStyleTableRecord
  2
STANDARD
 70
     0
  3

  4

  5

  6

  7

 40
1.0
 41
0.18
 42
0.0625
 43
0.38
 44
0.18
 45
0.0
 46
0.0
 47
0.0
 48
0.0
140
0.18
141
0.09
142
0.0
143
25.4
144
1.0
145
0.0
146
1.0
147
0.09
 71
     0
 72
     0
 73
     1
 74
     1
 75
     0
 76
     0
 77
     0
 78
     0
170
     0
171
     2
172
     0
173
     0
174
     0
175
     0
176
     0
177
     0
178
     0
270
     2
271
     4
272
     4
273
     2
274
     2
340
F
275
     0
280
     0
281
     0
282
     0
283
     1
284
     0
285
     0
286
     0
287
     3
288
     0
  0
ENDTAB
  0
TABLE
  2
BLOCK_RECORD
  5
1
330
0
100
AcDbSymbolTable
 70
     2
  0
BLOCK_RECORD
  5
17
102
{ACAD_XDICTIONARY
360
BC
102
}
330
1
100
AcDbSymbolTableRecord
100
AcDbBlockTableRecord
  2
*MODEL_SPACE
  0
BLOCK_RECORD
  5
14
102
{ACAD_XDICTIONARY
360
BA
102
}
330
1
100
AcDbSymbolTableRecord
100
AcDbBlockTableRecord
  2
*PAPER_SPACE
  0
BLOCK_RECORD
  5
1C
330
1
100
AcDbSymbolTableRecord
100
AcDbBlockTableRecord
  2
*D0
  0
BLOCK_RECORD
  5
1D
330
1
100
AcDbSymbolTableRecord
100
AcDbBlockTableRecord
  2
*D1
  0
ENDTAB
  0
ENDSEC
  0
SECTION
  2
BLOCKS
  0
BLOCK
  5
26
330
17
100
AcDbEntity
  8
0
100
AcDbBlockBegin
  2
*MODEL_SPACE
 70
     0
 10
0.0
 20
0.0
 30
0.0
  3
*MODEL_SPACE
  1

  0
ENDBLK
  5
27
330
17
100
AcDbEntity
  8
0
100
AcDbBlockEnd
  0
BLOCK
  5
24
330
14
100
AcDbEntity
 67
     1
  8
0
100
AcDbBlockBegin
  2
*PAPER_SPACE
 70
     0
 10
0.0
 20
0.0
 30
0.0
  3
*PAPER_SPACE
  1

  0
ENDBLK
  5
25
330
14
100
AcDbEntity
 67
     1
  8
0
100
AcDbBlockEnd
  0
BLOCK
  5
2A
330
1C
100
AcDbEntity
  8
0
100
AcDbBlockBegin
  2
*D0
 70
     1
 10
0.0
 20
0.0
 30
0.0
  3
*D0
  1
*U
  0
LINE
  5
2B
330
1C
100
AcDbEntity
  8
0
  6
BYBLOCK
 62
     0
100
AcDbLine
 10
12.54867503505668
 20
0.4527877828405894
 30
0.0
 11
12.54867503505668
 21
0.7394226254249164
 31
0.0
  0
LINE
  5
2C
330
1C
100
AcDbEntity
  8
0
  6
BYBLOCK
 62
     0
100
AcDbLine
 10
14.57570206208371
 20
0.4527877828405894
 30
0.0
 11
14.57570206208371
 21
0.7394226254249164
 31
0.0
  0
LINE
  5
2D
330
1C
100
AcDbEntity
  8
0
  6
BYBLOCK
 62
     0
100
AcDbLine
 10
12.54867503505668
 20
0.5594226254249164
 30
0.0
 11
13.39552188190353
 21
0.5594226254249164
 31
0.0
  0
LINE
  5
2E
330
1C
100
AcDbEntity
  8
0
  6
BYBLOCK
 62
     0
100
AcDbLine
 10
14.57570206208371
 20
0.5594226254249164
 30
0.0
 11
13.72885521523686
 21
0.5594226254249164
 31
0.0
  0
LINE
  5
2F
330
1C
100
AcDbEntity
  8
0
  6
BYBLOCK
 62
     0
100
AcDbLine
 10
12.42367503505668
 20
0.4344226254249164
 30
0.0
 11
12.67367503505668
 21
0.6844226254249164
 31
0.0
  0
LINE
  5
30
330
1C
100
AcDbEntity
  8
0
  6
BYBLOCK
 62
     0
100
AcDbLine
 10
14.45070206208371
 20
0.4344226254249164
 30
0.0
 11
14.70070206208371
 21
0.6844226254249164
 31
0.0
  0
TEXT
  5
31
330
1C
100
AcDbEntity
  8
0
  6
BYBLOCK
 62
     0
100
AcDbText
 10
13.52052188190353
 20
0.4969226254249164
 30
0.0
 40
0.125
  1
2
 72
     1
 11
13.56218854857019
 21
0.5594226254249164
 31
0.0
100
AcDbText
 73
     2
  0
POINT
  5
33
330
1C
100
AcDbEntity
  8
DEFPOINTS
  6
BYBLOCK
 62
     0
100
AcDbPoint
 10
12.54867503505668
 20
0.3902877828405893
 30
0.0
  0
POINT
  5
34
330
1C
100
AcDbEntity
  8
DEFPOINTS
  6
BYBLOCK
 62
     0
100
AcDbPoint
 10
14.57570206208371
 20
0.3902877828405893
 30
0.0
  0
POINT
  5
35
330
1C
100
AcDbEntity
  8
DEFPOINTS
  6
BYBLOCK
 62
     0
100
AcDbPoint
 10
14.57570206208371
 20
0.5594226254249164
 30
0.0
  0
ENDBLK
  5
36
330
1C
100
AcDbEntity
  8
0
100
AcDbBlockEnd
  0
BLOCK
  5
37
330
1D
100
AcDbEntity
  8
0
100
AcDbBlockBegin
  2
*D1
 70
     1
 10
0.0
 20
0.0
 30
0.0
  3
*D1
  1
*U
  0
LINE
  5
38
330
1D
100
AcDbEntity
  8
0
  6
BYBLOCK
 62
     0
100
AcDbLine
 10
14.57570206208371
 20
0.4527877828405894
 30
0.0
 11
14.57570206208371
 21
0.7394226254249164
 31
0.0
  0
LINE
  5
39
330
1D
100
AcDbEntity
  8
0
  6
BYBLOCK
 62
     0
100
AcDbLine
 10
15.58245881884047
 20
0.4527877828405894
 30
0.0
 11
15.58245881884047
 21
0.7394226254249164
 31
0.0
  0
LINE
  5
3A
330
1D
100
AcDbEntity
  8
0
  6
BYBLOCK
 62
     0
100
AcDbLine
 10
14.57570206208371
 20
0.5594226254249164
 30
0.0
 11
14.93324710712875
 21
0.5594226254249164
 31
0.0
  0
LINE
  5
3B
330
1D
100
AcDbEntity
  8
0
  6
BYBLOCK
 62
     0
100
AcDbLine
 10
15.58245881884047
 20
0.5594226254249164
 30
0.0
 11
15.22491377379542
 21
0.5594226254249164
 31
0.0
  0
LINE
  5
3C
330
1D
100
AcDbEntity
  8
0
  6
BYBLOCK
 62
     0
100
AcDbLine
 10
14.45070206208371
 20
0.4344226254249164
 30
0.0
 11
14.70070206208371
 21
0.6844226254249164
 31
0.0
  0
LINE
  5
3D
330
1D
100
AcDbEntity
  8
0
  6
BYBLOCK
 62
     0
100
AcDbLine
 10
15.45745881884047
 20
0.4344226254249164
 30
0.0
 11
15.70745881884047
 21
0.6844226254249164
 31
0.0
  0
TEXT
  5
3E
330
1D
100
AcDbEntity
  8
0
  6
BYBLOCK
 62
     0
100
AcDbText
 10
15.05824710712875
 20
0.4969226254249164
 30
0.0
 40
0.125
  1
1
 72
     1
 11
15.07908044046209
 21
0.5594226254249164
 31
0.0
100
AcDbText
 73
     2
  0
POINT
  5
3F
330
1D
100
AcDbEntity
  8
DEFPOINTS
  6
BYBLOCK
 62
     0
100
AcDbPoint
 10
14.57570206208371
 20
0.3902877828405893
 30
0.0
  0
POINT
  5
40
330
1D
100
AcDbEntity
  8
DEFPOINTS
  6
BYBLOCK
 62
     0
100
AcDbPoint
 10
15.58245881884047
 20
0.3902877828405893
 30
0.0
  0
POINT
  5
41
330
1D
100
AcDbEntity
  8
DEFPOINTS
  6
BYBLOCK
 62
     0
100
AcDbPoint
 10
15.58245881884047
 20
0.5594226254249164
 30
0.0
  0
ENDBLK
  5
42
330
1D
100
AcDbEntity
  8
0
100
AcDbBlockEnd
  0
ENDSEC
  0
SECTION
  2
ENTITIES
  0
DIMENSION
  5
43
330
17
100
AcDbEntity
  8
ADPDIM
100
AcDbDimension
  2
*D1
 10
15.58245881884047
 20
0.5594226254249164
 30
0.0
 11
15.07908044046209
 21
0.5594226254249164
 31
0.0
100
AcDbAlignedDimension
 13
14.57570206208371
 23
0.3902877828405893
 33
0.0
 14
15.58245881884047
 24
0.3902877828405893
 34
0.0
100
AcDbRotatedDimension
  0
LINE
  5
44
330
17
100
AcDbEntity
  8
ADP1DETAIL
100
AcDbLine
 10
14.83245881884047
 20
0.0186661612189683
 30
0.0
 11
15.33245881884047
 21
0.0186661612189683
 31
0.0
  0
LINE
  5
45
330
17
100
AcDbEntity
  8
ADP1DETAIL
100
AcDbLine
 10
15.58245881884047
 20
0.3902877828405893
 30
0.0
 11
14.57570206208371
 21
0.3902877828405893
 31
0.0
  0
LINE
  5
46
330
17
100
AcDbEntity
  8
ADP1DETAIL
100
AcDbLine
 10
15.58245881884047
 20
0.3902877828405893
 30
0.0
 11
12.54867503505668
 21
0.3902877828405893
 31
0.0
  0
LINE
  5
47
330
17
100
AcDbEntity
  8
ADP1DETAIL
100
AcDbLine
 10
12.54867503505668
 20
0.0186661612189683
 30
0.0
 11
15.58245881884047
 21
0.0186661612189683
 31
0.0
  0
DIMENSION
  5
48
330
17
100
AcDbEntity
  8
ADPDIM
100
AcDbDimension
  2
*D0
 10
14.57570206208371
 20
0.5594226254249164
 30
0.0
 11
13.56218854857019
 21
0.5594226254249164
 31
0.0
100
AcDbAlignedDimension
 13
12.54867503505668
 23
0.3902877828405893
 33
0.0
 14
14.57570206208371
 24
0.3902877828405893
 34
0.0
100
AcDbRotatedDimension
  0
LINE
  5
49
330
17
100
AcDbEntity
  8
ADP1DETAIL
100
AcDbLine
 10
14.57570206208371
 20
0.1402877828405893
 30
0.0
 11
12.54867503505668
 21
0.1402877828405893
 31
0.0
  0
LINE
  5
4A
330
17
100
AcDbEntity
  8
ADP1DETAIL
100
AcDbLine
 10
13.04867503505668
 20
0.4240715666243736
 30
0.0
 11
13.13651287289452
 21
0.3902877828405893
 31
0.0
  0
LINE
  5
4B
330
17
100
AcDbEntity
  8
ADP1DETAIL
100
AcDbLine
 10
13.13651287289452
 20
0.3902877828405893
 30
0.0
 11
13.00137773775938
 21
0.3902877828405893
 31
0.0
  0
LINE
  5
4C
330
17
100
AcDbEntity
  8
ADP2DETAIL
  6
HIDDEN2
100
AcDbLine
 10
13.17705341343506
 20
0.3362337287865353
 30
0.0
 11
13.06894530532695
 21
0.0186661612189683
 31
0.0
  0
LINE
  5
4D
330
17
100
AcDbEntity
  8
ADP2DETAIL
  6
HIDDEN2
100
AcDbLine
 10
13.00813449451614
 20
0.4038012963541029
 30
0.0
 11
12.88651287289452
 21
0.0524499450027516
 31
0.0
  0
LINE
  5
4E
330
17
100
AcDbEntity
  8
ADP1DETAIL
100
AcDbLine
 10
12.54867503505668
 20
0.3902877828405893
 30
0.0
 11
12.54867503505668
 21
0.0186661612189683
 31
0.0
  0
LINE
  5
4F
330
17
100
AcDbEntity
  8
ADP1DETAIL
100
AcDbLine
 10
12.98110746748911
 20
0.0186661612189683
 30
0.0
 11
13.05543179181344
 21
-0.0083608658080589
 31
0.0
  0
LINE
  5
50
330
17
100
AcDbEntity
  8
ADP1DETAIL
100
AcDbLine
 10
13.05543179181344
 20
-0.0083608658080589
 30
0.0
 11
13.06894530532695
 21
0.0186661612189683
 31
0.0
  0
LINE
  5
51
330
17
100
AcDbEntity
  8
ADP2DETAIL
  6
HIDDEN2
100
AcDbLine
 10
12.88651287289452
 20
0.0524499450027516
 30
0.0
 11
12.98110746748911
 21
0.0186661612189683
 31
0.0
  0
LINE
  5
52
330
17
100
AcDbEntity
  8
ADP1DETAIL
100
AcDbLine
 10
13.00813449451614
 20
0.4038012963541029
 30
0.0
 11
13.04867503505668
 21
0.4240715666243736
 31
0.0
  0
LINE
  5
53
330
17
100
AcDbEntity
  8
ADP1DETAIL
100
AcDbLine
 10
13.00137773775938
 20
0.3902877828405893
 30
0.0
 11
13.00813449451614
 21
0.4038012963541029
 31
0.0
  0
LINE
  5
54
330
17
100
AcDbEntity
  8
ADP1DETAIL
100
AcDbLine
 10
13.00813449451614
 20
0.4038012963541029
 30
0.0
 11
13.00813449451614
 21
0.4038012963541029
 31
0.0
  0
LINE
  5
55
330
17
100
AcDbEntity
  8
ADP2DETAIL
  6
HIDDEN2
100
AcDbLine
 10
13.16353989992155
 20
0.3835310260838332
 30
0.0
 11
13.17705341343506
 21
0.3362337287865353
 31
0.0
  0
LINE
  5
56
330
17
100
AcDbEntity
  8
ADP2DETAIL
  6
HIDDEN2
100
AcDbLine
 10
13.12299935938101
 20
0.3970445395973463
 30
0.0
 11
13.16353989992155
 21
0.3835310260838332
 31
0.0
  0
LINE
  5
57
330
17
100
AcDbEntity
  8
ADP2DETAIL
  6
HIDDEN2
100
AcDbLine
 10
14.02164800802966
 20
0.4038012963541029
 30
0.0
 11
13.90002638640803
 21
0.0524499450027516
 31
0.0
  0
LINE
  5
58
330
17
100
AcDbEntity
  8
ADP2DETAIL
  6
HIDDEN2
100
AcDbLine
 10
14.19056692694858
 20
0.3362337287865353
 30
0.0
 11
14.08245881884047
 21
0.0186661612189683
 31
0.0
  0
LINE
  5
59
330
17
100
AcDbEntity
  8
ADP1DETAIL
100
AcDbLine
 10
14.06894530532695
 20
-0.0083608658080589
 30
0.0
 11
14.08245881884047
 21
0.0186661612189683
 31
0.0
  0
LINE
  5
5A
330
17
100
AcDbEntity
  8
ADP1DETAIL
100
AcDbLine
 10
13.99462098100263
 20
0.0186661612189683
 30
0.0
 11
14.06894530532695
 21
-0.0083608658080589
 31
0.0
  0
LINE
  5
5B
330
17
100
AcDbEntity
  8
ADP2DETAIL
  6
HIDDEN2
100
AcDbLine
 10
13.90002638640803
 20
0.0524499450027516
 30
0.0
 11
13.99462098100263
 21
0.0186661612189683
 31
0.0
  0
LINE
  5
5C
330
17
100
AcDbEntity
  8
ADP1DETAIL
100
AcDbLine
 10
14.05543179181344
 20
0.4240715666243736
 30
0.0
 11
14.15002638640803
 21
0.3902877828405893
 31
0.0
  0
LINE
  5
5D
330
17
100
AcDbEntity
  8
ADP1DETAIL
100
AcDbLine
 10
14.15002638640803
 20
0.3902877828405893
 30
0.0
 11
14.0148912512729
 21
0.3902877828405893
 31
0.0
  0
LINE
  5
5E
330
17
100
AcDbEntity
  8
ADP1DETAIL
100
AcDbLine
 10
14.02164800802966
 20
0.4038012963541029
 30
0.0
 11
14.05543179181344
 21
0.4240715666243736
 31
0.0
  0
LINE
  5
5F
330
17
100
AcDbEntity
  8
ADP1DETAIL
100
AcDbLine
 10
14.0148912512729
 20
0.3902877828405893
 30
0.0
 11
14.02164800802966
 21
0.4038012963541029
 31
0.0
  0
LINE
  5
60
330
17
100
AcDbEntity
  8
ADP1DETAIL
100
AcDbLine
 10
14.02164800802966
 20
0.4038012963541029
 30
0.0
 11
14.02164800802966
 21
0.4038012963541029
 31
0.0
  0
LINE
  5
61
330
17
100
AcDbEntity
  8
ADP2DETAIL
  6
HIDDEN2
100
AcDbLine
 10
14.17705341343506
 20
0.3835310260838332
 30
0.0
 11
14.19056692694858
 21
0.3362337287865353
 31
0.0
  0
LINE
  5
62
330
17
100
AcDbEntity
  8
ADP2DETAIL
  6
HIDDEN2
100
AcDbLine
 10
14.13651287289452
 20
0.3970445395973463
 30
0.0
 11
14.17705341343506
 21
0.3835310260838332
 31
0.0
  0
LINE
  5
63
330
17
100
AcDbEntity
  8
ADP2DETAIL
  6
HIDDEN2
100
AcDbLine
 10
15.17029665667831
 20
0.0186661612189683
 30
0.0
 11
15.17029665667831
 21
0.3902877828405893
 31
0.0
  0
LINE
  5
64
330
17
100
AcDbEntity
  8
ADP2DETAIL
  6
HIDDEN2
100
AcDbLine
 10
14.98786422424587
 20
0.3970445395973463
 30
0.0
 11
14.98786422424587
 21
0.0186661612189683
 31
0.0
  0
LINE
  5
65
330
17
100
AcDbEntity
  8
ADP1DETAIL
100
AcDbLine
 10
14.83245881884047
 20
0.1335310260838327
 30
0.0
 11
14.83245881884047
 21
0.0186661612189683
 31
0.0
  0
LINE
  5
66
330
17
100
AcDbEntity
  8
ADP1DETAIL
100
AcDbLine
 10
14.57570206208371
 20
0.3902877828405893
 30
0.0
 11
14.57570206208371
 21
0.1335310260838327
 31
0.0
  0
LINE
  5
67
330
17
100
AcDbEntity
  8
ADP1DETAIL
100
AcDbLine
 10
14.57570206208371
 20
0.1335310260838327
 30
0.0
 11
14.83245881884047
 21
0.1335310260838327
 31
0.0
  0
LINE
  5
68
330
17
100
AcDbEntity
  8
ADP1DETAIL
100
AcDbLine
 10
15.17029665667831
 20
0.3902877828405893
 30
0.0
 11
15.14326962965128
 21
0.4240715666243736
 31
0.0
  0
LINE
  5
69
330
17
100
AcDbEntity
  8
ADP1DETAIL
100
AcDbLine
 10
15.0148912512729
 20
0.4240715666243736
 30
0.0
 11
14.98786422424587
 21
0.3970445395973463
 31
0.0
  0
LINE
  5
6A
330
17
100
AcDbEntity
  8
ADP1DETAIL
100
AcDbLine
 10
15.14326962965128
 20
0.4240715666243736
 30
0.0
 11
15.0148912512729
 21
0.4240715666243736
 31
0.0
  0
LINE
  5
6B
330
17
100
AcDbEntity
  8
ADP1DETAIL
100
AcDbLine
 10
15.58245881884047
 20
0.0186661612189683
 30
0.0
 11
15.58245881884047
 21
0.3902877828405893
 31
0.0
  0
LINE
  5
6C
330
17
100
AcDbEntity
  8
ADP1DETAIL
100
AcDbLine
 10
15.33245881884047
 20
0.0186661612189683
 30
0.0
 11
15.33245881884047
 21
0.1335310260838327
 31
0.0
  0
LINE
  5
6D
330
17
100
AcDbEntity
  8
ADP1DETAIL
100
AcDbLine
 10
15.58245881884047
 20
0.0186661612189683
 30
0.0
 11
15.58245881884047
 21
0.0186661612189683
 31
0.0
  0
LINE
  5
6E
330
17
100
AcDbEntity
  8
ADP1DETAIL
100
AcDbLine
 10
15.33245881884047
 20
0.1335310260838327
 30
0.0
 11
15.58245881884047
 21
0.1335310260838327
 31
0.0
  0
LINE
  5
6F
330
17
100
AcDbEntity
  8
ADP1DETAIL
100
AcDbLine
 10
15.58245881884047
 20
0.3902877828405893
 30
0.0
 11
15.58245881884047
 21
0.3902877828405893
 31
0.0
  0
LINE
  5
70
330
17
100
AcDbEntity
  8
ADP1DETAIL
100
AcDbLine
 10
15.58245881884047
 20
0.1335310260838327
 30
0.0
 11
15.58245881884047
 21
0.3902877828405893
 31
0.0
  0
CIRCLE
  5
71
330
17
100
AcDbEntity
  8
ADP1DETAIL
100
AcDbCircle
 10
15.10610746748912
 20
1.459079779320604
 30
0.0
 40
0.09375
  0
LINE
  5
72
330
17
100
AcDbEntity
  8
ADP2DETAIL
  6
HIDDEN2
100
AcDbLine
 10
12.54191827829993
 20
3.720059509050334
 30
0.0
 11
15.33921557559722
 21
3.720059509050334
 31
0.0
  0
LINE
  5
73
330
17
100
AcDbEntity
  8
ADP1DETAIL
100
AcDbLine
 10
14.58245881884047
 20
0.9227622117530351
 30
0.0
 11
15.58245881884047
 21
0.9227622117530351
 31
0.0
  0
LINE
  5
74
330
17
100
AcDbEntity
  8
ADP1DETAIL
100
AcDbLine
 10
12.54191827829993
 20
3.963302752293578
 30
0.0
 11
15.58245881884047
 21
3.963302752293578
 31
0.0
  0
LINE
  5
75
330
17
100
AcDbEntity
  8
ADP1DETAIL
100
AcDbLine
 10
12.54191827829993
 20
2.963302752293578
 30
0.0
 11
12.54191827829993
 21
3.963302752293578
 31
0.0
  0
LINE
  5
76
330
17
100
AcDbEntity
  8
ADP2DETAIL
  6
HIDDEN2
100
AcDbLine
 10
12.54191827829993
 20
3.213302752293578
 30
0.0
 11
14.83245881884047
 21
3.213302752293578
 31
0.0
  0
LINE
  5
77
330
17
100
AcDbEntity
  8
ADP1DETAIL
100
AcDbLine
 10
14.58245881884047
 20
2.963302752293578
 30
0.0
 11
12.54191827829993
 21
2.963302752293578
 31
0.0
  0
CIRCLE
  5
78
330
17
100
AcDbEntity
  8
ADP1DETAIL
100
AcDbCircle
 10
13.0782358458675
 20
3.486951400942226
 30
0.0
 40
0.09375
  0
LINE
  5
79
330
17
100
AcDbEntity
  8
ADP2DETAIL
  6
HIDDEN2
100
AcDbLine
 10
14.83245881884047
 20
0.9227622117530351
 30
0.0
 11
14.83245881884047
 21
3.213302752293575
 31
0.0
  0
LINE
  5
7A
330
17
100
AcDbEntity
  8
ADP1DETAIL
100
AcDbLine
 10
14.58245881884047
 20
2.963302752293575
 30
0.0
 11
14.58245881884047
 21
0.9227622117530351
 31
0.0
  0
CIRCLE
  5
7B
330
17
100
AcDbEntity
  8
ADP1DETAIL
100
AcDbCircle
 10
14.07485746748912
 20
3.470059509050335
 30
0.0
 40
0.09375
  0
CIRCLE
  5
7C
330
17
100
AcDbEntity
  8
ADP1DETAIL
100
AcDbCircle
 10
15.08921557559722
 20
2.455701400942225
 30
0.0
 40
0.09375
  0
LINE
  5
7D
330
17
100
AcDbEntity
  8
ADP1DETAIL
100
AcDbLine
 10
14.58245881884047
 20
2.963302752293575
 30
0.0
 11
14.58245881884047
 21
2.963302752293575
 31
0.0
  0
LINE
  5
7E
330
17
100
AcDbEntity
  8
ADP1DETAIL
100
AcDbLine
 10
14.58245881884047
 20
2.963302752293578
 30
0.0
 11
14.58245881884047
 21
2.963302752293578
 31
0.0
  0
LINE
  5
7F
330
17
100
AcDbEntity
  8
ADP2DETAIL
  6
HIDDEN2
100
AcDbLine
 10
15.33921557559723
 20
0.9227622117530351
 30
0.0
 11
15.33921557559723
 21
3.720059509050331
 31
0.0
  0
LINE
  5
80
330
17
100
AcDbEntity
  8
ADP1DETAIL
100
AcDbLine
 10
15.58245881884047
 20
0.9227622117530351
 30
0.0
 11
15.58245881884047
 21
3.963302752293577
 31
0.0
  0
TEXT
  5
8A
330
17
100
AcDbEntity
  8
ADPDIM
100
AcDbText
 10
9.22139059679851
 20
-0.6961317312956349
 30
0.0
 40
0.09375
  1
J U L I U S  B L U M  &  C O . ,  I N C .      ( 8 0 0 )  5 2 6 - 6 2 9 3        W W W . J U L I U S B L U M . C O M        P A R T  N O .  1 0 5
 41
1.25
  7
ARIAL_WIDE
 72
     1
 11
14.06556692694858
 21
-0.6023817312956349
 31
0.0
100
AcDbText
 73
     3
  0
ENDSEC
  0
SECTION
  2
OBJECTS
  0
DICTIONARY
  5
C
330
0
100
AcDbDictionary
  3
ACAD_GROUP
350
D
  3
ACAD_LAYOUT
350
8F
  3
ACAD_MLINESTYLE
350
1A
  3
ACAD_PLOTSETTINGS
350
90
  3
ACAD_PLOTSTYLENAME
350
8D
  3
ACDBHEADERROUNDTRIPXREC
350
17C
  3
ACDBVARIABLEDICTIONARY
350
28
  0
DICTIONARY
  5
BC
330
17
100
AcDbDictionary
280
     1
  3
ACAD_LAYOUTSELFREF
360
19E
  0
DICTIONARY
  5
BA
330
14
100
AcDbDictionary
280
     1
  3
ACAD_LAYOUTSELFREF
360
19D
  0
DICTIONARY
  5
D
102
{ACAD_REACTORS
330
C
102
}
330
C
100
AcDbDictionary
  0
DICTIONARY
  5
8F
102
{ACAD_REACTORS
330
C
102
}
330
C
100
AcDbDictionary
  0
DICTIONARY
  5
1A
102
{ACAD_REACTORS
330
C
102
}
330
C
100
AcDbDictionary
  3
STANDARD
350
1B
  0
DICTIONARY
  5
90
102
{ACAD_REACTORS
330
C
102
}
330
C
100
AcDbDictionary
  0
ACDBDICTIONARYWDFLT
  5
8D
102
{ACAD_REACTORS
330
C
102
}
330
C
100
AcDbDictionary
281
     1
  3
Normal
350
8E
100
AcDbDictionaryWithDefault
340
8E
  0
DICTIONARY
  5
17C
102
{ACAD_REACTORS
330
C
102
}
330
C
100
AcDbDictionary
  3
CEPSNTYPE
350
186
  3
DIMSTYLEDATA
350
18A
  3
FINGERPRINTGUID
350
187
  3
HYPERLINKBASE
350
17F
  3
INSUNITS
350
185
  3
LAYOUTDICT
350
181
  3
LWETCUNION
350
184
  3
PLOTSETDICT
350
182
  3
PLOTSTYLNAMDICT
350
183
  3
PSVPSCALE
350
189
  3
PUCSBASE
350
18D
  3
PUCSORGBACK
350
193
  3
PUCSORGBOTTOM
350
18F
  3
PUCSORGFRONT
350
192
  3
PUCSORGLEFT
350
190
  3
PUCSORGRIGHT
350
191
  3
PUCSORGTOP
350
18E
  3
PUCSORTHOREF
350
18B
  3
PUCSORTHOVIEW
350
18C
  3
STYLESHEET
350
180
  3
TSTACKALIGN
350
17D
  3
TSTACKSIZE
350
17E
  3
UCSBASE
350
196
  3
UCSORGBACK
350
19C
  3
UCSORGBOTTOM
350
198
  3
UCSORGFRONT
350
19B
  3
UCSORGLEFT
350
199
  3
UCSORGRIGHT
350
19A
  3
UCSORGTOP
350
197
  3
UCSORTHOREF
350
194
  3
UCSORTHOVIEW
350
195
  3
VERSIONGUID
350
188
  0
DICTIONARY
  5
28
102
{ACAD_REACTORS
330
C
102
}
330
C
100
AcDbDictionary
  3
DIMADEC
350
29
  3
DIMASSOC
350
C2
  0
XRECORD
  5
19E
102
{ACAD_REACTORS
330
BC
102
}
330
BC
100
AcDbXrecord
340
17
  0
XRECORD
  5
19D
102
{ACAD_REACTORS
330
BA
102
}
330
BA
100
AcDbXrecord
340
14
  0
MLINESTYLE
  5
1B
102
{ACAD_REACTORS
330
1A
102
}
330
1A
100
AcDbMlineStyle
  2
STANDARD
 70
     0
  3

 62
   256
 51
90.0
 52
90.0
 71
     2
 49
0.5
 62
   256
  6
BYLAYER
 49
-0.5
 62
   256
  6
BYLAYER
  0
ACDBPLACEHOLDER
  5
8E
102
{ACAD_REACTORS
330
8D
102
}
330
8D
100
AcDbPlaceHolder
280
     0
  0
XRECORD
  5
186
102
{ACAD_REACTORS
330
17C
102
}
330
17C
100
AcDbXrecord
 90
        0
  0
XRECORD
  5
18A
102
{ACAD_REACTORS
330
17C
102
}
330
17C
100
AcDbXrecord
1000
DSTYLE
1002
{
1070
   277
 70
     5
1070
   279
 70
     2
1002
}
  0
XRECORD
  5
187
102
{ACAD_REACTORS
330
17C
102
}
330
17C
100
AcDbXrecord
  1
{11097808-0785-4869-9EC5-C24196A2A163}
  0
XRECORD
  5
17F
102
{ACAD_REACTORS
330
17C
102
}
330
17C
100
AcDbXrecord
  1

  0
XRECORD
  5
185
102
{ACAD_REACTORS
330
17C
102
}
330
17C
100
AcDbXrecord
 90
        0
  0
XRECORD
  5
181
102
{ACAD_REACTORS
330
17C
102
}
330
17C
100
AcDbXrecord
340
8F
  0
XRECORD
  5
184
102
{ACAD_REACTORS
330
17C
102
}
330
17C
100
AcDbXrecord
 90
    14877
  0
XRECORD
  5
182
102
{ACAD_REACTORS
330
17C
102
}
330
17C
100
AcDbXrecord
340
90
  0
XRECORD
  5
183
102
{ACAD_REACTORS
330
17C
102
}
330
17C
100
AcDbXrecord
340
8D
  0
XRECORD
  5
189
102
{ACAD_REACTORS
330
17C
102
}
330
17C
100
AcDbXrecord
 40
0.0
  0
XRECORD
  5
18D
102
{ACAD_REACTORS
330
17C
102
}
330
17C
100
AcDbXrecord
340
0
  0
XRECORD
  5
193
102
{ACAD_REACTORS
330
17C
102
}
330
17C
100
AcDbXrecord
 10
0.0
 20
0.0
 30
0.0
  0
XRECORD
  5
18F
102
{ACAD_REACTORS
330
17C
102
}
330
17C
100
AcDbXrecord
 10
0.0
 20
0.0
 30
0.0
  0
XRECORD
  5
192
102
{ACAD_REACTORS
330
17C
102
}
330
17C
100
AcDbXrecord
 10
0.0
 20
0.0
 30
0.0
  0
XRECORD
  5
190
102
{ACAD_REACTORS
330
17C
102
}
330
17C
100
AcDbXrecord
 10
0.0
 20
0.0
 30
0.0
  0
XRECORD
  5
191
102
{ACAD_REACTORS
330
17C
102
}
330
17C
100
AcDbXrecord
 10
0.0
 20
0.0
 30
0.0
  0
XRECORD
  5
18E
102
{ACAD_REACTORS
330
17C
102
}
330
17C
100
AcDbXrecord
 10
0.0
 20
0.0
 30
0.0
  0
XRECORD
  5
18B
102
{ACAD_REACTORS
330
17C
102
}
330
17C
100
AcDbXrecord
340
0
  0
XRECORD
  5
18C
102
{ACAD_REACTORS
330
17C
102
}
330
17C
100
AcDbXrecord
 70
     0
  0
XRECORD
  5
180
102
{ACAD_REACTORS
330
17C
102
}
330
17C
100
AcDbXrecord
  1

  0
XRECORD
  5
17D
102
{ACAD_REACTORS
330
17C
102
}
330
17C
100
AcDbXrecord
 90
        1
  0
XRECORD
  5
17E
102
{ACAD_REACTORS
330
17C
102
}
330
17C
100
AcDbXrecord
 90
       70
  0
XRECORD
  5
196
102
{ACAD_REACTORS
330
17C
102
}
330
17C
100
AcDbXrecord
340
0
  0
XRECORD
  5
19C
102
{ACAD_REACTORS
330
17C
102
}
330
17C
100
AcDbXrecord
 10
0.0
 20
0.0
 30
0.0
  0
XRECORD
  5
198
102
{ACAD_REACTORS
330
17C
102
}
330
17C
100
AcDbXrecord
 10
0.0
 20
0.0
 30
0.0
  0
XRECORD
  5
19B
102
{ACAD_REACTORS
330
17C
102
}
330
17C
100
AcDbXrecord
 10
0.0
 20
0.0
 30
0.0
  0
XRECORD
  5
199
102
{ACAD_REACTORS
330
17C
102
}
330
17C
100
AcDbXrecord
 10
0.0
 20
0.0
 30
0.0
  0
XRECORD
  5
19A
102
{ACAD_REACTORS
330
17C
102
}
330
17C
100
AcDbXrecord
 10
0.0
 20
0.0
 30
0.0
  0
XRECORD
  5
197
102
{ACAD_REACTORS
330
17C
102
}
330
17C
100
AcDbXrecord
 10
0.0
 20
0.0
 30
0.0
  0
XRECORD
  5
194
102
{ACAD_REACTORS
330
17C
102
}
330
17C
100
AcDbXrecord
340
0
  0
XRECORD
  5
195
102
{ACAD_REACTORS
330
17C
102
}
330
17C
100
AcDbXrecord
 70
     0
  0
XRECORD
  5
188
102
{ACAD_REACTORS
330
17C
102
}
330
17C
100
AcDbXrecord
  1
{D64E5669-9D44-476B-91CC-5FAFC6021608}
  0
DICTIONARYVAR
  5
29
102
{ACAD_REACTORS
330
28
102
}
330
28
100
DictionaryVariables
280
     0
  1
0
  0
DICTIONARYVAR
  5
C2
102
{ACAD_REACTORS
330
28
102
}
330
28
100
DictionaryVariables
280
     0
  1
1
  0
ENDSEC
  0
EOF
