  0
SECTION
  2
HEADER
  9
$ACADVER
  1
AC1014
  9
$ACADMAINTVER
 70
     9
  9
$DWGCODEPAGE
  3
ANSI_1252
  9
$INSBASE
 10
12.66065137592696
 20
-24.88477057906916
 30
0.0
  9
$EXTMIN
 10
9.315222389365054
 20
-26.08978473387574
 30
0.0
  9
$EXTMAX
 10
22.36668043847828
 20
-19.85565596435354
 30
0.0
  9
$LIMMIN
 10
0.0
 20
0.0
  9
$LIMMAX
 10
36.0
 20
36.0
  9
$ORTHOMODE
 70
     1
  9
$REGENMODE
 70
     1
  9
$FILLMODE
 70
     1
  9
$QTEXTMODE
 70
     0
  9
$MIRRTEXT
 70
     1
  9
$DRAGMODE
 70
     0
  9
$LTSCALE
 40
1.0
  9
$OSMODE
 70
    37
  9
$ATTMODE
 70
     1
  9
$TEXTSIZE
 40
0.2
  9
$TRACEWID
 40
0.05
  9
$TEXTSTYLE
  7
STANDARD
  9
$CLAYER
  8
ADP2DETAIL
  9
$CELTYPE
  6
BYLAYER
  9
$CECOLOR
 62
   256
  9
$CELTSCALE
 40
1.0
  9
$DELOBJ
 70
     1
  9
$DISPSILH
 70
     0
  9
$DIMSCALE
 40
1.0
  9
$DIMASZ
 40
0.125
  9
$DIMEXO
 40
0.0625
  9
$DIMDLI
 40
0.38
  9
$DIMRND
 40
0.0
  9
$DIMDLE
 40
0.0
  9
$DIMEXE
 40
0.18
  9
$DIMTP
 40
0.0
  9
$DIMTM
 40
0.0
  9
$DIMTXT
 40
0.125
  9
$DIMCEN
 40
0.1875
  9
$DIMTSZ
 40
0.125
  9
$DIMTOL
 70
     0
  9
$DIMLIM
 70
     0
  9
$DIMTIH
 70
     0
  9
$DIMTOH
 70
     0
  9
$DIMSE1
 70
     0
  9
$DIMSE2
 70
     0
  9
$DIMTAD
 70
     0
  9
$DIMZIN
 70
     3
  9
$DIMBLK
  1

  9
$DIMASO
 70
     1
  9
$DIMSHO
 70
     1
  9
$DIMPOST
  1

  9
$DIMAPOST
  1

  9
$DIMALT
 70
     0
  9
$DIMALTD
 70
     1
  9
$DIMALTF
 40
25.4
  9
$DIMLFAC
 40
1.0
  9
$DIMTOFL
 70
     0
  9
$DIMTVP
 40
0.0
  9
$DIMTIX
 70
     0
  9
$DIMSOXD
 70
     0
  9
$DIMSAH
 70
     0
  9
$DIMBLK1
  1

  9
$DIMBLK2
  1

  9
$DIMSTYLE
  2
STANDARD
  9
$DIMCLRD
 70
     0
  9
$DIMCLRE
 70
     0
  9
$DIMCLRT
 70
     0
  9
$DIMTFAC
 40
1.0
  9
$DIMGAP
 40
0.125
  9
$DIMJUST
 70
     0
  9
$DIMSD1
 70
     0
  9
$DIMSD2
 70
     0
  9
$DIMTOLJ
 70
     1
  9
$DIMTZIN
 70
     3
  9
$DIMALTZ
 70
     3
  9
$DIMALTTZ
 70
     3
  9
$DIMFIT
 70
     5
  9
$DIMUPT
 70
     0
  9
$DIMUNIT
 70
     5
  9
$DIMDEC
 70
     4
  9
$DIMTDEC
 70
     4
  9
$DIMALTU
 70
     5
  9
$DIMALTTD
 70
     1
  9
$DIMTXSTY
  7
STANDARD
  9
$DIMAUNIT
 70
     0
  9
$LUNITS
 70
     5
  9
$LUPREC
 70
     4
  9
$SKETCHINC
 40
0.1
  9
$FILLETRAD
 40
0.062
  9
$AUNITS
 70
     0
  9
$AUPREC
 70
     0
  9
$MENU
  1
acad
  9
$ELEVATION
 40
0.0
  9
$PELEVATION
 40
0.0
  9
$THICKNESS
 40
0.0
  9
$LIMCHECK
 70
     0
  9
$BLIPMODE
 70
     0
  9
$CHAMFERA
 40
0.0
  9
$CHAMFERB
 40
0.0
  9
$CHAMFERC
 40
0.0
  9
$CHAMFERD
 40
0.0
  9
$SKPOLY
 70
     0
  9
$TDCREATE
 40
2450386.505271215
  9
$TDUPDATE
 40
2452297.079000104
  9
$TDINDWG
 40
0.0421073958
  9
$TDUSRTIMER
 40
0.0421073958
  9
$USRTIMER
 70
     1
  9
$ANGBASE
 50
0.0
  9
$ANGDIR
 70
     0
  9
$PDMODE
 70
     0
  9
$PDSIZE
 40
0.0
  9
$PLINEWID
 40
0.0
  9
$COORDS
 70
     2
  9
$SPLFRAME
 70
     0
  9
$SPLINETYPE
 70
     6
  9
$SPLINESEGS
 70
     8
  9
$ATTDIA
 70
     0
  9
$ATTREQ
 70
     1
  9
$HANDLING
 70
 22529
  9
$HANDSEED
  5
39B
  9
$SURFTAB1
 70
     6
  9
$SURFTAB2
 70
     6
  9
$SURFTYPE
 70
     6
  9
$SURFU
 70
     6
  9
$SURFV
 70
     6
  9
$UCSNAME
  2

  9
$UCSORG
 10
0.0
 20
0.0
 30
0.0
  9
$UCSXDIR
 10
1.0
 20
0.0
 30
0.0
  9
$UCSYDIR
 10
0.0
 20
1.0
 30
0.0
  9
$PUCSNAME
  2

  9
$PUCSORG
 10
0.0
 20
0.0
 30
0.0
  9
$PUCSXDIR
 10
1.0
 20
0.0
 30
0.0
  9
$PUCSYDIR
 10
0.0
 20
1.0
 30
0.0
  9
$USERI1
 70
     0
  9
$USERI2
 70
     0
  9
$USERI3
 70
     0
  9
$USERI4
 70
     0
  9
$USERI5
 70
     0
  9
$USERR1
 40
0.0
  9
$USERR2
 40
0.0
  9
$USERR3
 40
0.0
  9
$USERR4
 40
0.0
  9
$USERR5
 40
0.0
  9
$WORLDVIEW
 70
     1
  9
$SHADEDGE
 70
     3
  9
$SHADEDIF
 70
    70
  9
$TILEMODE
 70
     1
  9
$MAXACTVP
 70
    15
  9
$PINSBASE
 10
4.403525741743744E+99
 20
7.061986388769092E+99
 30
0.0
  9
$PLIMCHECK
 70
     0
  9
$PEXTMIN
 10
1.000000000000000E+20
 20
1.000000000000000E+20
 30
1.000000000000000E+20
  9
$PEXTMAX
 10
-1.000000000000000E+20
 20
-1.000000000000000E+20
 30
-1.000000000000000E+20
  9
$PLIMMIN
 10
0.0
 20
0.0
  9
$PLIMMAX
 10
12.0
 20
9.0
  9
$UNITMODE
 70
     0
  9
$VISRETAIN
 70
     0
  9
$PLINEGEN
 70
     0
  9
$PSLTSCALE
 70
     1
  9
$TREEDEPTH
 70
  3020
  9
$PICKSTYLE
 70
     1
  9
$CMLSTYLE
  2
STANDARD
  9
$CMLJUST
 70
     0
  9
$CMLSCALE
 40
1.0
  9
$PROXYGRAPHICS
 70
     1
  9
$MEASUREMENT
 70
     0
  0
ENDSEC
  0
SECTION
  2
CLASSES
  0
CLASS
  1
ACDBDICTIONARYWDFLT
  2
AcDbDictionaryWithDefault
  3
AutoCAD 2000
 90
        0
280
     0
281
     0
  0
CLASS
  1
ACDBPLACEHOLDER
  2
AcDbPlaceHolder
  3
AutoCAD 2000
 90
        0
280
     0
281
     0
  0
CLASS
  1
LAYOUT
  2
AcDbLayout
  3
AutoCAD 2000
 90
        0
280
     0
281
     0
  0
CLASS
  1
DICTIONARYVAR
  2
AcDbDictionaryVar
  3
AutoCAD 2000
 90
        0
280
     0
281
     0
  0
CLASS
  1
LONG_TRANSACTION
  2
AcDbLongTransaction
  3
AutoCAD 2000
 90
        0
280
     0
281
     0
  0
CLASS
  1
LWPOLYLINE
  2
AcDbPolyline
  3
AutoCAD 2000
 90
        0
280
     0
281
     1
  0
CLASS
  1
HATCH
  2
AcDbHatch
  3
AutoCAD 2000
 90
        0
280
     0
281
     1
  0
CLASS
  1
XRECORD
  2
AcDbXrecord
  3
AutoCAD 2000
 90
        0
280
     0
281
     0
  0
CLASS
  1
LONG_TRANSACTION
  2
AcDbLongTransaction
  3
AutoCAD 2000
 90
        0
280
     0
281
     0
  0
CLASS
  1
LWPOLYLINE
  2
AcDbPolyline
  3
AutoCAD 2000
 90
        0
280
     0
281
     1
  0
CLASS
  1
HATCH
  2
AcDbHatch
  3
AutoCAD 2000
 90
        0
280
     0
281
     1
  0
CLASS
  1
XRECORD
  2
AcDbXrecord
  3
AutoCAD 2000
 90
        0
280
     0
281
     0
  0
CLASS
  1
LONG_TRANSACTION
  2
AcDbLongTransaction
  3
AutoCAD 2000
 90
        0
280
     0
281
     0
  0
CLASS
  1
LWPOLYLINE
  2
AcDbPolyline
  3
AutoCAD 2000
 90
        0
280
     0
281
     1
  0
CLASS
  1
HATCH
  2
AcDbHatch
  3
AutoCAD 2000
 90
        0
280
     0
281
     1
  0
CLASS
  1
XRECORD
  2
AcDbXrecord
  3
AutoCAD 2000
 90
        0
280
     0
281
     0
  0
CLASS
  1
LONG_TRANSACTION
  2
AcDbLongTransaction
  3
AutoCAD 2000
 90
        0
280
     0
281
     0
  0
CLASS
  1
LWPOLYLINE
  2
AcDbPolyline
  3
AutoCAD 2000
 90
        0
280
     0
281
     1
  0
CLASS
  1
HATCH
  2
AcDbHatch
  3
AutoCAD 2000
 90
        0
280
     0
281
     1
  0
CLASS
  1
XRECORD
  2
AcDbXrecord
  3
AutoCAD 2000
 90
        0
280
     0
281
     0
  0
CLASS
  1
LONG_TRANSACTION
  2
AcDbLongTransaction
  3
AutoCAD 2000
 90
        0
280
     0
281
     0
  0
CLASS
  1
LWPOLYLINE
  2
AcDbPolyline
  3
AutoCAD 2000
 90
        0
280
     0
281
     1
  0
CLASS
  1
HATCH
  2
AcDbHatch
  3
AutoCAD 2000
 90
        0
280
     0
281
     1
  0
CLASS
  1
XRECORD
  2
AcDbXrecord
  3
AutoCAD 2000
 90
        0
280
     0
281
     0
  0
CLASS
  1
LONG_TRANSACTION
  2
AcDbLongTransaction
  3
AutoCAD 2000
 90
        0
280
     0
281
     0
  0
CLASS
  1
LWPOLYLINE
  2
AcDbPolyline
  3
AutoCAD 2000
 90
        0
280
     0
281
     1
  0
CLASS
  1
HATCH
  2
AcDbHatch
  3
AutoCAD 2000
 90
        0
280
     0
281
     1
  0
CLASS
  1
XRECORD
  2
AcDbXrecord
  3
AutoCAD 2000
 90
        0
280
     0
281
     0
  0
ENDSEC
  0
SECTION
  2
TABLES
  0
TABLE
  2
VPORT
  5
8
330
0
100
AcDbSymbolTable
 70
     2
  0
VPORT
  5
377
330
8
100
AcDbSymbolTableRecord
100
AcDbViewportTableRecord
  2
*ACTIVE
 70
     0
 10
0.0
 20
0.0
 11
1.0
 21
1.0
 12
15.85034932859012
 22
-22.97177195901174
 13
0.0
 23
0.0
 14
0.5740882589684922
 24
0.5740882589684922
 15
0.5
 25
0.5
 16
0.0
 26
0.0
 36
1.0
 17
0.0
 27
0.0
 37
0.0
 40
8.365595802020571
 41
1.570528967254408
 42
50.0
 43
0.0
 44
0.0
 50
0.0
 51
0.0
 71
     0
 72
   100
 73
     1
 74
     0
 75
     0
 76
     0
 77
     0
 78
     0
  0
ENDTAB
  0
TABLE
  2
LTYPE
  5
5
330
0
100
AcDbSymbolTable
 70
     2
  0
LTYPE
  5
13
330
5
100
AcDbSymbolTableRecord
100
AcDbLinetypeTableRecord
  2
BYBLOCK
 70
     0
  3

 72
    65
 73
     0
 40
0.0
  0
LTYPE
  5
14
330
5
100
AcDbSymbolTableRecord
100
AcDbLinetypeTableRecord
  2
BYLAYER
 70
     0
  3

 72
    65
 73
     0
 40
0.0
  0
LTYPE
  5
15
330
5
100
AcDbSymbolTableRecord
100
AcDbLinetypeTableRecord
  2
CONTINUOUS
 70
     0
  3
Solid line
 72
    65
 73
     0
 40
0.0
  0
LTYPE
  5
E0
330
5
100
AcDbSymbolTableRecord
100
AcDbLinetypeTableRecord
  2
HIDDEN2
 70
     0
  3
_ _ _ _ _ _ _ _ _ _ _ _ _ _ _ _ _ _ _ _ _ _ _ _
 72
    65
 73
     2
 40
0.1875
 49
0.125
 74
     0
 49
-0.0625
 74
     0
  0
ENDTAB
  0
TABLE
  2
LAYER
  5
2
330
0
100
AcDbSymbolTable
 70
     5
  0
LAYER
  5
10
330
2
100
AcDbSymbolTableRecord
100
AcDbLayerTableRecord
  2
0
 70
     0
 62
     7
  6
CONTINUOUS
  0
LAYER
  5
E4
330
2
100
AcDbSymbolTableRecord
100
AcDbLayerTableRecord
  2
ADP1DETAIL
 70
     0
 62
     7
  6
CONTINUOUS
  0
LAYER
  5
E6
330
2
100
AcDbSymbolTableRecord
100
AcDbLayerTableRecord
  2
DEFPOINTS
 70
     0
 62
     7
  6
CONTINUOUS
  0
LAYER
  5
E7
330
2
100
AcDbSymbolTableRecord
100
AcDbLayerTableRecord
  2
ADP2DETAIL
 70
     0
 62
     5
  6
CONTINUOUS
  0
LAYER
  5
E8
330
2
100
AcDbSymbolTableRecord
100
AcDbLayerTableRecord
  2
ADPDIM
 70
     0
 62
     3
  6
CONTINUOUS
  0
ENDTAB
  0
TABLE
  2
STYLE
  5
3
330
0
100
AcDbSymbolTable
 70
     2
  0
STYLE
  5
11
330
3
100
AcDbSymbolTableRecord
100
AcDbTextStyleTableRecord
  2
STANDARD
 70
     0
 40
0.0
 41
1.0
 50
0.0
 71
     0
 42
0.2
  3
txt
  4

  0
STYLE
  5
1AA
330
3
100
AcDbSymbolTableRecord
100
AcDbTextStyleTableRecord
  2
ARIAL_WIDE
 70
     0
 40
0.0
 41
1.25
 50
0.0
 71
     0
 42
0.2
  3
ARIAL.TTF
  4

1001
ACAD
1000
Arial
1071
       34
  0
ENDTAB
  0
TABLE
  2
VIEW
  5
6
330
0
100
AcDbSymbolTable
 70
     0
  0
ENDTAB
  0
TABLE
  2
UCS
  5
7
330
0
100
AcDbSymbolTable
 70
     0
  0
ENDTAB
  0
TABLE
  2
APPID
  5
9
330
0
100
AcDbSymbolTable
 70
     1
  0
APPID
  5
12
330
9
100
AcDbSymbolTableRecord
100
AcDbRegAppTableRecord
  2
ACAD
 70
     0
  0
ENDTAB
  0
TABLE
  2
DIMSTYLE
  5
A
330
0
100
AcDbSymbolTable
 70
     1
  0
DIMSTYLE
105
1A8
330
A
100
AcDbSymbolTableRecord
100
AcDbDimStyleTableRecord
  2
STANDARD
 70
     0
  3

  4

  5

  6

  7

 40
1.0
 41
0.18
 42
0.0625
 43
0.38
 44
0.18
 45
0.0
 46
0.0
 47
0.0
 48
0.0
140
0.18
141
0.09
142
0.0
143
25.4
144
1.0
145
0.0
146
1.0
147
0.09
 71
     0
 72
     0
 73
     1
 74
     1
 75
     0
 76
     0
 77
     0
 78
     0
170
     0
171
     2
172
     0
173
     0
174
     0
175
     0
176
     0
177
     0
178
     0
270
     2
271
     4
272
     4
273
     2
274
     2
340
11
275
     0
280
     0
281
     0
282
     0
283
     1
284
     0
285
     0
286
     0
287
     3
288
     0
  0
ENDTAB
  0
TABLE
  2
BLOCK_RECORD
  5
1
330
0
100
AcDbSymbolTable
 70
     6
  0
BLOCK_RECORD
  5
1E
102
{ACAD_XDICTIONARY
360
1E7
102
}
330
1
100
AcDbSymbolTableRecord
100
AcDbBlockTableRecord
  2
*MODEL_SPACE
  0
BLOCK_RECORD
  5
1A
102
{ACAD_XDICTIONARY
360
1E9
102
}
330
1
100
AcDbSymbolTableRecord
100
AcDbBlockTableRecord
  2
*PAPER_SPACE
  0
BLOCK_RECORD
  5
D9
330
1
100
AcDbSymbolTableRecord
100
AcDbBlockTableRecord
  2
*D0
  0
BLOCK_RECORD
  5
DA
330
1
100
AcDbSymbolTableRecord
100
AcDbBlockTableRecord
  2
*D1
  0
BLOCK_RECORD
  5
DB
330
1
100
AcDbSymbolTableRecord
100
AcDbBlockTableRecord
  2
*D2
  0
BLOCK_RECORD
  5
DC
330
1
100
AcDbSymbolTableRecord
100
AcDbBlockTableRecord
  2
*D3
  0
BLOCK_RECORD
  5
DD
330
1
100
AcDbSymbolTableRecord
100
AcDbBlockTableRecord
  2
*D4
  0
BLOCK_RECORD
  5
DE
330
1
100
AcDbSymbolTableRecord
100
AcDbBlockTableRecord
  2
*D5
  0
ENDTAB
  0
ENDSEC
  0
SECTION
  2
BLOCKS
  0
BLOCK
  5
EB
330
1E
100
AcDbEntity
  8
0
100
AcDbBlockBegin
  2
*MODEL_SPACE
 70
     0
 10
0.0
 20
0.0
 30
0.0
  3
*MODEL_SPACE
  1

  0
ENDBLK
  5
EC
330
1E
100
AcDbEntity
  8
0
100
AcDbBlockEnd
  0
BLOCK
  5
E9
330
1A
100
AcDbEntity
 67
     1
  8
0
100
AcDbBlockBegin
  2
*PAPER_SPACE
 70
     0
 10
0.0
 20
0.0
 30
0.0
  3
*PAPER_SPACE
  1

  0
ENDBLK
  5
EA
330
1A
100
AcDbEntity
 67
     1
  8
0
100
AcDbBlockEnd
  0
BLOCK
  5
EE
330
D9
100
AcDbEntity
  8
0
100
AcDbBlockBegin
  2
*D0
 70
     1
 10
0.0
 20
0.0
 30
0.0
  3
*D0
  1

  0
LINE
  5
EF
330
D9
100
AcDbEntity
  8
0
  6
BYBLOCK
 62
     0
100
AcDbLine
 10
16.64749253480112
 20
-20.49299157505636
 30
0.0
 11
16.64749253480112
 21
-19.85565596435354
 31
0.0
  0
LINE
  5
F0
330
D9
100
AcDbEntity
  8
0
  6
BYBLOCK
 62
     0
100
AcDbLine
 10
18.39749253480112
 20
-20.49299157505636
 30
0.0
 11
18.39749253480112
 21
-19.85565596435354
 31
0.0
  0
LINE
  5
F1
330
D9
100
AcDbEntity
  8
0
  6
BYBLOCK
 62
     0
100
AcDbLine
 10
16.64749253480112
 20
-20.03565596435354
 30
0.0
 11
17.12665920146779
 21
-20.03565596435354
 31
0.0
  0
LINE
  5
F2
330
D9
100
AcDbEntity
  8
0
  6
BYBLOCK
 62
     0
100
AcDbLine
 10
18.39749253480112
 20
-20.03565596435354
 30
0.0
 11
17.91832586813446
 21
-20.03565596435354
 31
0.0
  0
LINE
  5
F3
330
D9
100
AcDbEntity
  8
0
  6
BYBLOCK
 62
     0
100
AcDbLine
 10
16.52249253480112
 20
-20.16065596435355
 30
0.0
 11
16.77249253480112
 21
-19.91065596435355
 31
0.0
  0
LINE
  5
F4
330
D9
100
AcDbEntity
  8
0
  6
BYBLOCK
 62
     0
100
AcDbLine
 10
18.27249253480112
 20
-20.16065596435355
 30
0.0
 11
18.52249253480112
 21
-19.91065596435355
 31
0.0
  0
TEXT
  5
F5
330
D9
100
AcDbEntity
  8
0
  6
BYBLOCK
 62
     0
100
AcDbText
 10
17.25165920146779
 20
-20.09815596435355
 30
0.0
 40
0.125
  1
1 3/4
 72
     1
 11
17.52249253480112
 21
-20.03565596435354
 31
0.0
100
AcDbText
 73
     2
  0
POINT
  5
F7
330
D9
100
AcDbEntity
  8
DEFPOINTS
  6
BYBLOCK
 62
     0
100
AcDbPoint
 10
16.64749253480112
 20
-20.55549157505636
 30
0.0
  0
POINT
  5
F8
330
D9
100
AcDbEntity
  8
DEFPOINTS
  6
BYBLOCK
 62
     0
100
AcDbPoint
 10
18.39749253480112
 20
-20.55549157505636
 30
0.0
  0
POINT
  5
F9
330
D9
100
AcDbEntity
  8
DEFPOINTS
  6
BYBLOCK
 62
     0
100
AcDbPoint
 10
18.39749253480112
 20
-20.03565596435354
 30
0.0
  0
ENDBLK
  5
FA
330
D9
100
AcDbEntity
  8
0
100
AcDbBlockEnd
  0
BLOCK
  5
FB
330
DA
100
AcDbEntity
  8
0
100
AcDbBlockBegin
  2
*D1
 70
     1
 10
0.0
 20
0.0
 30
0.0
  3
*D1
  1

  0
LINE
  5
FC
330
DA
100
AcDbEntity
  8
0
  6
BYBLOCK
 62
     0
100
AcDbLine
 10
17.03934095608986
 20
-20.50015596435354
 30
0.0
 11
17.03934095608986
 21
-20.19665596435354
 31
0.0
  0
LINE
  5
FD
330
DA
100
AcDbEntity
  8
0
  6
BYBLOCK
 62
     0
100
AcDbLine
 10
18.03934095608986
 20
-20.50015596435354
 30
0.0
 11
18.03934095608986
 21
-20.19665596435354
 31
0.0
  0
LINE
  5
FE
330
DA
100
AcDbEntity
  8
0
  6
BYBLOCK
 62
     0
100
AcDbLine
 10
17.03934095608986
 20
-20.37665596435354
 30
0.0
 11
17.39350762275653
 21
-20.37665596435354
 31
0.0
  0
LINE
  5
FF
330
DA
100
AcDbEntity
  8
0
  6
BYBLOCK
 62
     0
100
AcDbLine
 10
18.03934095608986
 20
-20.37665596435354
 30
0.0
 11
17.68517428942319
 21
-20.37665596435354
 31
0.0
  0
LINE
  5
100
330
DA
100
AcDbEntity
  8
0
  6
BYBLOCK
 62
     0
100
AcDbLine
 10
16.91434095608986
 20
-20.50165596435354
 30
0.0
 11
17.16434095608986
 21
-20.25165596435354
 31
0.0
  0
LINE
  5
101
330
DA
100
AcDbEntity
  8
0
  6
BYBLOCK
 62
     0
100
AcDbLine
 10
17.91434095608986
 20
-20.50165596435354
 30
0.0
 11
18.16434095608986
 21
-20.25165596435354
 31
0.0
  0
TEXT
  5
102
330
DA
100
AcDbEntity
  8
0
  6
BYBLOCK
 62
     0
100
AcDbText
 10
17.51850762275653
 20
-20.43915596435354
 30
0.0
 40
0.125
  1
1
 72
     1
 11
17.53934095608986
 21
-20.37665596435354
 31
0.0
100
AcDbText
 73
     2
  0
POINT
  5
103
330
DA
100
AcDbEntity
  8
DEFPOINTS
  6
BYBLOCK
 62
     0
100
AcDbPoint
 10
17.03934095608986
 20
-20.56265596435354
 30
0.0
  0
POINT
  5
104
330
DA
100
AcDbEntity
  8
DEFPOINTS
  6
BYBLOCK
 62
     0
100
AcDbPoint
 10
18.03934095608986
 20
-20.56265596435354
 30
0.0
  0
POINT
  5
105
330
DA
100
AcDbEntity
  8
DEFPOINTS
  6
BYBLOCK
 62
     0
100
AcDbPoint
 10
18.03934095608986
 20
-20.37665596435354
 30
0.0
  0
ENDBLK
  5
106
330
DA
100
AcDbEntity
  8
0
100
AcDbBlockEnd
  0
BLOCK
  5
107
330
DB
100
AcDbEntity
  8
0
100
AcDbBlockBegin
  2
*D2
 70
     1
 10
0.0
 20
0.0
 30
0.0
  3
*D2
  1

  0
LINE
  5
108
330
DB
100
AcDbEntity
  8
0
  6
BYBLOCK
 62
     0
100
AcDbLine
 10
17.68044522944863
 20
-23.46178606877201
 30
0.0
 11
19.2517903946853
 21
-23.46178606877201
 31
0.0
  0
LINE
  5
109
330
DB
100
AcDbEntity
  8
0
  6
BYBLOCK
 62
     0
100
AcDbLine
 10
18.45999253480112
 20
-20.72746656544752
 30
0.0
 11
19.2517903946853
 21
-20.72746656544752
 31
0.0
  0
LINE
  5
10A
330
DB
100
AcDbEntity
  8
0
  6
BYBLOCK
 62
     0
100
AcDbLine
 10
19.0717903946853
 20
-23.46178606877201
 30
0.0
 11
19.0717903946853
 21
-22.51129298377644
 31
0.0
  0
LINE
  5
10B
330
DB
100
AcDbEntity
  8
0
  6
BYBLOCK
 62
     0
100
AcDbLine
 10
19.0717903946853
 20
-20.72746656544752
 30
0.0
 11
19.0717903946853
 21
-21.6779596504431
 31
0.0
  0
LINE
  5
10C
330
DB
100
AcDbEntity
  8
0
  6
BYBLOCK
 62
     0
100
AcDbLine
 10
19.19679039468531
 20
-23.58678606877201
 30
0.0
 11
18.9467903946853
 21
-23.33678606877201
 31
0.0
  0
LINE
  5
10D
330
DB
100
AcDbEntity
  8
0
  6
BYBLOCK
 62
     0
100
AcDbLine
 10
19.19679039468531
 20
-20.85246656544752
 30
0.0
 11
18.9467903946853
 21
-20.60246656544753
 31
0.0
  0
TEXT
  5
10E
330
DB
100
AcDbEntity
  8
0
  6
BYBLOCK
 62
     0
100
AcDbText
 10
19.1342903946853
 20
-22.38629298377643
 30
0.0
 40
0.125
  1
2 3/4
 50
90.0
 72
     1
 11
19.0717903946853
 21
-22.09462631710977
 31
0.0
100
AcDbText
 73
     2
  0
POINT
  5
10F
330
DB
100
AcDbEntity
  8
DEFPOINTS
  6
BYBLOCK
 62
     0
100
AcDbPoint
 10
17.61794522944863
 20
-23.46178606877201
 30
0.0
  0
POINT
  5
110
330
DB
100
AcDbEntity
  8
DEFPOINTS
  6
BYBLOCK
 62
     0
100
AcDbPoint
 10
18.39749253480112
 20
-20.72746656544752
 30
0.0
  0
POINT
  5
111
330
DB
100
AcDbEntity
  8
DEFPOINTS
  6
BYBLOCK
 62
     0
100
AcDbPoint
 10
19.0717903946853
 20
-20.72746656544752
 30
0.0
  0
ENDBLK
  5
112
330
DB
100
AcDbEntity
  8
0
100
AcDbBlockEnd
  0
BLOCK
  5
113
330
DC
100
AcDbEntity
  8
0
100
AcDbBlockBegin
  2
*D3
 70
     1
 10
0.0
 20
0.0
 30
0.0
  3
*D3
  1

  0
LINE
  5
114
330
DC
100
AcDbEntity
  8
0
  6
BYBLOCK
 62
     0
100
AcDbLine
 10
16.1467903946853
 20
-23.55750007877705
 30
0.0
 11
16.1467903946853
 21
-25.25600007877705
 31
0.0
  0
LINE
  5
115
330
DC
100
AcDbEntity
  8
0
  6
BYBLOCK
 62
     0
100
AcDbLine
 10
18.8967903946853
 20
-23.55750007877705
 30
0.0
 11
18.8967903946853
 21
-25.25600007877705
 31
0.0
  0
LINE
  5
116
330
DC
100
AcDbEntity
  8
0
  6
BYBLOCK
 62
     0
100
AcDbLine
 10
16.1467903946853
 20
-25.07600007877705
 30
0.0
 11
17.10512372801864
 21
-25.07600007877705
 31
0.0
  0
LINE
  5
117
330
DC
100
AcDbEntity
  8
0
  6
BYBLOCK
 62
     0
100
AcDbLine
 10
18.8967903946853
 20
-25.07600007877705
 30
0.0
 11
17.93845706135197
 21
-25.07600007877705
 31
0.0
  0
LINE
  5
118
330
DC
100
AcDbEntity
  8
0
  6
BYBLOCK
 62
     0
100
AcDbLine
 10
16.0217903946853
 20
-25.20100007877705
 30
0.0
 11
16.2717903946853
 21
-24.95100007877705
 31
0.0
  0
LINE
  5
119
330
DC
100
AcDbEntity
  8
0
  6
BYBLOCK
 62
     0
100
AcDbLine
 10
18.7717903946853
 20
-25.20100007877705
 30
0.0
 11
19.0217903946853
 21
-24.95100007877705
 31
0.0
  0
TEXT
  5
11A
330
DC
100
AcDbEntity
  8
0
  6
BYBLOCK
 62
     0
100
AcDbText
 10
17.23012372801863
 20
-25.13850007877705
 30
0.0
 40
0.125
  1
2 3/4
 72
     1
 11
17.5217903946853
 21
-25.07600007877705
 31
0.0
100
AcDbText
 73
     2
  0
POINT
  5
11B
330
DC
100
AcDbEntity
  8
DEFPOINTS
  6
BYBLOCK
 62
     0
100
AcDbPoint
 10
16.1467903946853
 20
-23.49500007877705
 30
0.0
  0
POINT
  5
11C
330
DC
100
AcDbEntity
  8
DEFPOINTS
  6
BYBLOCK
 62
     0
100
AcDbPoint
 10
18.8967903946853
 20
-23.49500007877705
 30
0.0
  0
POINT
  5
11D
330
DC
100
AcDbEntity
  8
DEFPOINTS
  6
BYBLOCK
 62
     0
100
AcDbPoint
 10
18.8967903946853
 20
-25.07600007877705
 30
0.0
  0
ENDBLK
  5
11E
330
DC
100
AcDbEntity
  8
0
100
AcDbBlockEnd
  0
BLOCK
  5
11F
330
DD
100
AcDbEntity
  8
0
100
AcDbBlockBegin
  2
*D4
 70
     1
 10
0.0
 20
0.0
 30
0.0
  3
*D4
  1

  0
LINE
  5
120
330
DD
100
AcDbEntity
  8
0
  6
BYBLOCK
 62
     0
100
AcDbLine
 10
17.55258008769158
 20
-23.67914449685647
 30
0.0
 11
17.5807342113978
 21
-23.927554128953
 31
0.0
  0
LINE
  5
121
330
DD
100
AcDbEntity
  8
0
  6
BYBLOCK
 62
     0
100
AcDbLine
 10
17.4142982097902
 20
-23.56901674266131
 30
0.0
 11
17.69086196559295
 21
-23.78927225105162
 31
0.0
  0
LINE
  5
122
330
DD
100
AcDbEntity
  8
0
  6
BYBLOCK
 62
     0
100
AcDbLine
 10
17.34044522944863
 20
-23.461786068772
 30
0.0
 11
17.71544522944863
 21
-23.461786068772
 31
0.0
  0
LINE
  5
123
330
DD
100
AcDbEntity
  8
0
  6
BYBLOCK
 62
     0
100
AcDbLine
 10
17.52794522944863
 20
-23.649286068772
 30
0.0
 11
17.52794522944863
 21
-23.274286068772
 31
0.0
  0
TEXT
  5
124
330
DD
100
AcDbEntity
  8
0
  6
BYBLOCK
 62
     0
100
AcDbText
 10
17.53270886522677
 20
-24.05879747592782
 30
0.0
 40
0.125
  1
%%c7/16
 50
276.4661671270559
 72
     1
 11
17.62531157393265
 21
-24.32086937977251
 31
0.0
100
AcDbText
 73
     2
  0
POINT
  5
125
330
DD
100
AcDbEntity
  8
DEFPOINTS
  6
BYBLOCK
 62
     0
100
AcDbPoint
 10
17.55258008769158
 20
-23.67914449685647
 30
0.0
  0
POINT
  5
126
330
DD
100
AcDbEntity
  8
DEFPOINTS
  6
BYBLOCK
 62
     0
100
AcDbPoint
 10
17.50331037120569
 20
-23.24442764068754
 30
0.0
  0
ENDBLK
  5
127
330
DD
100
AcDbEntity
  8
0
100
AcDbBlockEnd
  0
BLOCK
  5
128
330
DE
100
AcDbEntity
  8
0
100
AcDbBlockBegin
  2
*D5
 70
     1
 10
0.0
 20
0.0
 30
0.0
  3
*D5
  1

  0
LINE
  5
129
330
DE
100
AcDbEntity
  8
0
  6
BYBLOCK
 62
     0
100
AcDbLine
 10
12.5664011403553
 20
-22.06449756362335
 30
0.0
 11
12.5664011403553
 21
-20.29217158401332
 31
0.0
  0
LINE
  5
12A
330
DE
100
AcDbEntity
  8
0
  6
BYBLOCK
 62
     0
100
AcDbLine
 10
15.06894269747207
 20
-20.58947965346251
 30
0.0
 11
15.06894269747207
 21
-20.29217158401332
 31
0.0
  0
LINE
  5
12B
330
DE
100
AcDbEntity
  8
0
  6
BYBLOCK
 62
     0
100
AcDbLine
 10
12.5664011403553
 20
-20.47217158401332
 30
0.0
 11
13.42183858558035
 21
-20.47217158401332
 31
0.0
  0
LINE
  5
12C
330
DE
100
AcDbEntity
  8
0
  6
BYBLOCK
 62
     0
100
AcDbLine
 10
15.06894269747207
 20
-20.47217158401332
 30
0.0
 11
14.21350525224702
 21
-20.47217158401332
 31
0.0
  0
LINE
  5
12D
330
DE
100
AcDbEntity
  8
0
  6
BYBLOCK
 62
     0
100
AcDbLine
 10
12.4414011403553
 20
-20.59717158401332
 30
0.0
 11
12.6914011403553
 21
-20.34717158401333
 31
0.0
  0
LINE
  5
12E
330
DE
100
AcDbEntity
  8
0
  6
BYBLOCK
 62
     0
100
AcDbLine
 10
14.94394269747207
 20
-20.59717158401332
 30
0.0
 11
15.19394269747207
 21
-20.34717158401333
 31
0.0
  0
TEXT
  5
12F
330
DE
100
AcDbEntity
  8
0
  6
BYBLOCK
 62
     0
100
AcDbText
 10
13.54683858558035
 20
-20.53467158401332
 30
0.0
 40
0.125
  1
2 1/2
 72
     1
 11
13.81767191891368
 21
-20.47217158401332
 31
0.0
100
AcDbText
 73
     2
  0
POINT
  5
130
330
DE
100
AcDbEntity
  8
DEFPOINTS
  6
BYBLOCK
 62
     0
100
AcDbPoint
 10
12.5664011403553
 20
-22.12699756362335
 30
0.0
  0
POINT
  5
131
330
DE
100
AcDbEntity
  8
DEFPOINTS
  6
BYBLOCK
 62
     0
100
AcDbPoint
 10
15.06894269747207
 20
-20.65197965346251
 30
0.0
  0
POINT
  5
132
330
DE
100
AcDbEntity
  8
DEFPOINTS
  6
BYBLOCK
 62
     0
100
AcDbPoint
 10
15.06894269747207
 20
-20.47217158401332
 30
0.0
  0
ENDBLK
  5
133
330
DE
100
AcDbEntity
  8
0
100
AcDbBlockEnd
  0
ENDSEC
  0
SECTION
  2
ENTITIES
  0
DIMENSION
  5
134
330
1E
100
AcDbEntity
  8
ADPDIM
100
AcDbDimension
  2
*D2
 10
19.0717903946853
 20
-20.72746656544752
 30
0.0
 11
19.0717903946853
 21
-22.09462631710977
 31
0.0
100
AcDbAlignedDimension
 13
17.61794522944863
 23
-23.46178606877201
 33
0.0
 14
18.39749253480112
 24
-20.72746656544752
 34
0.0
 50
90.0
100
AcDbRotatedDimension
  0
LINE
  5
135
330
1E
100
AcDbEntity
  8
ADP2DETAIL
  6
HIDDEN2
100
AcDbLine
 10
16.64749253480112
 20
-20.72746656544752
 30
0.0
 11
18.39749253480112
 21
-20.72746656544752
 31
0.0
  0
DIMENSION
  5
136
330
1E
100
AcDbEntity
  8
ADPDIM
100
AcDbDimension
  2
*D4
 10
17.50331037120569
 20
-23.24442764068754
 30
0.0
 11
17.62531157393265
 21
-24.32086937977251
 31
0.0
 70
     3
100
AcDbDiametricDimension
 15
17.55258008769158
 25
-23.67914449685647
 35
0.0
 40
0.0
  0
DIMENSION
  5
137
330
1E
100
AcDbEntity
  8
ADPDIM
100
AcDbDimension
  2
*D3
 10
18.8967903946853
 20
-25.07600007877705
 30
0.0
 11
17.5217903946853
 21
-25.07600007877705
 31
0.0
100
AcDbAlignedDimension
 13
16.1467903946853
 23
-23.49500007877705
 33
0.0
 14
18.8967903946853
 24
-23.49500007877705
 34
0.0
100
AcDbRotatedDimension
  0
DIMENSION
  5
138
330
1E
100
AcDbEntity
  8
ADPDIM
100
AcDbDimension
  2
*D1
 10
18.03934095608986
 20
-20.37665596435354
 30
0.0
 11
17.53934095608986
 21
-20.37665596435354
 31
0.0
100
AcDbAlignedDimension
 13
17.03934095608986
 23
-20.56265596435354
 33
0.0
 14
18.03934095608986
 24
-20.56265596435354
 34
0.0
100
AcDbRotatedDimension
  0
DIMENSION
  5
139
330
1E
100
AcDbEntity
  8
ADPDIM
100
AcDbDimension
  2
*D0
 10
18.39749253480112
 20
-20.03565596435354
 30
0.0
 11
17.52249253480112
 21
-20.03565596435354
 31
0.0
100
AcDbAlignedDimension
 13
16.64749253480112
 23
-20.55549157505636
 33
0.0
 14
18.39749253480112
 24
-20.55549157505636
 34
0.0
100
AcDbRotatedDimension
  0
LINE
  5
13A
330
1E
100
AcDbEntity
  8
ADP1DETAIL
100
AcDbLine
 10
16.64749253480112
 20
-20.55549157505636
 30
0.0
 11
18.39749253480112
 21
-20.55549157505636
 31
0.0
  0
LINE
  5
13B
330
1E
100
AcDbEntity
  8
ADP1DETAIL
100
AcDbLine
 10
18.39749253480112
 20
-20.89944162613543
 30
0.0
 11
16.64749253480112
 21
-20.89944162613543
 31
0.0
  0
LINE
  5
13C
330
1E
100
AcDbEntity
  8
ADP1DETAIL
100
AcDbLine
 10
16.64749253480112
 20
-20.63366203801539
 30
0.0
 11
18.39749253480112
 21
-20.63366203801539
 31
0.0
  0
ARC
  5
13D
330
1E
100
AcDbEntity
  8
ADP1DETAIL
100
AcDbCircle
 10
17.52794522944863
 20
-23.46178606877201
 30
0.0
 40
1.375
100
AcDbArc
 50
78.7306025026415
 51
102.8089017104464
  0
CIRCLE
  5
13E
330
1E
100
AcDbEntity
  8
ADP1DETAIL
100
AcDbCircle
 10
17.52794522944863
 20
-23.46178606877201
 30
0.0
 40
0.8129999999999999
  0
CIRCLE
  5
13F
330
1E
100
AcDbEntity
  8
ADP1DETAIL
100
AcDbCircle
 10
17.52794522944863
 20
-23.46178606877201
 30
0.0
 40
0.5625
  0
ARC
  5
140
330
1E
100
AcDbEntity
  8
ADP1DETAIL
100
AcDbCircle
 10
17.52794522944863
 20
-23.46178606877201
 30
0.0
 40
1.375
100
AcDbArc
 50
117.4078065444871
 51
63.08396505750881
  0
CIRCLE
  5
141
330
1E
100
AcDbEntity
  8
ADP1DETAIL
100
AcDbCircle
 10
17.52794522944863
 20
-23.46178606877201
 30
0.0
 40
0.21875
  0
LINE
  5
142
330
1E
100
AcDbEntity
  8
ADP2DETAIL
  6
HIDDEN2
100
AcDbLine
 10
12.62025840222098
 20
-24.06416501162201
 30
0.0
 11
12.60679411406128
 21
-22.81307773394001
 31
0.0
  0
LINE
  5
143
330
1E
100
AcDbEntity
  8
ADP2DETAIL
  6
HIDDEN2
100
AcDbLine
 10
12.72797292595233
 20
-22.88034046794213
 30
0.0
 11
12.72797292595233
 21
-23.99690220674613
 31
0.0
  0
LWPOLYLINE
  5
144
330
1E
100
AcDbEntity
  8
ADP1DETAIL
100
AcDbPolyline
 90
        8
 70
     0
 43
0.0
 10
14.76315099711877
 20
-20.65143735950697
 10
14.75947200297725
 20
-20.65197965346251
 42
0.793486323515077
 10
14.53037024265559
 20
-20.74614755193923
 42
-0.11624932207368
 10
14.18029809514211
 20
-21.70996847106268
 42
-0.3255799469744881
 10
13.50917432014664
 20
-21.90586585385897
 42
0.1004844743030837
 10
13.00629315670192
 20
-21.81758891633983
 42
0.3709684386609064
 10
12.5664011403553
 20
-22.12699756362335
 10
12.5664011403553
 20
-24.80405529826661
  0
LWPOLYLINE
  5
14E
330
1E
100
AcDbEntity
  8
ADP1DETAIL
100
AcDbPolyline
 90
        7
 70
     0
 43
0.0
 10
12.66065137592696
 20
-24.87131803226874
 10
12.66065137592696
 20
-22.74581492906413
 42
-0.2383188578472773
 10
13.11666069414334
 20
-22.2700244199948
 10
13.31291748076105
 20
-22.2700244199948
 42
0.2681952778453694
 10
14.23415535700779
 20
-22.00592464241953
 42
0.1103745944527567
 10
14.728176408167
 20
-20.79000296393344
 10
14.74069410058441
 20
-20.78802272731734
  0
LWPOLYLINE
  5
157
330
1E
100
AcDbEntity
  8
ADP1DETAIL
100
AcDbPolyline
 90
        5
 70
     0
 43
0.0
 10
12.5664011403553
 20
-24.81750784506704
 10
12.66065137592696
 20
-24.88477057906916
 10
12.94340186418817
 20
-24.23904812002753
 10
12.94340186418817
 20
-22.63819455466074
 10
12.82222305229711
 20
-22.46331137538147
  0
LINE
  5
15E
330
1E
100
AcDbEntity
  8
ADP2DETAIL
  6
HIDDEN2
100
AcDbLine
 10
12.90300899970908
 20
-24.37357365890552
 30
0.0
 11
12.62025840222098
 21
-24.06416501162201
 31
0.0
  0
LINE
  5
15F
330
1E
100
AcDbEntity
  8
ADP2DETAIL
  6
HIDDEN2
100
AcDbLine
 10
12.72797292595233
 20
-23.99690220674613
 30
0.0
 11
12.94340186418817
 21
-24.2255955732271
 31
0.0
  0
DIMENSION
  5
160
330
1E
100
AcDbEntity
  8
ADPDIM
100
AcDbDimension
  2
*D5
 10
15.06894269747207
 20
-20.47217158401332
 30
0.0
 11
13.81767191891368
 21
-20.47217158401332
 31
0.0
100
AcDbAlignedDimension
 13
12.5664011403553
 23
-22.12699756362335
 33
0.0
 14
15.06894269747207
 24
-20.65197965346251
 34
0.0
100
AcDbRotatedDimension
  0
LWPOLYLINE
  5
161
330
1E
100
AcDbEntity
  8
ADP1DETAIL
100
AcDbPolyline
 90
        5
 70
     0
 43
0.0
 10
12.5664011403553
 20
-22.70545728866286
 42
-0.3557792251709553
 10
13.34733127356733
 20
-22.12699756362335
 42
0.0379924216271088
 10
13.69558284757787
 20
-22.14045011042377
 42
0.2892369824028639
 10
14.23415535700779
 20
-21.77723127593856
 42
0.1270412933106396
 10
14.50344166633619
 20
-20.93448327801893
 42
-1.066142503230588
  0
LINE
  5
168
330
1E
100
AcDbEntity
  8
ADP2DETAIL
  6
HIDDEN2
100
AcDbLine
 10
12.60679411406128
 20
-22.81307773394001
 30
0.0
 11
12.86261602600309
 21
-22.53057410938359
 31
0.0
  0
LINE
  5
169
330
1E
100
AcDbEntity
  8
ADP2DETAIL
  6
HIDDEN2
100
AcDbLine
 10
12.94340186418817
 20
-22.65164710146116
 30
0.0
 11
12.72797292595233
 21
-22.88034046794213
 31
0.0
  0
ARC
  5
16A
330
1E
100
AcDbEntity
  8
ADP1DETAIL
100
AcDbCircle
 10
15.0963860166338
 20
-20.07465948387132
 30
0.0
 40
0.666121832740791
100
AcDbArc
 50
232.5891510310478
 51
316.1434837145058
  0
ARC
  5
16B
330
1E
100
AcDbEntity
  8
ADP1DETAIL
100
AcDbCircle
 10
15.12092935926531
 20
-20.19046968966781
 30
0.0
 40
0.7082714767293013
100
AcDbArc
 50
237.5305661425971
 51
320.4482585735626
  0
ARC
  5
16C
330
1E
100
AcDbEntity
  8
ADP1DETAIL
100
AcDbCircle
 10
14.9635912147179
 20
-21.10406287086701
 30
0.0
 40
0.3034838332640872
100
AcDbArc
 50
114.0214536755995
 51
162.9734991815761
  0
LINE
  5
16D
330
1E
100
AcDbEntity
  8
ADP2DETAIL
  6
HIDDEN2
100
AcDbLine
 10
15.25237640244044
 20
-20.71183250097441
 30
0.0
 11
15.25237640244044
 21
-20.84253050321311
 31
0.0
  0
LINE
  5
16E
330
1E
100
AcDbEntity
  8
ADP2DETAIL
  6
HIDDEN2
100
AcDbLine
 10
15.04738365559503
 20
-20.71964956835933
 30
0.0
 11
15.04738365559503
 21
-20.84253050321311
 31
0.0
  0
LWPOLYLINE
  5
16F
330
1E
100
AcDbEntity
  8
ADP1DETAIL
100
AcDbPolyline
 90
        3
 70
     0
 43
0.0
 10
17.38985014349483
 20
-20.89162455875051
 42
0.1205385940077053
 10
17.4380837502632
 20
-21.0482468324225
 42
0.4139574634132975
 10
17.51043410580231
 20
-21.0843903904245
 42
-0.1622327392325012
  0
LWPOLYLINE
  5
174
330
1E
100
AcDbEntity
  8
ADP1DETAIL
100
AcDbPolyline
 90
        7
 70
     0
 43
0.0
 10
17.11250693188342
 20
-21.83395883937937
 42
0.2771268277112633
 10
16.15989333474172
 20
-23.21946357346809
 42
-0.1464190960979094
 10
16.59399568643017
 20
-22.24358637343411
 42
-0.3331326365626539
 10
16.84722214927083
 20
-22.13515555768061
 42
0.0000003121527055
 10
16.96780611157831
 20
-22.18334701559911
 42
0.3189829978771932
 10
17.10044850288461
 20
-22.09901192880487
 42
0.0157030801994879
 10
17.07993384180253
 20
-20.89944162613543
 42
0.0041293841076636
  0
LWPOLYLINE
  5
17D
330
1E
100
AcDbEntity
  8
ADP1DETAIL
100
AcDbPolyline
 90
        7
 70
     0
 43
0.0
 10
17.08619013783036
 20
-20.89944162613543
 42
0.0038376428058815
 10
17.2210324651921
 20
-21.83395883937937
 42
-0.0978002102719689
 10
17.20897414542016
 20
-22.19539491551562
 42
-0.3359227347050692
 10
17.13662368065417
 20
-22.25563420247686
 42
-0.09641522944013
 10
16.81104697150127
 20
-22.21949064447487
 42
0.2489535179987626
 10
16.61811254442779
 20
-22.25563420247686
 42
0.1165424108752354
 10
16.17195176374053
 20
-23.21946357346809
 42
1.19640628009253
  0
LWPOLYLINE
  5
186
330
1E
100
AcDbEntity
  8
ADP1DETAIL
100
AcDbPolyline
 90
        3
 70
     0
 43
0.0
 10
17.6310180681098
 20
-20.89162455875051
 42
-0.1205385940077053
 10
17.58278446134143
 20
-21.0482468324225
 42
-0.4139574634132975
 10
17.51043410580231
 20
-21.0843903904245
 42
0.1622327392325012
  0
LWPOLYLINE
  5
18B
330
1E
100
AcDbEntity
  8
ADP1DETAIL
100
AcDbPolyline
 90
        2
 70
     0
 43
0.0
 10
15.66704197738444
 20
-20.64147910540031
 10
15.57315551796655
 20
-20.53204044319832
  0
LINE
  5
18F
330
1E
100
AcDbEntity
  8
ADP2DETAIL
  6
HIDDEN2
100
AcDbLine
 10
16.93163093380875
 20
-20.71964956835933
 30
0.0
 11
16.93163093380875
 21
-20.89944162613543
 31
0.0
  0
LINE
  5
190
330
1E
100
AcDbEntity
  8
ADP1DETAIL
100
AcDbLine
 10
16.64749253480112
 20
-20.89944162613543
 30
0.0
 11
16.64749253480112
 21
-20.55549157505636
 31
0.0
  0
LINE
  5
191
330
1E
100
AcDbEntity
  8
ADP2DETAIL
  6
HIDDEN2
100
AcDbLine
 10
17.13662368065417
 20
-20.72746656544752
 30
0.0
 11
17.13662368065417
 21
-20.89944162613543
 31
0.0
  0
LWPOLYLINE
  5
192
330
1E
100
AcDbEntity
  8
ADP1DETAIL
100
AcDbPolyline
 90
        7
 70
     0
 43
0.0
 10
17.9083612797212
 20
-21.83395883937937
 42
-0.2771268277112622
 10
18.8609748768629
 20
-23.21946357346809
 42
0.1464190960979079
 10
18.42687252517445
 20
-22.24358637343411
 42
0.3331326365626539
 10
18.1736460623338
 20
-22.13515555768061
 42
-0.0000003121527055
 10
18.05306210002631
 20
-22.18334701559911
 42
-0.3189829978771932
 10
17.92041970872001
 20
-22.09901192880487
 42
-0.0157030801994879
 10
17.94093436980209
 20
-20.89944162613543
 42
-0.0041293841076636
  0
LWPOLYLINE
  5
19B
330
1E
100
AcDbEntity
  8
ADP1DETAIL
100
AcDbPolyline
 90
        7
 70
     0
 43
0.0
 10
17.93467807377427
 20
-20.89944162613543
 42
-0.0038376428058815
 10
17.79983574641253
 20
-21.83395883937937
 42
0.0978002102719689
 10
17.81189406618446
 20
-22.19539491551562
 42
0.3359227347050692
 10
17.88424453095046
 20
-22.25563420247686
 42
0.09641522944013
 10
18.20982124010336
 20
-22.21949064447487
 42
-0.2489535179987626
 10
18.40275566717683
 20
-22.25563420247686
 42
-0.1165424108752354
 10
18.84891644786409
 20
-23.21946357346809
 42
-1.196406280092531
  0
ARC
  5
1A4
330
1E
100
AcDbEntity
  8
ADP1DETAIL
100
AcDbCircle
 10
17.52794522944863
 20
-23.46178606877201
 30
0.0
 40
1.375
100
AcDbArc
 50
68.45179470670196
 51
71.29663387575418
  0
LINE
  5
1A5
330
1E
100
AcDbEntity
  8
ADP2DETAIL
  6
HIDDEN2
100
AcDbLine
 10
17.88424453095046
 20
-20.71964956835933
 30
0.0
 11
17.88424453095046
 21
-20.89944162613543
 31
0.0
  0
LINE
  5
1A6
330
1E
100
AcDbEntity
  8
ADP2DETAIL
  6
HIDDEN2
100
AcDbLine
 10
18.08923727779587
 20
-20.71964956835933
 30
0.0
 11
18.08923727779587
 21
-20.90725862322361
 31
0.0
  0
LINE
  5
1A7
330
1E
100
AcDbEntity
  8
ADP1DETAIL
100
AcDbLine
 10
18.39749253480112
 20
-20.55549157505636
 30
0.0
 11
18.39749253480112
 21
-20.89944162613543
 31
0.0
  0
TEXT
  5
1AB
330
1E
100
AcDbEntity
  8
ADPDIM
100
AcDbText
 10
9.315222389365054
 20
-26.05277927684982
 30
0.0
 40
0.125
  1
J U L I U S  B L U M  &  C O . ,  I N C .      ( 8 0 0 )  5 2 6 - 6 2 9 3        W W W . J U L I U S B L U M . C O M        P A R T  N o .  1 0 2 2
 41
1.25
  7
ARIAL_WIDE
 72
     1
 11
15.84095141392167
 21
-25.92777927684982
 31
0.0
100
AcDbText
 73
     3
  0
ENDSEC
  0
SECTION
  2
OBJECTS
  0
DICTIONARY
  5
C
330
0
100
AcDbDictionary
  3
ACAD_GROUP
350
D
  3
ACAD_LAYOUT
350
19
  3
ACAD_MLINESTYLE
350
16
  3
ACAD_PLOTSETTINGS
350
18
  3
ACAD_PLOTSTYLENAME
350
E
  3
ACDBHEADERROUNDTRIPXREC
350
378
  3
ACDBVARIABLEDICTIONARY
350
21C
  0
DICTIONARY
  5
1E7
330
1E
100
AcDbDictionary
280
     1
  3
ACAD_LAYOUTSELFREF
360
39A
  0
DICTIONARY
  5
1E9
330
1A
100
AcDbDictionary
280
     1
  3
ACAD_LAYOUTSELFREF
360
399
  0
DICTIONARY
  5
D
102
{ACAD_REACTORS
330
C
102
}
330
C
100
AcDbDictionary
  0
DICTIONARY
  5
19
102
{ACAD_REACTORS
330
C
102
}
330
C
100
AcDbDictionary
  0
DICTIONARY
  5
16
102
{ACAD_REACTORS
330
C
102
}
330
C
100
AcDbDictionary
  3
STANDARD
350
17
  0
DICTIONARY
  5
18
102
{ACAD_REACTORS
330
C
102
}
330
C
100
AcDbDictionary
  0
ACDBDICTIONARYWDFLT
  5
E
102
{ACAD_REACTORS
330
C
102
}
330
C
100
AcDbDictionary
281
     1
  3
Normal
350
F
100
AcDbDictionaryWithDefault
340
F
  0
DICTIONARY
  5
378
102
{ACAD_REACTORS
330
C
102
}
330
C
100
AcDbDictionary
  3
CEPSNTYPE
350
382
  3
DIMSTYLEDATA
350
386
  3
FINGERPRINTGUID
350
383
  3
HYPERLINKBASE
350
37B
  3
INSUNITS
350
381
  3
LAYOUTDICT
350
37D
  3
LWETCUNION
350
380
  3
PLOTSETDICT
350
37E
  3
PLOTSTYLNAMDICT
350
37F
  3
PSVPSCALE
350
385
  3
PUCSBASE
350
389
  3
PUCSORGBACK
350
38F
  3
PUCSORGBOTTOM
350
38B
  3
PUCSORGFRONT
350
38E
  3
PUCSORGLEFT
350
38C
  3
PUCSORGRIGHT
350
38D
  3
PUCSORGTOP
350
38A
  3
PUCSORTHOREF
350
387
  3
PUCSORTHOVIEW
350
388
  3
STYLESHEET
350
37C
  3
TSTACKALIGN
350
379
  3
TSTACKSIZE
350
37A
  3
UCSBASE
350
392
  3
UCSORGBACK
350
398
  3
UCSORGBOTTOM
350
394
  3
UCSORGFRONT
350
397
  3
UCSORGLEFT
350
395
  3
UCSORGRIGHT
350
396
  3
UCSORGTOP
350
393
  3
UCSORTHOREF
350
390
  3
UCSORTHOVIEW
350
391
  3
VERSIONGUID
350
384
  0
DICTIONARY
  5
21C
102
{ACAD_REACTORS
330
C
102
}
330
C
100
AcDbDictionary
  3
DIMASSOC
350
21E
  3
HIDETEXT
350
21D
  0
XRECORD
  5
39A
102
{ACAD_REACTORS
330
1E7
102
}
330
1E7
100
AcDbXrecord
340
1E
  0
XRECORD
  5
399
102
{ACAD_REACTORS
330
1E9
102
}
330
1E9
100
AcDbXrecord
340
1A
  0
MLINESTYLE
  5
17
102
{ACAD_REACTORS
330
16
102
}
330
16
100
AcDbMlineStyle
  2
STANDARD
 70
     0
  3

 62
   256
 51
90.0
 52
90.0
 71
     2
 49
0.5
 62
   256
  6
BYLAYER
 49
-0.5
 62
   256
  6
BYLAYER
  0
ACDBPLACEHOLDER
  5
F
102
{ACAD_REACTORS
330
E
102
}
330
E
100
AcDbPlaceHolder
280
     0
  0
XRECORD
  5
382
102
{ACAD_REACTORS
330
378
102
}
330
378
100
AcDbXrecord
 90
        0
  0
XRECORD
  5
386
102
{ACAD_REACTORS
330
378
102
}
330
378
100
AcDbXrecord
1000
DSTYLE
1002
{
1070
   277
 70
     5
1070
   279
 70
     2
1002
}
  0
XRECORD
  5
383
102
{ACAD_REACTORS
330
378
102
}
330
378
100
AcDbXrecord
  1
{F44ADA90-52DC-4C97-BC58-818FDE6536F5}
  0
XRECORD
  5
37B
102
{ACAD_REACTORS
330
378
102
}
330
378
100
AcDbXrecord
  1

  0
XRECORD
  5
381
102
{ACAD_REACTORS
330
378
102
}
330
378
100
AcDbXrecord
 90
        0
  0
XRECORD
  5
37D
102
{ACAD_REACTORS
330
378
102
}
330
378
100
AcDbXrecord
340
19
  0
XRECORD
  5
380
102
{ACAD_REACTORS
330
378
102
}
330
378
100
AcDbXrecord
 90
    14877
  0
XRECORD
  5
37E
102
{ACAD_REACTORS
330
378
102
}
330
378
100
AcDbXrecord
340
18
  0
XRECORD
  5
37F
102
{ACAD_REACTORS
330
378
102
}
330
378
100
AcDbXrecord
340
E
  0
XRECORD
  5
385
102
{ACAD_REACTORS
330
378
102
}
330
378
100
AcDbXrecord
 40
0.0
  0
XRECORD
  5
389
102
{ACAD_REACTORS
330
378
102
}
330
378
100
AcDbXrecord
340
0
  0
XRECORD
  5
38F
102
{ACAD_REACTORS
330
378
102
}
330
378
100
AcDbXrecord
 10
0.0
 20
0.0
 30
0.0
  0
XRECORD
  5
38B
102
{ACAD_REACTORS
330
378
102
}
330
378
100
AcDbXrecord
 10
0.0
 20
0.0
 30
0.0
  0
XRECORD
  5
38E
102
{ACAD_REACTORS
330
378
102
}
330
378
100
AcDbXrecord
 10
0.0
 20
0.0
 30
0.0
  0
XRECORD
  5
38C
102
{ACAD_REACTORS
330
378
102
}
330
378
100
AcDbXrecord
 10
0.0
 20
0.0
 30
0.0
  0
XRECORD
  5
38D
102
{ACAD_REACTORS
330
378
102
}
330
378
100
AcDbXrecord
 10
0.0
 20
0.0
 30
0.0
  0
XRECORD
  5
38A
102
{ACAD_REACTORS
330
378
102
}
330
378
100
AcDbXrecord
 10
0.0
 20
0.0
 30
0.0
  0
XRECORD
  5
387
102
{ACAD_REACTORS
330
378
102
}
330
378
100
AcDbXrecord
340
0
  0
XRECORD
  5
388
102
{ACAD_REACTORS
330
378
102
}
330
378
100
AcDbXrecord
 70
     0
  0
XRECORD
  5
37C
102
{ACAD_REACTORS
330
378
102
}
330
378
100
AcDbXrecord
  1

  0
XRECORD
  5
379
102
{ACAD_REACTORS
330
378
102
}
330
378
100
AcDbXrecord
 90
        1
  0
XRECORD
  5
37A
102
{ACAD_REACTORS
330
378
102
}
330
378
100
AcDbXrecord
 90
       70
  0
XRECORD
  5
392
102
{ACAD_REACTORS
330
378
102
}
330
378
100
AcDbXrecord
340
0
  0
XRECORD
  5
398
102
{ACAD_REACTORS
330
378
102
}
330
378
100
AcDbXrecord
 10
0.0
 20
0.0
 30
0.0
  0
XRECORD
  5
394
102
{ACAD_REACTORS
330
378
102
}
330
378
100
AcDbXrecord
 10
0.0
 20
0.0
 30
0.0
  0
XRECORD
  5
397
102
{ACAD_REACTORS
330
378
102
}
330
378
100
AcDbXrecord
 10
0.0
 20
0.0
 30
0.0
  0
XRECORD
  5
395
102
{ACAD_REACTORS
330
378
102
}
330
378
100
AcDbXrecord
 10
0.0
 20
0.0
 30
0.0
  0
XRECORD
  5
396
102
{ACAD_REACTORS
330
378
102
}
330
378
100
AcDbXrecord
 10
0.0
 20
0.0
 30
0.0
  0
XRECORD
  5
393
102
{ACAD_REACTORS
330
378
102
}
330
378
100
AcDbXrecord
 10
0.0
 20
0.0
 30
0.0
  0
XRECORD
  5
390
102
{ACAD_REACTORS
330
378
102
}
330
378
100
AcDbXrecord
340
0
  0
XRECORD
  5
391
102
{ACAD_REACTORS
330
378
102
}
330
378
100
AcDbXrecord
 70
     0
  0
XRECORD
  5
384
102
{ACAD_REACTORS
330
378
102
}
330
378
100
AcDbXrecord
  1
{214C645A-5BFC-4650-9039-70931C9C81C8}
  0
DICTIONARYVAR
  5
21E
102
{ACAD_REACTORS
330
21C
102
}
330
21C
100
DictionaryVariables
280
     0
  1
2
  0
DICTIONARYVAR
  5
21D
102
{ACAD_REACTORS
330
21C
102
}
330
21C
100
DictionaryVariables
280
     0
  1
1
  0
ENDSEC
  0
EOF
