  0
SECTION
  2
HEADER
  9
$ACADVER
  1
AC1014
  9
$ACADMAINTVER
 70
     9
  9
$DWGCODEPAGE
  3
ANSI_1252
  9
$INSBASE
 10
3.183337697539731
 20
-24.68807469123843
 30
0.0
  9
$EXTMIN
 10
-0.1682155618171395
 20
-25.36837037333761
 30
0.0
  9
$EXTMAX
 10
12.88324248729609
 20
-19.85060706318365
 30
0.0
  9
$LIMMIN
 10
0.0
 20
0.0
  9
$LIMMAX
 10
36.0
 20
36.0
  9
$ORTHOMODE
 70
     1
  9
$REGENMODE
 70
     1
  9
$FILLMODE
 70
     1
  9
$QTEXTMODE
 70
     0
  9
$MIRRTEXT
 70
     1
  9
$DRAGMODE
 70
     0
  9
$LTSCALE
 40
1.0
  9
$OSMODE
 70
    37
  9
$ATTMODE
 70
     1
  9
$TEXTSIZE
 40
0.2
  9
$TRACEWID
 40
0.05
  9
$TEXTSTYLE
  7
STANDARD
  9
$CLAYER
  8
ADP2DETAIL
  9
$CELTYPE
  6
BYLAYER
  9
$CECOLOR
 62
   256
  9
$CELTSCALE
 40
1.0
  9
$DELOBJ
 70
     1
  9
$DISPSILH
 70
     0
  9
$DIMSCALE
 40
1.0
  9
$DIMASZ
 40
0.125
  9
$DIMEXO
 40
0.0625
  9
$DIMDLI
 40
0.38
  9
$DIMRND
 40
0.0
  9
$DIMDLE
 40
0.0
  9
$DIMEXE
 40
0.18
  9
$DIMTP
 40
0.0
  9
$DIMTM
 40
0.0
  9
$DIMTXT
 40
0.125
  9
$DIMCEN
 40
0.1875
  9
$DIMTSZ
 40
0.125
  9
$DIMTOL
 70
     0
  9
$DIMLIM
 70
     0
  9
$DIMTIH
 70
     0
  9
$DIMTOH
 70
     0
  9
$DIMSE1
 70
     0
  9
$DIMSE2
 70
     0
  9
$DIMTAD
 70
     0
  9
$DIMZIN
 70
     3
  9
$DIMBLK
  1

  9
$DIMASO
 70
     1
  9
$DIMSHO
 70
     1
  9
$DIMPOST
  1

  9
$DIMAPOST
  1

  9
$DIMALT
 70
     0
  9
$DIMALTD
 70
     1
  9
$DIMALTF
 40
25.4
  9
$DIMLFAC
 40
1.0
  9
$DIMTOFL
 70
     0
  9
$DIMTVP
 40
0.0
  9
$DIMTIX
 70
     0
  9
$DIMSOXD
 70
     0
  9
$DIMSAH
 70
     0
  9
$DIMBLK1
  1

  9
$DIMBLK2
  1

  9
$DIMSTYLE
  2
STANDARD
  9
$DIMCLRD
 70
     0
  9
$DIMCLRE
 70
     0
  9
$DIMCLRT
 70
     0
  9
$DIMTFAC
 40
1.0
  9
$DIMGAP
 40
0.125
  9
$DIMJUST
 70
     0
  9
$DIMSD1
 70
     0
  9
$DIMSD2
 70
     0
  9
$DIMTOLJ
 70
     1
  9
$DIMTZIN
 70
     3
  9
$DIMALTZ
 70
     3
  9
$DIMALTTZ
 70
     3
  9
$DIMFIT
 70
     5
  9
$DIMUPT
 70
     0
  9
$DIMUNIT
 70
     5
  9
$DIMDEC
 70
     4
  9
$DIMTDEC
 70
     4
  9
$DIMALTU
 70
     5
  9
$DIMALTTD
 70
     1
  9
$DIMTXSTY
  7
STANDARD
  9
$DIMAUNIT
 70
     0
  9
$LUNITS
 70
     5
  9
$LUPREC
 70
     4
  9
$SKETCHINC
 40
0.1
  9
$FILLETRAD
 40
0.062
  9
$AUNITS
 70
     0
  9
$AUPREC
 70
     0
  9
$MENU
  1
acad
  9
$ELEVATION
 40
0.0
  9
$PELEVATION
 40
0.0
  9
$THICKNESS
 40
0.0
  9
$LIMCHECK
 70
     0
  9
$BLIPMODE
 70
     0
  9
$CHAMFERA
 40
0.0
  9
$CHAMFERB
 40
0.0
  9
$CHAMFERC
 40
0.0
  9
$CHAMFERD
 40
0.0
  9
$SKPOLY
 70
     0
  9
$TDCREATE
 40
2450386.505123067
  9
$TDUPDATE
 40
2452297.078973519
  9
$TDINDWG
 40
0.0421545949
  9
$TDUSRTIMER
 40
0.0421545949
  9
$USRTIMER
 70
     1
  9
$ANGBASE
 50
0.0
  9
$ANGDIR
 70
     0
  9
$PDMODE
 70
     0
  9
$PDSIZE
 40
0.0
  9
$PLINEWID
 40
0.0
  9
$COORDS
 70
     2
  9
$SPLFRAME
 70
     0
  9
$SPLINETYPE
 70
     6
  9
$SPLINESEGS
 70
     8
  9
$ATTDIA
 70
     0
  9
$ATTREQ
 70
     1
  9
$HANDLING
 70
 22529
  9
$HANDSEED
  5
384
  9
$SURFTAB1
 70
     6
  9
$SURFTAB2
 70
     6
  9
$SURFTYPE
 70
     6
  9
$SURFU
 70
     6
  9
$SURFV
 70
     6
  9
$UCSNAME
  2

  9
$UCSORG
 10
0.0
 20
0.0
 30
0.0
  9
$UCSXDIR
 10
1.0
 20
0.0
 30
0.0
  9
$UCSYDIR
 10
0.0
 20
1.0
 30
0.0
  9
$PUCSNAME
  2

  9
$PUCSORG
 10
0.0
 20
0.0
 30
0.0
  9
$PUCSXDIR
 10
1.0
 20
0.0
 30
0.0
  9
$PUCSYDIR
 10
0.0
 20
1.0
 30
0.0
  9
$USERI1
 70
     0
  9
$USERI2
 70
     0
  9
$USERI3
 70
     0
  9
$USERI4
 70
     0
  9
$USERI5
 70
     0
  9
$USERR1
 40
0.0
  9
$USERR2
 40
0.0
  9
$USERR3
 40
0.0
  9
$USERR4
 40
0.0
  9
$USERR5
 40
0.0
  9
$WORLDVIEW
 70
     1
  9
$SHADEDGE
 70
     3
  9
$SHADEDIF
 70
    70
  9
$TILEMODE
 70
     1
  9
$MAXACTVP
 70
    15
  9
$PINSBASE
 10
4.403525741743744E+99
 20
7.061986388769092E+99
 30
0.0
  9
$PLIMCHECK
 70
     0
  9
$PEXTMIN
 10
1.000000000000000E+20
 20
1.000000000000000E+20
 30
1.000000000000000E+20
  9
$PEXTMAX
 10
-1.000000000000000E+20
 20
-1.000000000000000E+20
 30
-1.000000000000000E+20
  9
$PLIMMIN
 10
0.0
 20
0.0
  9
$PLIMMAX
 10
12.0
 20
9.0
  9
$UNITMODE
 70
     0
  9
$VISRETAIN
 70
     0
  9
$PLINEGEN
 70
     0
  9
$PSLTSCALE
 70
     1
  9
$TREEDEPTH
 70
  3020
  9
$PICKSTYLE
 70
     1
  9
$CMLSTYLE
  2
STANDARD
  9
$CMLJUST
 70
     0
  9
$CMLSCALE
 40
1.0
  9
$PROXYGRAPHICS
 70
     1
  9
$MEASUREMENT
 70
     0
  0
ENDSEC
  0
SECTION
  2
CLASSES
  0
CLASS
  1
ACDBDICTIONARYWDFLT
  2
AcDbDictionaryWithDefault
  3
AutoCAD 2000
 90
        0
280
     0
281
     0
  0
CLASS
  1
ACDBPLACEHOLDER
  2
AcDbPlaceHolder
  3
AutoCAD 2000
 90
        0
280
     0
281
     0
  0
CLASS
  1
LAYOUT
  2
AcDbLayout
  3
AutoCAD 2000
 90
        0
280
     0
281
     0
  0
CLASS
  1
DICTIONARYVAR
  2
AcDbDictionaryVar
  3
AutoCAD 2000
 90
        0
280
     0
281
     0
  0
CLASS
  1
LONG_TRANSACTION
  2
AcDbLongTransaction
  3
AutoCAD 2000
 90
        0
280
     0
281
     0
  0
CLASS
  1
LWPOLYLINE
  2
AcDbPolyline
  3
AutoCAD 2000
 90
        0
280
     0
281
     1
  0
CLASS
  1
HATCH
  2
AcDbHatch
  3
AutoCAD 2000
 90
        0
280
     0
281
     1
  0
CLASS
  1
XRECORD
  2
AcDbXrecord
  3
AutoCAD 2000
 90
        0
280
     0
281
     0
  0
CLASS
  1
LONG_TRANSACTION
  2
AcDbLongTransaction
  3
AutoCAD 2000
 90
        0
280
     0
281
     0
  0
CLASS
  1
LWPOLYLINE
  2
AcDbPolyline
  3
AutoCAD 2000
 90
        0
280
     0
281
     1
  0
CLASS
  1
HATCH
  2
AcDbHatch
  3
AutoCAD 2000
 90
        0
280
     0
281
     1
  0
CLASS
  1
XRECORD
  2
AcDbXrecord
  3
AutoCAD 2000
 90
        0
280
     0
281
     0
  0
CLASS
  1
LONG_TRANSACTION
  2
AcDbLongTransaction
  3
AutoCAD 2000
 90
        0
280
     0
281
     0
  0
CLASS
  1
LWPOLYLINE
  2
AcDbPolyline
  3
AutoCAD 2000
 90
        0
280
     0
281
     1
  0
CLASS
  1
HATCH
  2
AcDbHatch
  3
AutoCAD 2000
 90
        0
280
     0
281
     1
  0
CLASS
  1
XRECORD
  2
AcDbXrecord
  3
AutoCAD 2000
 90
        0
280
     0
281
     0
  0
CLASS
  1
LONG_TRANSACTION
  2
AcDbLongTransaction
  3
AutoCAD 2000
 90
        0
280
     0
281
     0
  0
CLASS
  1
LWPOLYLINE
  2
AcDbPolyline
  3
AutoCAD 2000
 90
        0
280
     0
281
     1
  0
CLASS
  1
HATCH
  2
AcDbHatch
  3
AutoCAD 2000
 90
        0
280
     0
281
     1
  0
CLASS
  1
XRECORD
  2
AcDbXrecord
  3
AutoCAD 2000
 90
        0
280
     0
281
     0
  0
CLASS
  1
LONG_TRANSACTION
  2
AcDbLongTransaction
  3
AutoCAD 2000
 90
        0
280
     0
281
     0
  0
CLASS
  1
LWPOLYLINE
  2
AcDbPolyline
  3
AutoCAD 2000
 90
        0
280
     0
281
     1
  0
CLASS
  1
HATCH
  2
AcDbHatch
  3
AutoCAD 2000
 90
        0
280
     0
281
     1
  0
CLASS
  1
XRECORD
  2
AcDbXrecord
  3
AutoCAD 2000
 90
        0
280
     0
281
     0
  0
CLASS
  1
LONG_TRANSACTION
  2
AcDbLongTransaction
  3
AutoCAD 2000
 90
        0
280
     0
281
     0
  0
CLASS
  1
LWPOLYLINE
  2
AcDbPolyline
  3
AutoCAD 2000
 90
        0
280
     0
281
     1
  0
CLASS
  1
HATCH
  2
AcDbHatch
  3
AutoCAD 2000
 90
        0
280
     0
281
     1
  0
CLASS
  1
XRECORD
  2
AcDbXrecord
  3
AutoCAD 2000
 90
        0
280
     0
281
     0
  0
ENDSEC
  0
SECTION
  2
TABLES
  0
TABLE
  2
VPORT
  5
8
330
0
100
AcDbSymbolTable
 70
     2
  0
VPORT
  5
360
330
8
100
AcDbSymbolTableRecord
100
AcDbViewportTableRecord
  2
*ACTIVE
 70
     0
 10
0.0
 20
0.0
 11
1.0
 21
1.0
 12
6.369148145677557
 22
-22.60970167268538
 13
0.0
 23
0.0
 14
0.5740882589684922
 24
0.5740882589684922
 15
0.5
 25
0.5
 16
0.0
 26
0.0
 36
1.0
 17
0.0
 27
0.0
 37
0.0
 40
8.365595802020571
 41
1.570528967254408
 42
50.0
 43
0.0
 44
0.0
 50
0.0
 51
0.0
 71
     0
 72
   100
 73
     1
 74
     0
 75
     0
 76
     0
 77
     0
 78
     0
  0
ENDTAB
  0
TABLE
  2
LTYPE
  5
5
330
0
100
AcDbSymbolTable
 70
     1
  0
LTYPE
  5
13
330
5
100
AcDbSymbolTableRecord
100
AcDbLinetypeTableRecord
  2
BYBLOCK
 70
     0
  3

 72
    65
 73
     0
 40
0.0
  0
LTYPE
  5
14
330
5
100
AcDbSymbolTableRecord
100
AcDbLinetypeTableRecord
  2
BYLAYER
 70
     0
  3

 72
    65
 73
     0
 40
0.0
  0
LTYPE
  5
15
330
5
100
AcDbSymbolTableRecord
100
AcDbLinetypeTableRecord
  2
CONTINUOUS
 70
     0
  3
Solid line
 72
    65
 73
     0
 40
0.0
  0
ENDTAB
  0
TABLE
  2
LAYER
  5
2
330
0
100
AcDbSymbolTable
 70
     4
  0
LAYER
  5
10
330
2
100
AcDbSymbolTableRecord
100
AcDbLayerTableRecord
  2
0
 70
     0
 62
     7
  6
CONTINUOUS
  0
LAYER
  5
E9
330
2
100
AcDbSymbolTableRecord
100
AcDbLayerTableRecord
  2
DEFPOINTS
 70
     0
 62
     7
  6
CONTINUOUS
  0
LAYER
  5
EA
330
2
100
AcDbSymbolTableRecord
100
AcDbLayerTableRecord
  2
ADP2DETAIL
 70
     0
 62
     5
  6
CONTINUOUS
  0
LAYER
  5
EB
330
2
100
AcDbSymbolTableRecord
100
AcDbLayerTableRecord
  2
ADPDIM
 70
     0
 62
     3
  6
CONTINUOUS
  0
ENDTAB
  0
TABLE
  2
STYLE
  5
3
330
0
100
AcDbSymbolTable
 70
     2
  0
STYLE
  5
11
330
3
100
AcDbSymbolTableRecord
100
AcDbTextStyleTableRecord
  2
STANDARD
 70
     0
 40
0.0
 41
1.0
 50
0.0
 71
     0
 42
0.2
  3
txt
  4

  0
STYLE
  5
193
330
3
100
AcDbSymbolTableRecord
100
AcDbTextStyleTableRecord
  2
ARIAL_WIDE
 70
     0
 40
0.0
 41
1.25
 50
0.0
 71
     0
 42
0.2
  3
ARIAL.TTF
  4

1001
ACAD
1000
Arial
1071
       34
  0
ENDTAB
  0
TABLE
  2
VIEW
  5
6
330
0
100
AcDbSymbolTable
 70
     0
  0
ENDTAB
  0
TABLE
  2
UCS
  5
7
330
0
100
AcDbSymbolTable
 70
     0
  0
ENDTAB
  0
TABLE
  2
APPID
  5
9
330
0
100
AcDbSymbolTable
 70
     1
  0
APPID
  5
12
330
9
100
AcDbSymbolTableRecord
100
AcDbRegAppTableRecord
  2
ACAD
 70
     0
  0
ENDTAB
  0
TABLE
  2
DIMSTYLE
  5
A
330
0
100
AcDbSymbolTable
 70
     1
  0
DIMSTYLE
105
191
330
A
100
AcDbSymbolTableRecord
100
AcDbDimStyleTableRecord
  2
STANDARD
 70
     0
  3

  4

  5

  6

  7

 40
1.0
 41
0.18
 42
0.0625
 43
0.38
 44
0.18
 45
0.0
 46
0.0
 47
0.0
 48
0.0
140
0.18
141
0.09
142
0.0
143
25.4
144
1.0
145
0.0
146
1.0
147
0.09
 71
     0
 72
     0
 73
     1
 74
     1
 75
     0
 76
     0
 77
     0
 78
     0
170
     0
171
     2
172
     0
173
     0
174
     0
175
     0
176
     0
177
     0
178
     0
270
     2
271
     4
272
     4
273
     2
274
     2
340
11
275
     0
280
     0
281
     0
282
     0
283
     1
284
     0
285
     0
286
     0
287
     3
288
     0
  0
ENDTAB
  0
TABLE
  2
BLOCK_RECORD
  5
1
330
0
100
AcDbSymbolTable
 70
     5
  0
BLOCK_RECORD
  5
1E
102
{ACAD_XDICTIONARY
360
1D0
102
}
330
1
100
AcDbSymbolTableRecord
100
AcDbBlockTableRecord
  2
*MODEL_SPACE
  0
BLOCK_RECORD
  5
1A
102
{ACAD_XDICTIONARY
360
1D2
102
}
330
1
100
AcDbSymbolTableRecord
100
AcDbBlockTableRecord
  2
*PAPER_SPACE
  0
BLOCK_RECORD
  5
DF
330
1
100
AcDbSymbolTableRecord
100
AcDbBlockTableRecord
  2
*D0
  0
BLOCK_RECORD
  5
E0
330
1
100
AcDbSymbolTableRecord
100
AcDbBlockTableRecord
  2
*D1
  0
BLOCK_RECORD
  5
E1
330
1
100
AcDbSymbolTableRecord
100
AcDbBlockTableRecord
  2
*D2
  0
BLOCK_RECORD
  5
E2
330
1
100
AcDbSymbolTableRecord
100
AcDbBlockTableRecord
  2
*D3
  0
BLOCK_RECORD
  5
E3
330
1
100
AcDbSymbolTableRecord
100
AcDbBlockTableRecord
  2
*D4
  0
ENDTAB
  0
ENDSEC
  0
SECTION
  2
BLOCKS
  0
BLOCK
  5
EE
330
1E
100
AcDbEntity
  8
0
100
AcDbBlockBegin
  2
*MODEL_SPACE
 70
     0
 10
0.0
 20
0.0
 30
0.0
  3
*MODEL_SPACE
  1

  0
ENDBLK
  5
EF
330
1E
100
AcDbEntity
  8
0
100
AcDbBlockEnd
  0
BLOCK
  5
EC
330
1A
100
AcDbEntity
 67
     1
  8
0
100
AcDbBlockBegin
  2
*PAPER_SPACE
 70
     0
 10
0.0
 20
0.0
 30
0.0
  3
*PAPER_SPACE
  1

  0
ENDBLK
  5
ED
330
1A
100
AcDbEntity
 67
     1
  8
0
100
AcDbBlockEnd
  0
BLOCK
  5
F1
330
DF
100
AcDbEntity
  8
0
100
AcDbBlockBegin
  2
*D0
 70
     1
 10
0.0
 20
0.0
 30
0.0
  3
*D0
  1

  0
LINE
  5
F2
330
DF
100
AcDbEntity
  8
0
  6
BYBLOCK
 62
     0
100
AcDbLine
 10
7.106753412795177
 20
-20.48794267388647
 30
0.0
 11
7.106753412795177
 21
-19.85060706318365
 31
0.0
  0
LINE
  5
F3
330
DF
100
AcDbEntity
  8
0
  6
BYBLOCK
 62
     0
100
AcDbLine
 10
8.856753412795177
 20
-20.48794267388647
 30
0.0
 11
8.856753412795177
 21
-19.85060706318365
 31
0.0
  0
LINE
  5
F4
330
DF
100
AcDbEntity
  8
0
  6
BYBLOCK
 62
     0
100
AcDbLine
 10
7.106753412795177
 20
-20.03060706318365
 30
0.0
 11
7.585920079461843
 21
-20.03060706318365
 31
0.0
  0
LINE
  5
F5
330
DF
100
AcDbEntity
  8
0
  6
BYBLOCK
 62
     0
100
AcDbLine
 10
8.856753412795177
 20
-20.03060706318365
 30
0.0
 11
8.37758674612851
 21
-20.03060706318365
 31
0.0
  0
LINE
  5
F6
330
DF
100
AcDbEntity
  8
0
  6
BYBLOCK
 62
     0
100
AcDbLine
 10
6.981753412795177
 20
-20.15560706318365
 30
0.0
 11
7.231753412795177
 21
-19.90560706318365
 31
0.0
  0
LINE
  5
F7
330
DF
100
AcDbEntity
  8
0
  6
BYBLOCK
 62
     0
100
AcDbLine
 10
8.731753412795177
 20
-20.15560706318365
 30
0.0
 11
8.981753412795177
 21
-19.90560706318365
 31
0.0
  0
TEXT
  5
F8
330
DF
100
AcDbEntity
  8
0
  6
BYBLOCK
 62
     0
100
AcDbText
 10
7.710920079461843
 20
-20.09310706318365
 30
0.0
 40
0.125
  1
1 3/4
 72
     1
 11
7.981753412795177
 21
-20.03060706318365
 31
0.0
100
AcDbText
 73
     2
  0
POINT
  5
FA
330
DF
100
AcDbEntity
  8
DEFPOINTS
  6
BYBLOCK
 62
     0
100
AcDbPoint
 10
7.106753412795177
 20
-20.55044267388647
 30
0.0
  0
POINT
  5
FB
330
DF
100
AcDbEntity
  8
DEFPOINTS
  6
BYBLOCK
 62
     0
100
AcDbPoint
 10
8.856753412795177
 20
-20.55044267388647
 30
0.0
  0
POINT
  5
FC
330
DF
100
AcDbEntity
  8
DEFPOINTS
  6
BYBLOCK
 62
     0
100
AcDbPoint
 10
8.856753412795177
 20
-20.03060706318365
 30
0.0
  0
ENDBLK
  5
FD
330
DF
100
AcDbEntity
  8
0
100
AcDbBlockEnd
  0
BLOCK
  5
FE
330
E0
100
AcDbEntity
  8
0
100
AcDbBlockBegin
  2
*D1
 70
     1
 10
0.0
 20
0.0
 30
0.0
  3
*D1
  1

  0
LINE
  5
FF
330
E0
100
AcDbEntity
  8
0
  6
BYBLOCK
 62
     0
100
AcDbLine
 10
7.49860183408391
 20
-20.49510706318365
 30
0.0
 11
7.49860183408391
 21
-20.19160706318365
 31
0.0
  0
LINE
  5
100
330
E0
100
AcDbEntity
  8
0
  6
BYBLOCK
 62
     0
100
AcDbLine
 10
8.49860183408391
 20
-20.49510706318365
 30
0.0
 11
8.49860183408391
 21
-20.19160706318365
 31
0.0
  0
LINE
  5
101
330
E0
100
AcDbEntity
  8
0
  6
BYBLOCK
 62
     0
100
AcDbLine
 10
7.49860183408391
 20
-20.37160706318365
 30
0.0
 11
7.852768500750577
 21
-20.37160706318365
 31
0.0
  0
LINE
  5
102
330
E0
100
AcDbEntity
  8
0
  6
BYBLOCK
 62
     0
100
AcDbLine
 10
8.49860183408391
 20
-20.37160706318365
 30
0.0
 11
8.144435167417244
 21
-20.37160706318365
 31
0.0
  0
LINE
  5
103
330
E0
100
AcDbEntity
  8
0
  6
BYBLOCK
 62
     0
100
AcDbLine
 10
7.37360183408391
 20
-20.49660706318365
 30
0.0
 11
7.62360183408391
 21
-20.24660706318365
 31
0.0
  0
LINE
  5
104
330
E0
100
AcDbEntity
  8
0
  6
BYBLOCK
 62
     0
100
AcDbLine
 10
8.37360183408391
 20
-20.49660706318365
 30
0.0
 11
8.62360183408391
 21
-20.24660706318365
 31
0.0
  0
TEXT
  5
105
330
E0
100
AcDbEntity
  8
0
  6
BYBLOCK
 62
     0
100
AcDbText
 10
7.977768500750577
 20
-20.43410706318365
 30
0.0
 40
0.125
  1
1
 72
     1
 11
7.99860183408391
 21
-20.37160706318365
 31
0.0
100
AcDbText
 73
     2
  0
POINT
  5
106
330
E0
100
AcDbEntity
  8
DEFPOINTS
  6
BYBLOCK
 62
     0
100
AcDbPoint
 10
7.49860183408391
 20
-20.55760706318365
 30
0.0
  0
POINT
  5
107
330
E0
100
AcDbEntity
  8
DEFPOINTS
  6
BYBLOCK
 62
     0
100
AcDbPoint
 10
8.49860183408391
 20
-20.55760706318365
 30
0.0
  0
POINT
  5
108
330
E0
100
AcDbEntity
  8
DEFPOINTS
  6
BYBLOCK
 62
     0
100
AcDbPoint
 10
8.49860183408391
 20
-20.37160706318365
 30
0.0
  0
ENDBLK
  5
109
330
E0
100
AcDbEntity
  8
0
100
AcDbBlockEnd
  0
BLOCK
  5
10A
330
E1
100
AcDbEntity
  8
0
100
AcDbBlockBegin
  2
*D2
 70
     1
 10
0.0
 20
0.0
 30
0.0
  3
*D2
  1

  0
LINE
  5
10B
330
E1
100
AcDbEntity
  8
0
  6
BYBLOCK
 62
     0
100
AcDbLine
 10
8.139706107442684
 20
-23.29872154794233
 30
0.0
 11
9.635601834083908
 21
-23.29872154794233
 31
0.0
  0
LINE
  5
10C
330
E1
100
AcDbEntity
  8
0
  6
BYBLOCK
 62
     0
100
AcDbLine
 10
8.919253412795177
 20
-20.55044267388647
 30
0.0
 11
9.635601834083908
 21
-20.55044267388647
 31
0.0
  0
LINE
  5
10D
330
E1
100
AcDbEntity
  8
0
  6
BYBLOCK
 62
     0
100
AcDbLine
 10
9.455601834083909
 20
-23.29872154794233
 30
0.0
 11
9.455601834083909
 21
-22.34124877758107
 31
0.0
  0
LINE
  5
10E
330
E1
100
AcDbEntity
  8
0
  6
BYBLOCK
 62
     0
100
AcDbLine
 10
9.455601834083909
 20
-20.55044267388647
 30
0.0
 11
9.455601834083909
 21
-21.50791544424774
 31
0.0
  0
LINE
  5
10F
330
E1
100
AcDbEntity
  8
0
  6
BYBLOCK
 62
     0
100
AcDbLine
 10
9.580601834083909
 20
-23.42372154794233
 30
0.0
 11
9.330601834083909
 21
-23.17372154794234
 31
0.0
  0
LINE
  5
110
330
E1
100
AcDbEntity
  8
0
  6
BYBLOCK
 62
     0
100
AcDbLine
 10
9.580601834083909
 20
-20.67544267388647
 30
0.0
 11
9.330601834083909
 21
-20.42544267388647
 31
0.0
  0
TEXT
  5
111
330
E1
100
AcDbEntity
  8
0
  6
BYBLOCK
 62
     0
100
AcDbText
 10
9.518101834083909
 20
-22.21624877758107
 30
0.0
 40
0.125
  1
2 3/4
 50
90.0
 72
     1
 11
9.455601834083909
 21
-21.92458211091441
 31
0.0
100
AcDbText
 73
     2
  0
POINT
  5
112
330
E1
100
AcDbEntity
  8
DEFPOINTS
  6
BYBLOCK
 62
     0
100
AcDbPoint
 10
8.077206107442684
 20
-23.29872154794233
 30
0.0
  0
POINT
  5
113
330
E1
100
AcDbEntity
  8
DEFPOINTS
  6
BYBLOCK
 62
     0
100
AcDbPoint
 10
8.856753412795177
 20
-20.55044267388647
 30
0.0
  0
POINT
  5
114
330
E1
100
AcDbEntity
  8
DEFPOINTS
  6
BYBLOCK
 62
     0
100
AcDbPoint
 10
9.455601834083909
 20
-20.55044267388647
 30
0.0
  0
ENDBLK
  5
115
330
E1
100
AcDbEntity
  8
0
100
AcDbBlockEnd
  0
BLOCK
  5
116
330
E2
100
AcDbEntity
  8
0
100
AcDbBlockBegin
  2
*D3
 70
     1
 10
0.0
 20
0.0
 30
0.0
  3
*D3
  1

  0
LINE
  5
117
330
E2
100
AcDbEntity
  8
0
  6
BYBLOCK
 62
     0
100
AcDbLine
 10
8.026061594785918
 20
-23.51399303607608
 30
0.0
 11
8.070467866035329
 21
-23.76001759394323
 31
0.0
  0
LINE
  5
118
330
E2
100
AcDbEntity
  8
0
  6
BYBLOCK
 62
     0
100
AcDbLine
 10
7.880846180227639
 20
-23.41318389276722
 30
0.0
 11
8.171277009344196
 21
-23.61480217938495
 31
0.0
  0
LINE
  5
119
330
E2
100
AcDbEntity
  8
0
  6
BYBLOCK
 62
     0
100
AcDbLine
 10
7.799706107442682
 20
-23.29872154794233
 30
0.0
 11
8.174706107442682
 21
-23.29872154794233
 31
0.0
  0
LINE
  5
11A
330
E2
100
AcDbEntity
  8
0
  6
BYBLOCK
 62
     0
100
AcDbLine
 10
7.987206107442682
 20
-23.48622154794233
 30
0.0
 11
7.987206107442682
 21
-23.11122154794233
 31
0.0
  0
TEXT
  5
11B
330
E2
100
AcDbEntity
  8
0
  6
BYBLOCK
 62
     0
100
AcDbText
 10
8.031164862193248
 20
-23.89413144068915
 30
0.0
 40
0.125
  1
%%c7/16
 50
280.2314581777753
 72
     1
 11
8.140777795513564
 21
-24.14955647723287
 31
0.0
100
AcDbText
 73
     2
  0
POINT
  5
11C
330
E2
100
AcDbEntity
  8
DEFPOINTS
  6
BYBLOCK
 62
     0
100
AcDbPoint
 10
8.026061594785918
 20
-23.51399303607608
 30
0.0
  0
POINT
  5
11D
330
E2
100
AcDbEntity
  8
DEFPOINTS
  6
BYBLOCK
 62
     0
100
AcDbPoint
 10
7.948350620099447
 20
-23.08345005980859
 30
0.0
  0
ENDBLK
  5
11E
330
E2
100
AcDbEntity
  8
0
100
AcDbBlockEnd
  0
BLOCK
  5
11F
330
E3
100
AcDbEntity
  8
0
100
AcDbBlockBegin
  2
*D4
 70
     1
 10
0.0
 20
0.0
 30
0.0
  3
*D4
  1

  0
LINE
  5
120
330
E3
100
AcDbEntity
  8
0
  6
BYBLOCK
 62
     0
100
AcDbLine
 10
3.136212579753901
 20
-21.90143304279368
 30
0.0
 11
3.136212579753901
 21
-20.19160706318365
 31
0.0
  0
LINE
  5
121
330
E3
100
AcDbEntity
  8
0
  6
BYBLOCK
 62
     0
100
AcDbLine
 10
5.638754136870674
 20
-20.48891513263284
 30
0.0
 11
5.638754136870674
 21
-20.19160706318365
 31
0.0
  0
LINE
  5
122
330
E3
100
AcDbEntity
  8
0
  6
BYBLOCK
 62
     0
100
AcDbLine
 10
3.136212579753901
 20
-20.37160706318365
 30
0.0
 11
3.991650024978954
 21
-20.37160706318365
 31
0.0
  0
LINE
  5
123
330
E3
100
AcDbEntity
  8
0
  6
BYBLOCK
 62
     0
100
AcDbLine
 10
5.638754136870674
 20
-20.37160706318365
 30
0.0
 11
4.78331669164562
 21
-20.37160706318365
 31
0.0
  0
LINE
  5
124
330
E3
100
AcDbEntity
  8
0
  6
BYBLOCK
 62
     0
100
AcDbLine
 10
3.011212579753901
 20
-20.49660706318365
 30
0.0
 11
3.261212579753901
 21
-20.24660706318365
 31
0.0
  0
LINE
  5
125
330
E3
100
AcDbEntity
  8
0
  6
BYBLOCK
 62
     0
100
AcDbLine
 10
5.513754136870674
 20
-20.49660706318365
 30
0.0
 11
5.763754136870674
 21
-20.24660706318365
 31
0.0
  0
TEXT
  5
126
330
E3
100
AcDbEntity
  8
0
  6
BYBLOCK
 62
     0
100
AcDbText
 10
4.116650024978954
 20
-20.43410706318365
 30
0.0
 40
0.125
  1
2 1/2
 72
     1
 11
4.387483358312287
 21
-20.37160706318365
 31
0.0
100
AcDbText
 73
     2
  0
POINT
  5
127
330
E3
100
AcDbEntity
  8
DEFPOINTS
  6
BYBLOCK
 62
     0
100
AcDbPoint
 10
3.136212579753901
 20
-21.96393304279368
 30
0.0
  0
POINT
  5
128
330
E3
100
AcDbEntity
  8
DEFPOINTS
  6
BYBLOCK
 62
     0
100
AcDbPoint
 10
5.638754136870674
 20
-20.55141513263284
 30
0.0
  0
POINT
  5
129
330
E3
100
AcDbEntity
  8
DEFPOINTS
  6
BYBLOCK
 62
     0
100
AcDbPoint
 10
5.638754136870674
 20
-20.37160706318365
 30
0.0
  0
ENDBLK
  5
12A
330
E3
100
AcDbEntity
  8
0
100
AcDbBlockEnd
  0
ENDSEC
  0
SECTION
  2
ENTITIES
  0
LWPOLYLINE
  5
12B
330
1E
100
AcDbEntity
  8
0
100
AcDbPolyline
 90
       13
 70
     0
 43
0.0
 10
8.367622157715256
 20
-21.6708943185497
 42
-0.2771268277112622
 10
9.320235754856955
 20
-23.05639905263843
 42
0.1464190960979079
 10
8.886133403168509
 20
-22.08052185260445
 42
0.3331326365626539
 10
8.632906940327849
 20
-21.97209103685095
 42
-0.0000003121527055
 10
8.512322978020366
 20
-22.02028249476945
 42
-0.3189829978771932
 10
8.379680586714068
 20
-21.93594740797519
 42
-0.0175537488577311
 10
8.403797335484814
 20
-20.73116067651772
 42
-0.0044249504173475
 10
8.259096624406584
 20
-21.6708943185497
 42
0.0978002102719689
 10
8.271154944178517
 20
-22.03233039468595
 42
0.3359227347050692
 10
8.34350540894451
 20
-22.09256968164719
 42
0.09641522944013
 10
8.669082118097406
 20
-22.0564261236452
 42
-0.2489535179987626
 10
8.862016545170884
 20
-22.09256968164719
 42
-0.1165424108752354
 10
9.308177325858142
 20
-23.05639905263843
 42
-1.224916379559648
  0
LINE
  5
13A
330
1E
100
AcDbEntity
  8
0
100
AcDbLine
 10
7.106753412795177
 20
-20.55044267388647
 30
0.0
 11
8.856753412795177
 21
-20.55044267388647
 31
0.0
  0
LINE
  5
13B
330
1E
100
AcDbEntity
  8
0
100
AcDbLine
 10
8.856753412795177
 20
-20.73844267388647
 30
0.0
 11
7.106753412795177
 21
-20.73844267388647
 31
0.0
  0
ARC
  5
13C
330
1E
100
AcDbEntity
  8
0
100
AcDbCircle
 10
7.987206107442684
 20
-23.29872154794234
 30
0.0
 40
1.375
100
AcDbArc
 50
117.4078065444871
 51
63.08396505750881
  0
CIRCLE
  5
13D
330
1E
100
AcDbEntity
  8
0
100
AcDbCircle
 10
7.987206107442684
 20
-23.29872154794234
 30
0.0
 40
0.8129999999999999
  0
CIRCLE
  5
13E
330
1E
100
AcDbEntity
  8
0
100
AcDbCircle
 10
7.987206107442684
 20
-23.29872154794234
 30
0.0
 40
0.5625
  0
DIMENSION
  5
13F
330
1E
100
AcDbEntity
  8
ADPDIM
100
AcDbDimension
  2
*D1
 10
8.49860183408391
 20
-20.37160706318365
 30
0.0
 11
7.99860183408391
 21
-20.37160706318365
 31
0.0
100
AcDbAlignedDimension
 13
7.49860183408391
 23
-20.55760706318365
 33
0.0
 14
8.49860183408391
 24
-20.55760706318365
 34
0.0
100
AcDbRotatedDimension
  0
DIMENSION
  5
140
330
1E
100
AcDbEntity
  8
ADPDIM
100
AcDbDimension
  2
*D0
 10
8.856753412795177
 20
-20.03060706318365
 30
0.0
 11
7.981753412795177
 21
-20.03060706318365
 31
0.0
100
AcDbAlignedDimension
 13
7.106753412795177
 23
-20.55044267388647
 33
0.0
 14
8.856753412795177
 24
-20.55044267388647
 34
0.0
100
AcDbRotatedDimension
  0
DIMENSION
  5
141
330
1E
100
AcDbEntity
  8
ADPDIM
100
AcDbDimension
  2
*D2
 10
9.455601834083909
 20
-20.55044267388647
 30
0.0
 11
9.455601834083909
 21
-21.92458211091441
 31
0.0
100
AcDbAlignedDimension
 13
8.077206107442684
 23
-23.29872154794233
 33
0.0
 14
8.856753412795177
 24
-20.55044267388647
 34
0.0
 50
90.0
100
AcDbRotatedDimension
  0
LINE
  5
142
330
1E
100
AcDbEntity
  8
ADP2DETAIL
100
AcDbLine
 10
3.29778436535094
 20
-22.71727594711246
 30
0.0
 11
3.29778436535094
 21
-23.83383768591646
 31
0.0
  0
LINE
  5
143
330
1E
100
AcDbEntity
  8
ADP2DETAIL
100
AcDbLine
 10
3.190069841619581
 20
-23.90110049079233
 30
0.0
 11
3.17660555345988
 21
-22.65001321311034
 31
0.0
  0
LWPOLYLINE
  5
144
330
1E
100
AcDbEntity
  8
0
100
AcDbPolyline
 90
        5
 70
     0
 43
0.0
 10
3.136212579753901
 20
-24.65444332423737
 10
3.23046281532556
 20
-24.72170605823949
 10
3.51321330358678
 20
-24.07598359919786
 10
3.51321330358678
 20
-22.47513003383107
 10
3.39203449169572
 20
-22.3002468545518
  0
CIRCLE
  5
14B
330
1E
100
AcDbEntity
  8
0
100
AcDbCircle
 10
7.987206107442684
 20
-23.29872154794234
 30
0.0
 40
0.21875
  0
LWPOLYLINE
  5
14C
330
1E
100
AcDbEntity
  8
0
100
AcDbPolyline
 90
        7
 70
     0
 43
0.0
 10
3.23046281532556
 20
-24.70825351143906
 10
3.23046281532556
 20
-22.58275040823447
 42
-0.2138063621931978
 10
3.606211025797656
 20
-22.14430949744774
 42
0.0291691391252671
 10
3.834536301277919
 20
-22.08500603487125
 42
0.2911492215840692
 10
4.803966796406395
 20
-21.84286012158986
 42
0.1542690361133809
 10
5.234824782104954
 20
-20.73975085871254
 10
6.056147779796093
 20
-20.73975085871254
  0
LWPOLYLINE
  5
155
330
1E
100
AcDbEntity
  8
0
100
AcDbPolyline
 90
        9
 70
     0
 43
0.0
 10
6.056147779796093
 20
-20.73975085871254
 10
6.056147779796093
 20
-20.55141513263284
 10
5.221360493945255
 20
-20.55141513263284
 42
0.4904268751472045
 10
5.100181682054195
 20
-20.64558303110956
 42
-0.1232837408391267
 10
4.750109534540717
 20
-21.54690395023302
 42
-0.3151080483866869
 10
4.157599236065493
 20
-21.75213871548027
 42
0.0509928891064475
 10
3.632414085515763
 20
-21.65452439551017
 42
0.3884726981711681
 10
3.136212579753901
 20
-21.96393304279368
 10
3.136212579753901
 20
-24.64099077743695
  0
DIMENSION
  5
160
330
1E
100
AcDbEntity
  8
ADPDIM
100
AcDbDimension
  2
*D3
 10
7.948350620099447
 20
-23.08345005980859
 30
0.0
 11
8.140777795513564
 21
-24.14955647723287
 31
0.0
 70
     3
100
AcDbDiametricDimension
 15
8.026061594785918
 25
-23.51399303607608
 35
0.0
 40
0.0
  0
LINE
  5
161
330
1E
100
AcDbEntity
  8
ADP2DETAIL
100
AcDbLine
 10
3.29778436535094
 20
-23.83383768591646
 30
0.0
 11
3.51321330358678
 21
-24.06253105239743
 31
0.0
  0
LINE
  5
162
330
1E
100
AcDbEntity
  8
ADP2DETAIL
100
AcDbLine
 10
3.47282043910768
 20
-24.21050913807585
 30
0.0
 11
3.190069841619581
 21
-23.90110049079233
 31
0.0
  0
LWPOLYLINE
  5
163
330
1E
100
AcDbEntity
  8
0
100
AcDbPolyline
 90
        5
 70
     0
 43
0.0
 10
3.136212579753901
 20
-22.54239276783319
 42
-0.3557792251709553
 10
3.917142712965938
 20
-21.96393304279368
 42
0.0379924216271088
 10
4.265394286976478
 20
-21.9773855895941
 42
0.2892369824028639
 10
4.803966796406395
 20
-21.61416675510889
 42
0.1361706868240651
 10
5.073253105734794
 20
-20.83391875718926
 42
-1.08338051723456
  0
DIMENSION
  5
16A
330
1E
100
AcDbEntity
  8
ADPDIM
100
AcDbDimension
  2
*D4
 10
5.638754136870674
 20
-20.37160706318365
 30
0.0
 11
4.387483358312287
 21
-20.37160706318365
 31
0.0
100
AcDbAlignedDimension
 13
3.136212579753901
 23
-21.96393304279368
 33
0.0
 14
5.638754136870674
 24
-20.55141513263284
 34
0.0
100
AcDbRotatedDimension
  0
LINE
  5
16B
330
1E
100
AcDbEntity
  8
ADP2DETAIL
100
AcDbLine
 10
3.17660555345988
 20
-22.65001321311034
 30
0.0
 11
3.432427465401701
 21
-22.36750958855392
 31
0.0
  0
LINE
  5
16C
330
1E
100
AcDbEntity
  8
ADP2DETAIL
100
AcDbLine
 10
3.51321330358678
 20
-22.48858258063149
 30
0.0
 11
3.29778436535094
 21
-22.71727594711246
 31
0.0
  0
ARC
  5
16D
330
1E
100
AcDbEntity
  8
0
100
AcDbCircle
 10
5.77076959036971
 20
-21.31578200353271
 30
0.0
 40
0.6911918238310029
100
AcDbArc
 50
121.4768642264598
 51
144.5233309170368
  0
LINE
  5
16E
330
1E
100
AcDbEntity
  8
ADP2DETAIL
100
AcDbLine
 10
5.544503955912455
 20
-20.54920007983569
 30
0.0
 11
5.544503955912455
 21
-20.74196598238344
 31
0.0
  0
LINE
  5
16F
330
1E
100
AcDbEntity
  8
ADP2DETAIL
100
AcDbLine
 10
5.749496702757868
 20
-20.54920007983569
 30
0.0
 11
5.749496702757868
 21
-20.74196598238344
 31
0.0
  0
LWPOLYLINE
  5
170
330
1E
100
AcDbEntity
  8
0
100
AcDbPolyline
 90
       13
 70
     0
 43
0.0
 10
7.571767809877474
 20
-21.6708943185497
 42
0.2771268277112633
 10
6.619154212735773
 20
-23.05639905263843
 42
-0.1464190960979094
 10
7.053256564424222
 20
-22.08052185260445
 42
-0.3331326365626539
 10
7.306483027264881
 20
-21.97209103685095
 42
0.0000003121527055
 10
7.427066989572365
 20
-22.02028249476945
 42
0.3189829978771932
 10
7.559709380878663
 20
-21.93594740797519
 42
0.0175537488577311
 10
7.535592632107917
 20
-20.73116067651772
 42
0.0044249504173475
 10
7.680293343186146
 20
-21.6708943185497
 42
-0.0978002102719689
 10
7.668235023414213
 20
-22.03233039468595
 42
-0.3359227347050692
 10
7.59588455864822
 20
-22.09256968164719
 42
-0.09641522944013
 10
7.270307849495324
 20
-22.0564261236452
 42
0.2489535179987626
 10
7.077373422421846
 20
-22.09256968164719
 42
0.1165424108752354
 10
6.631212641734586
 20
-23.05639905263843
 42
1.224916379559648
  0
ARC
  5
17F
330
1E
100
AcDbEntity
  8
0
100
AcDbCircle
 10
7.987206107442684
 20
-23.29872154794234
 30
0.0
 40
1.375
100
AcDbArc
 50
78.7306025026415
 51
102.8089017104464
  0
LINE
  5
180
330
1E
100
AcDbEntity
  8
0
100
AcDbLine
 10
7.106753412795177
 20
-20.73844267388647
 30
0.0
 11
7.106753412795177
 21
-20.55044267388647
 31
0.0
  0
LINE
  5
181
330
1E
100
AcDbEntity
  8
ADP2DETAIL
100
AcDbLine
 10
7.390891811802807
 20
-20.55044267388647
 30
0.0
 11
7.390891811802807
 21
-20.74320857643422
 31
0.0
  0
LINE
  5
182
330
1E
100
AcDbEntity
  8
ADP2DETAIL
100
AcDbLine
 10
7.59588455864822
 20
-20.5624905383661
 30
0.0
 11
7.59588455864822
 21
-20.75525644091384
 31
0.0
  0
LWPOLYLINE
  5
183
330
1E
100
AcDbEntity
  8
0
100
AcDbPolyline
 90
        3
 70
     0
 43
0.0
 10
8.09027894610385
 20
-20.74320857643422
 42
-0.1205385940077053
 10
8.04204533933548
 20
-20.89983085010621
 42
-0.4139574634132975
 10
7.969694983796365
 20
-20.93597440810821
 42
0.1622327392325012
  0
LWPOLYLINE
  5
188
330
1E
100
AcDbEntity
  8
0
100
AcDbPolyline
 90
        3
 70
     0
 43
0.0
 10
7.84911102148888
 20
-20.74320857643422
 42
0.1205385940077053
 10
7.897344628257251
 20
-20.89983085010621
 42
0.4139574634132975
 10
7.969694983796365
 20
-20.93597440810821
 42
-0.1622327392325012
  0
ARC
  5
18D
330
1E
100
AcDbEntity
  8
0
100
AcDbCircle
 10
7.987206107442684
 20
-23.29872154794234
 30
0.0
 40
1.375
100
AcDbArc
 50
68.45179470670196
 51
71.29663387575418
  0
LINE
  5
18E
330
1E
100
AcDbEntity
  8
0
100
AcDbLine
 10
8.856753412795177
 20
-20.55044267388647
 30
0.0
 11
8.856753412795177
 21
-20.73844267388647
 31
0.0
  0
LINE
  5
18F
330
1E
100
AcDbEntity
  8
ADP2DETAIL
100
AcDbLine
 10
8.548498155789923
 20
-20.55044267388647
 30
0.0
 11
8.548498155789923
 21
-20.74320857643422
 31
0.0
  0
LINE
  5
190
330
1E
100
AcDbEntity
  8
ADP2DETAIL
100
AcDbLine
 10
8.34350540894451
 20
-20.55044267388647
 30
0.0
 11
8.34350540894451
 21
-20.74320857643422
 31
0.0
  0
TEXT
  5
194
330
1E
100
AcDbEntity
  8
ADPDIM
100
AcDbText
 10
-0.1682155618171395
 20
-25.33136491631169
 30
0.0
 40
0.125
  1
J U L I U S  B L U M  &  C O . ,  I N C .      ( 8 0 0 )  5 2 6 - 6 2 9 3        W W W . J U L I U S B L U M . C O M        P A R T  N o .  1 0 2 1
 41
1.25
  7
ARIAL_WIDE
 72
     1
 11
6.357513462739476
 21
-25.20636491631169
 31
0.0
100
AcDbText
 73
     3
  0
ENDSEC
  0
SECTION
  2
OBJECTS
  0
DICTIONARY
  5
C
330
0
100
AcDbDictionary
  3
ACAD_GROUP
350
D
  3
ACAD_LAYOUT
350
19
  3
ACAD_MLINESTYLE
350
16
  3
ACAD_PLOTSETTINGS
350
18
  3
ACAD_PLOTSTYLENAME
350
E
  3
ACDBHEADERROUNDTRIPXREC
350
361
  3
ACDBVARIABLEDICTIONARY
350
205
  0
DICTIONARY
  5
1D0
330
1E
100
AcDbDictionary
280
     1
  3
ACAD_LAYOUTSELFREF
360
383
  0
DICTIONARY
  5
1D2
330
1A
100
AcDbDictionary
280
     1
  3
ACAD_LAYOUTSELFREF
360
382
  0
DICTIONARY
  5
D
102
{ACAD_REACTORS
330
C
102
}
330
C
100
AcDbDictionary
  0
DICTIONARY
  5
19
102
{ACAD_REACTORS
330
C
102
}
330
C
100
AcDbDictionary
  0
DICTIONARY
  5
16
102
{ACAD_REACTORS
330
C
102
}
330
C
100
AcDbDictionary
  3
STANDARD
350
17
  0
DICTIONARY
  5
18
102
{ACAD_REACTORS
330
C
102
}
330
C
100
AcDbDictionary
  0
ACDBDICTIONARYWDFLT
  5
E
102
{ACAD_REACTORS
330
C
102
}
330
C
100
AcDbDictionary
281
     1
  3
Normal
350
F
100
AcDbDictionaryWithDefault
340
F
  0
DICTIONARY
  5
361
102
{ACAD_REACTORS
330
C
102
}
330
C
100
AcDbDictionary
  3
CEPSNTYPE
350
36B
  3
DIMSTYLEDATA
350
36F
  3
FINGERPRINTGUID
350
36C
  3
HYPERLINKBASE
350
364
  3
INSUNITS
350
36A
  3
LAYOUTDICT
350
366
  3
LWETCUNION
350
369
  3
PLOTSETDICT
350
367
  3
PLOTSTYLNAMDICT
350
368
  3
PSVPSCALE
350
36E
  3
PUCSBASE
350
372
  3
PUCSORGBACK
350
378
  3
PUCSORGBOTTOM
350
374
  3
PUCSORGFRONT
350
377
  3
PUCSORGLEFT
350
375
  3
PUCSORGRIGHT
350
376
  3
PUCSORGTOP
350
373
  3
PUCSORTHOREF
350
370
  3
PUCSORTHOVIEW
350
371
  3
STYLESHEET
350
365
  3
TSTACKALIGN
350
362
  3
TSTACKSIZE
350
363
  3
UCSBASE
350
37B
  3
UCSORGBACK
350
381
  3
UCSORGBOTTOM
350
37D
  3
UCSORGFRONT
350
380
  3
UCSORGLEFT
350
37E
  3
UCSORGRIGHT
350
37F
  3
UCSORGTOP
350
37C
  3
UCSORTHOREF
350
379
  3
UCSORTHOVIEW
350
37A
  3
VERSIONGUID
350
36D
  0
DICTIONARY
  5
205
102
{ACAD_REACTORS
330
C
102
}
330
C
100
AcDbDictionary
  3
DIMASSOC
350
207
  3
HIDETEXT
350
206
  0
XRECORD
  5
383
102
{ACAD_REACTORS
330
1D0
102
}
330
1D0
100
AcDbXrecord
340
1E
  0
XRECORD
  5
382
102
{ACAD_REACTORS
330
1D2
102
}
330
1D2
100
AcDbXrecord
340
1A
  0
MLINESTYLE
  5
17
102
{ACAD_REACTORS
330
16
102
}
330
16
100
AcDbMlineStyle
  2
STANDARD
 70
     0
  3

 62
   256
 51
90.0
 52
90.0
 71
     2
 49
0.5
 62
   256
  6
BYLAYER
 49
-0.5
 62
   256
  6
BYLAYER
  0
ACDBPLACEHOLDER
  5
F
102
{ACAD_REACTORS
330
E
102
}
330
E
100
AcDbPlaceHolder
280
     0
  0
XRECORD
  5
36B
102
{ACAD_REACTORS
330
361
102
}
330
361
100
AcDbXrecord
 90
        0
  0
XRECORD
  5
36F
102
{ACAD_REACTORS
330
361
102
}
330
361
100
AcDbXrecord
1000
DSTYLE
1002
{
1070
   277
 70
     5
1070
   279
 70
     2
1002
}
  0
XRECORD
  5
36C
102
{ACAD_REACTORS
330
361
102
}
330
361
100
AcDbXrecord
  1
{4252B161-308B-4D83-BE21-497CC7ED2046}
  0
XRECORD
  5
364
102
{ACAD_REACTORS
330
361
102
}
330
361
100
AcDbXrecord
  1

  0
XRECORD
  5
36A
102
{ACAD_REACTORS
330
361
102
}
330
361
100
AcDbXrecord
 90
        0
  0
XRECORD
  5
366
102
{ACAD_REACTORS
330
361
102
}
330
361
100
AcDbXrecord
340
19
  0
XRECORD
  5
369
102
{ACAD_REACTORS
330
361
102
}
330
361
100
AcDbXrecord
 90
    14877
  0
XRECORD
  5
367
102
{ACAD_REACTORS
330
361
102
}
330
361
100
AcDbXrecord
340
18
  0
XRECORD
  5
368
102
{ACAD_REACTORS
330
361
102
}
330
361
100
AcDbXrecord
340
E
  0
XRECORD
  5
36E
102
{ACAD_REACTORS
330
361
102
}
330
361
100
AcDbXrecord
 40
0.0
  0
XRECORD
  5
372
102
{ACAD_REACTORS
330
361
102
}
330
361
100
AcDbXrecord
340
0
  0
XRECORD
  5
378
102
{ACAD_REACTORS
330
361
102
}
330
361
100
AcDbXrecord
 10
0.0
 20
0.0
 30
0.0
  0
XRECORD
  5
374
102
{ACAD_REACTORS
330
361
102
}
330
361
100
AcDbXrecord
 10
0.0
 20
0.0
 30
0.0
  0
XRECORD
  5
377
102
{ACAD_REACTORS
330
361
102
}
330
361
100
AcDbXrecord
 10
0.0
 20
0.0
 30
0.0
  0
XRECORD
  5
375
102
{ACAD_REACTORS
330
361
102
}
330
361
100
AcDbXrecord
 10
0.0
 20
0.0
 30
0.0
  0
XRECORD
  5
376
102
{ACAD_REACTORS
330
361
102
}
330
361
100
AcDbXrecord
 10
0.0
 20
0.0
 30
0.0
  0
XRECORD
  5
373
102
{ACAD_REACTORS
330
361
102
}
330
361
100
AcDbXrecord
 10
0.0
 20
0.0
 30
0.0
  0
XRECORD
  5
370
102
{ACAD_REACTORS
330
361
102
}
330
361
100
AcDbXrecord
340
0
  0
XRECORD
  5
371
102
{ACAD_REACTORS
330
361
102
}
330
361
100
AcDbXrecord
 70
     0
  0
XRECORD
  5
365
102
{ACAD_REACTORS
330
361
102
}
330
361
100
AcDbXrecord
  1

  0
XRECORD
  5
362
102
{ACAD_REACTORS
330
361
102
}
330
361
100
AcDbXrecord
 90
        1
  0
XRECORD
  5
363
102
{ACAD_REACTORS
330
361
102
}
330
361
100
AcDbXrecord
 90
       70
  0
XRECORD
  5
37B
102
{ACAD_REACTORS
330
361
102
}
330
361
100
AcDbXrecord
340
0
  0
XRECORD
  5
381
102
{ACAD_REACTORS
330
361
102
}
330
361
100
AcDbXrecord
 10
0.0
 20
0.0
 30
0.0
  0
XRECORD
  5
37D
102
{ACAD_REACTORS
330
361
102
}
330
361
100
AcDbXrecord
 10
0.0
 20
0.0
 30
0.0
  0
XRECORD
  5
380
102
{ACAD_REACTORS
330
361
102
}
330
361
100
AcDbXrecord
 10
0.0
 20
0.0
 30
0.0
  0
XRECORD
  5
37E
102
{ACAD_REACTORS
330
361
102
}
330
361
100
AcDbXrecord
 10
0.0
 20
0.0
 30
0.0
  0
XRECORD
  5
37F
102
{ACAD_REACTORS
330
361
102
}
330
361
100
AcDbXrecord
 10
0.0
 20
0.0
 30
0.0
  0
XRECORD
  5
37C
102
{ACAD_REACTORS
330
361
102
}
330
361
100
AcDbXrecord
 10
0.0
 20
0.0
 30
0.0
  0
XRECORD
  5
379
102
{ACAD_REACTORS
330
361
102
}
330
361
100
AcDbXrecord
340
0
  0
XRECORD
  5
37A
102
{ACAD_REACTORS
330
361
102
}
330
361
100
AcDbXrecord
 70
     0
  0
XRECORD
  5
36D
102
{ACAD_REACTORS
330
361
102
}
330
361
100
AcDbXrecord
  1
{C8EE7202-CB87-4BB3-BFD0-1E3C51A4A432}
  0
DICTIONARYVAR
  5
207
102
{ACAD_REACTORS
330
205
102
}
330
205
100
DictionaryVariables
280
     0
  1
2
  0
DICTIONARYVAR
  5
206
102
{ACAD_REACTORS
330
205
102
}
330
205
100
DictionaryVariables
280
     0
  1
1
  0
ENDSEC
  0
EOF
